  0
SECTION
  2
HEADER
  9
$ACADVER
  1
AC1015
  9
$ACADMAINTVER
 70
    20
  9
$DWGCODEPAGE
  3
ANSI_1252
  9
$INSBASE
 10
1.966843444085657
 20
17.63308002514999
 30
0.0
  9
$EXTMIN
 10
-0.01875
 20
-0.01875
 30
-12.121909
  9
$EXTMAX
 10
9.068749999999997
 20
12.55
 30
12.121909
  9
$LIMMIN
 10
0.0
 20
0.0
  9
$LIMMAX
 10
34.0
 20
22.0
  9
$ORTHOMODE
 70
     0
  9
$REGENMODE
 70
     1
  9
$FILLMODE
 70
     1
  9
$QTEXTMODE
 70
     0
  9
$MIRRTEXT
 70
     1
  9
$LTSCALE
 40
1.0
  9
$ATTMODE
 70
     1
  9
$TEXTSIZE
 40
0.1875
  9
$TRACEWID
 40
0.05
  9
$TEXTSTYLE
  7
style1
  9
$CLAYER
  8
0
  9
$CELTYPE
  6
BYLAYER
  9
$CECOLOR
 62
     1
  9
$CELTSCALE
 40
1.0
  9
$DISPSILH
 70
     0
  9
$DIMSCALE
 40
1.0
  9
$DIMASZ
 40
0.125
  9
$DIMEXO
 40
0.125
  9
$DIMDLI
 40
0.375
  9
$DIMRND
 40
0.01
  9
$DIMDLE
 40
0.0
  9
$DIMEXE
 40
0.125
  9
$DIMTP
 40
0.0
  9
$DIMTM
 40
0.0
  9
$DIMTXT
 40
0.125
  9
$DIMCEN
 40
0.0625
  9
$DIMTSZ
 40
0.0
  9
$DIMTOL
 70
     0
  9
$DIMLIM
 70
     0
  9
$DIMTIH
 70
     0
  9
$DIMTOH
 70
     0
  9
$DIMSE1
 70
     0
  9
$DIMSE2
 70
     0
  9
$DIMTAD
 70
     1
  9
$DIMZIN
 70
     0
  9
$DIMBLK
  1

  9
$DIMASO
 70
     1
  9
$DIMSHO
 70
     1
  9
$DIMPOST
  1
"
  9
$DIMAPOST
  1
MM
  9
$DIMALT
 70
     1
  9
$DIMALTD
 70
     0
  9
$DIMALTF
 40
25.4
  9
$DIMLFAC
 40
1.0
  9
$DIMTOFL
 70
     0
  9
$DIMTVP
 40
0.0
  9
$DIMTIX
 70
     1
  9
$DIMSOXD
 70
     0
  9
$DIMSAH
 70
     1
  9
$DIMBLK1
  1
ARCHTICK
  9
$DIMBLK2
  1
ARCHTICK
  9
$DIMSTYLE
  2
STANDARD
  9
$DIMCLRD
 70
     0
  9
$DIMCLRE
 70
     0
  9
$DIMCLRT
 70
     0
  9
$DIMTFAC
 40
1.0
  9
$DIMGAP
 40
0.0625
  9
$DIMJUST
 70
     0
  9
$DIMSD1
 70
     0
  9
$DIMSD2
 70
     0
  9
$DIMTOLJ
 70
     1
  9
$DIMTZIN
 70
     0
  9
$DIMALTZ
 70
     0
  9
$DIMALTTZ
 70
     0
  9
$DIMUPT
 70
     0
  9
$DIMDEC
 70
     2
  9
$DIMTDEC
 70
     2
  9
$DIMALTU
 70
     2
  9
$DIMALTTD
 70
     0
  9
$DIMTXSTY
  7
STANDARD
  9
$DIMAUNIT
 70
     0
  9
$DIMADEC
 70
     0
  9
$DIMALTRND
 40
0.1
  9
$DIMAZIN
 70
     0
  9
$DIMDSEP
 70
    46
  9
$DIMATFIT
 70
     3
  9
$DIMFRAC
 70
     0
  9
$DIMLDRBLK
  1

  9
$DIMLUNIT
 70
     2
  9
$DIMLWD
 70
    -2
  9
$DIMLWE
 70
    -2
  9
$DIMTMOVE
 70
     2
  9
$LUNITS
 70
     2
  9
$LUPREC
 70
     5
  9
$SKETCHINC
 40
0.1
  9
$FILLETRAD
 40
0.0
  9
$AUNITS
 70
     0
  9
$AUPREC
 70
     2
  9
$MENU
  1
acad
  9
$ELEVATION
 40
0.0
  9
$PELEVATION
 40
0.0
  9
$THICKNESS
 40
0.0
  9
$LIMCHECK
 70
     0
  9
$CHAMFERA
 40
0.0
  9
$CHAMFERB
 40
0.0
  9
$CHAMFERC
 40
0.0
  9
$CHAMFERD
 40
0.0
  9
$SKPOLY
 70
     0
  9
$TDCREATE
 40
2449909.393659607
  9
$TDUCREATE
 40
2449909.518659607
  9
$TDUPDATE
 40
2458577.606915602
  9
$TDUUPDATE
 40
2458577.731915602
  9
$TDINDWG
 40
25.0788051852
  9
$TDUSRTIMER
 40
2457242.792384329
  9
$USRTIMER
 70
     1
  9
$ANGBASE
 50
0.0
  9
$ANGDIR
 70
     0
  9
$PDMODE
 70
     0
  9
$PDSIZE
 40
0.0
  9
$PLINEWID
 40
0.02
  9
$SPLFRAME
 70
     0
  9
$SPLINETYPE
 70
     6
  9
$SPLINESEGS
 70
     8
  9
$HANDSEED
  5
28BE
  9
$SURFTAB1
 70
     6
  9
$SURFTAB2
 70
     6
  9
$SURFTYPE
 70
     6
  9
$SURFU
 70
     6
  9
$SURFV
 70
     6
  9
$UCSBASE
  2

  9
$UCSNAME
  2

  9
$UCSORG
 10
0.0
 20
0.0
 30
0.0
  9
$UCSXDIR
 10
1.0
 20
0.0
 30
0.0
  9
$UCSYDIR
 10
0.0
 20
1.0
 30
0.0
  9
$UCSORTHOREF
  2

  9
$UCSORTHOVIEW
 70
     0
  9
$UCSORGTOP
 10
0.0
 20
0.0
 30
0.0
  9
$UCSORGBOTTOM
 10
0.0
 20
0.0
 30
0.0
  9
$UCSORGLEFT
 10
0.0
 20
0.0
 30
0.0
  9
$UCSORGRIGHT
 10
0.0
 20
0.0
 30
0.0
  9
$UCSORGFRONT
 10
0.0
 20
0.0
 30
0.0
  9
$UCSORGBACK
 10
0.0
 20
0.0
 30
0.0
  9
$PUCSBASE
  2

  9
$PUCSNAME
  2

  9
$PUCSORG
 10
0.0
 20
0.0
 30
0.0
  9
$PUCSXDIR
 10
1.0
 20
0.0
 30
0.0
  9
$PUCSYDIR
 10
0.0
 20
1.0
 30
0.0
  9
$PUCSORTHOREF
  2

  9
$PUCSORTHOVIEW
 70
     0
  9
$PUCSORGTOP
 10
0.0
 20
0.0
 30
0.0
  9
$PUCSORGBOTTOM
 10
0.0
 20
0.0
 30
0.0
  9
$PUCSORGLEFT
 10
0.0
 20
0.0
 30
0.0
  9
$PUCSORGRIGHT
 10
0.0
 20
0.0
 30
0.0
  9
$PUCSORGFRONT
 10
0.0
 20
0.0
 30
0.0
  9
$PUCSORGBACK
 10
0.0
 20
0.0
 30
0.0
  9
$USERI1
 70
     0
  9
$USERI2
 70
     0
  9
$USERI3
 70
     0
  9
$USERI4
 70
     0
  9
$USERI5
 70
     0
  9
$USERR1
 40
0.0
  9
$USERR2
 40
0.0
  9
$USERR3
 40
0.0
  9
$USERR4
 40
0.0
  9
$USERR5
 40
0.0
  9
$WORLDVIEW
 70
     1
  9
$SHADEDGE
 70
     3
  9
$SHADEDIF
 70
    70
  9
$TILEMODE
 70
     1
  9
$MAXACTVP
 70
    16
  9
$PINSBASE
 10
0.0
 20
0.0
 30
0.0
  9
$PLIMCHECK
 70
     0
  9
$PEXTMIN
 10
-0.1681570065772249
 20
-0.1213946304260389
 30
0.0
  9
$PEXTMAX
 10
8.196547394229035
 20
10.7205091465737
 30
0.0
  9
$PLIMMIN
 10
-0.2812499887361301
 20
-0.2812502515597606
  9
$PLIMMAX
 10
8.218749770967979
 20
10.71874950814435
  9
$UNITMODE
 70
     0
  9
$VISRETAIN
 70
     0
  9
$PLINEGEN
 70
     0
  9
$PSLTSCALE
 70
     1
  9
$TREEDEPTH
 70
  3020
  9
$CMLSTYLE
  2
STANDARD
  9
$CMLJUST
 70
     0
  9
$CMLSCALE
 40
1.0
  9
$PROXYGRAPHICS
 70
     1
  9
$MEASUREMENT
 70
     0
  9
$CELWEIGHT
370
     0
  9
$ENDCAPS
280
     0
  9
$JOINSTYLE
280
     0
  9
$LWDISPLAY
290
     0
  9
$INSUNITS
 70
     0
  9
$HYPERLINKBASE
  1

  9
$STYLESHEET
  1
Default R14 pen assignments.ctb
  9
$XEDIT
290
     1
  9
$CEPSNTYPE
380
     0
  9
$PSTYLEMODE
290
     1
  9
$FINGERPRINTGUID
  2

  9
$VERSIONGUID
  2
{38F10097-051B-435B-AFEE-59BC1F68717D}
  9
$EXTNAMES
290
     1
  9
$PSVPSCALE
 40
0.0
  9
$OLESTARTUP
290
     0
  0
ENDSEC
  0
SECTION
  2
CLASSES
  0
CLASS
  1
DICTIONARYVAR
  2
AcDbDictionaryVar
  3
ObjectDBX Classes
 90
        0
280
     0
281
     0
  0
CLASS
  1
ACMESTATEMGR
  2
AcMeStateMgr
  3
AcMeServices
 90
    32768
280
     1
281
     0
  0
CLASS
  1
ACMESCOPE
  2
AcMeScope
  3
AcMeServices
 90
    32768
280
     1
281
     0
  0
CLASS
  1
ACMECOMMANDHISTORY
  2
AcMeCommandHistory
  3
AcMeServices
 90
    32768
280
     1
281
     0
  0
CLASS
  1
ACRFINSADJUSTERMGR
  2
AcRfInsAdjusterMgr
  3
AcMeServices
 90
    32768
280
     1
281
     0
  0
CLASS
  1
ACMEDRAWINGMAN
  2
AcMeDrawingMan
  3
AcMeServices
 90
    32768
280
     1
281
     0
  0
CLASS
  1
AMATTR
  2
AcMeAttribute
  3
AcMeServices
 90
    32768
280
     1
281
     0
  0
CLASS
  1
ACMEBOMCOLUMN
  2
AcMeBOMColumn
  3
AcMeServices
 90
    32768
280
     1
281
     0
  0
CLASS
  1
ACANBOMCONF
  2
AcMeBOMConf
  3
AcMeServices
 90
    32768
280
     1
281
     0
  0
CLASS
  1
ACMEBOMTABLE
  2
AcMeBOMTable
  3
AcMeServices
 90
    32768
280
     1
281
     0
  0
CLASS
  1
ACMEBOMENTRY
  2
AcMeBOMEntry
  3
AcMeServices
 90
    32768
280
     1
281
     0
  0
CLASS
  1
ACMEVIEW
  2
AcMeView
  3
AcMeServices
 90
    32768
280
     1
281
     0
  0
CLASS
  1
ACGREFMASTER
  2
AcGrefMaster
  3
AcGrefServices
 90
    32768
280
     1
281
     0
  0
CLASS
  1
AMIMASTER
  2
AmiMaster
  3
AmiServices
 90
    32768
280
     1
281
     0
  0
CLASS
  1
ACASGREFMASTER
  2
AcAsGrefMaster
  3
AutoSurfResolverServices
 90
    32768
280
     1
281
     0
  0
CLASS
  1
ADAPPL
  2
AcAdAppl
  3
DesignerServices
 90
    32768
280
     1
281
     0
  0
CLASS
  1
DEPMGR
  2
AcAdDepMgr
  3
DesignerServices
 90
    32768
280
     1
281
     0
  0
CLASS
  1
PARAMMGR
  2
AcAdParamMgr
  3
DesignerServices
 90
    32768
280
     1
281
     0
  0
CLASS
  1
PARAMSCOPE
  2
AcAdParamScope
  3
DesignerServices
 90
    32768
280
     1
281
     0
  0
CLASS
  1
ACIMSYSVARMAN
  2
AcImSysVarManager
  3
AcMeServices
 90
    32768
280
     1
281
     0
  0
CLASS
  1
ACIMINTSYSVAR
  2
AcImIntSysVar
  3
AcMeServices
 90
    32768
280
     1
281
     0
  0
CLASS
  1
ACIMREALSYSVAR
  2
AcImRealSysVar
  3
AcMeServices
 90
    32768
280
     1
281
     0
  0
CLASS
  1
ACIMSTRSYSVAR
  2
AcImStrSysVar
  3
AcMeServices
 90
    32768
280
     1
281
     0
  0
CLASS
  1
NAMEDAPPL
  2
AcAdNamedAppl
  3
DesignerServices
 90
    32768
280
     1
281
     0
  0
CLASS
  1
ADHNTMPLT
  2
AdHoleNoteTemplateMgr
  3
DesignerServices
 90
    32768
280
     1
281
     0
  0
CLASS
  1
AM_HNTEMPLATE_MGR_NAME
  2
AdHoleNoteTemplateMgrName
  3
DesignerServices
 90
    32768
280
     1
281
     0
  0
CLASS
  1
ACADGREFMODULE
  2
AcAdGrefModule
  3
AdGrefServices
 90
    32768
280
     1
281
     0
  0
CLASS
  1
AM_DRAWING_MGR
  2
AcDmDwgMgr
  3
AcMechDwgViewMgmt
 90
    32768
280
     1
281
     0
  0
CLASS
  1
AM_DWG_DOCUMENT
  2
AcDmDwgDocument
  3
AcMechDwgViewMgmt
 90
    32768
280
     1
281
     0
  0
CLASS
  1
AM_DWG_SHEET
  2
AcDmSheet
  3
AcMechDwgViewMgmt
 90
    32768
280
     1
281
     0
  0
CLASS
  1
AM_VIEWDIMPARMAP
  2
AcDmViewDimParMap
  3
AcMechDwgViewMgmt
 90
    32768
280
     1
281
     0
  0
CLASS
  1
AM_DWGMGR_NAME
  2
AcDmDwgMgrName
  3
AcMechDwgViewMgmt
 90
    32768
280
     1
281
     0
  0
CLASS
  1
ACAMPROJECT
  2
AcAmProject
  3
DesignerAssemblies
 90
    32768
280
     1
281
     0
  0
CLASS
  1
ACAMGRCOMPSET
  2
AcAmGrCompSet
  3
DesignerAssemblies
 90
    32768
280
     1
281
     0
  0
CLASS
  1
ACAMGRCOMPDEFSET
  2
AcAmGrCompDefSet
  3
DesignerAssemblies
 90
    32768
280
     1
281
     0
  0
CLASS
  1
ACAMGRCOMPDEF
  2
AcAmGrCompDef
  3
DesignerAssemblies
 90
    32768
280
     1
281
     0
  0
CLASS
  1
ACCMCONTEXT
  2
AcCmContext
  3
DesignerAssemblies
 90
    32768
280
     1
281
     0
  0
CLASS
  1
ACAMCOMPDEF
  2
AcAmCompDef
  3
DesignerAssemblies
 90
    32768
280
     1
281
     0
  0
CLASS
  1
ACAMCOMPDEFMGR
  2
AcAmCompDefMgr
  3
DesignerAssemblies
 90
    32768
280
     1
281
     0
  0
CLASS
  1
AMCONTEXTMGR
  2
AcAmContextMgr
  3
DesignerAssemblies
 90
    32768
280
     1
281
     0
  0
CLASS
  1
ACAMCONTEXTMODELER
  2
AcAmContextModeler
  3
DesignerAssemblies
 90
    32768
280
     1
281
     0
  0
CLASS
  1
ACDMVIEWGEOM
  2
AcDmViewGeometry
  3
AcMechDwgViewMgmt
 90
    32768
280
     1
281
     1
  0
CLASS
  1
CBROWSERAPPOBJECT
  2
CBrowserAppObject
  3
McadcomServices
 90
    32768
280
     1
281
     0
  0
CLASS
  1
IM_STATIC_MAN
  2
AcImStaticVarManager
  3
AcMeServices
 90
    32768
280
     1
281
     0
  0
CLASS
  1
ASAPP
  2
AcAsAppObject
  3
AutoSurfServices
 90
    32768
280
     1
281
     0
  0
CLASS
  1
ACIMDBLSTATICVAR
  2
AcImDblStaticVar
  3
AcMeServices
 90
    32768
280
     1
281
     0
  0
CLASS
  1
ACIMSTRSTATICVAR
  2
AcImStrStaticVar
  3
AcMeServices
 90
    32768
280
     1
281
     0
  0
CLASS
  1
ACIMINTSTATICVAR
  2
AcImIntStaticVar
  3
AcMeServices
 90
    32768
280
     1
281
     0
  0
CLASS
  1
CATALOGSTATE
  2
AcAmCatalogState
  3
DesignerAssemblies
 90
    32768
280
     1
281
     0
  0
CLASS
  1
DM_PLACEHOLDER
  2
AcDmSelsetPlaceholder
  3
AcMechDwgViewMgmt
 90
    32768
280
     1
281
     0
  0
CLASS
  1
LAYER_INDEX
  2
AcDbLayerIndex
  3
ObjectDBX Classes
 90
    32768
280
     0
281
     0
  0
CLASS
  1
IDBUFFER
  2
AcDbIdBuffer
  3
ObjectDBX Classes
 90
    32768
280
     0
281
     0
  0
CLASS
  1
ACDBDICTIONARYWDFLT
  2
AcDbDictionaryWithDefault
  3
ObjectDBX Classes
 90
        0
280
     0
281
     0
  0
CLASS
  1
ACDBPLACEHOLDER
  2
AcDbPlaceHolder
  3
ObjectDBX Classes
 90
        0
280
     0
281
     0
  0
CLASS
  1
LAYOUT
  2
AcDbLayout
  3
ObjectDBX Classes
 90
        0
280
     0
281
     0
  0
CLASS
  1
LONG_TRANSACTION
  2
AcDbLongTransaction
  3
ObjectDBX Classes
 90
    32768
280
     0
281
     0
  0
CLASS
  1
LWPOLYLINE
  2
AcDbPolyline
  3
ObjectDBX Classes
 90
        0
280
     0
281
     1
  0
CLASS
  1
HATCH
  2
AcDbHatch
  3
ObjectDBX Classes
 90
        0
280
     0
281
     1
  0
CLASS
  1
XRECORD
  2
AcDbXrecord
  3
ObjectDBX Classes
 90
        0
280
     0
281
     0
  0
CLASS
  1
LONG_TRANSACTION
  2
AcDbLongTransaction
  3
ObjectDBX Classes
 90
    32768
280
     0
281
     0
  0
CLASS
  1
LWPOLYLINE
  2
AcDbPolyline
  3
ObjectDBX Classes
 90
        0
280
     0
281
     1
  0
CLASS
  1
HATCH
  2
AcDbHatch
  3
ObjectDBX Classes
 90
        0
280
     0
281
     1
  0
CLASS
  1
XRECORD
  2
AcDbXrecord
  3
ObjectDBX Classes
 90
        0
280
     0
281
     0
  0
CLASS
  1
PLOTSETTINGS
  2
AcDbPlotSettings
  3
ObjectDBX Classes
 90
        0
280
     0
281
     0
  0
CLASS
  1
LONG_TRANSACTION
  2
AcDbLongTransaction
  3
ObjectDBX Classes
 90
    32768
280
     0
281
     0
  0
CLASS
  1
LWPOLYLINE
  2
AcDbPolyline
  3
ObjectDBX Classes
 90
        0
280
     0
281
     1
  0
CLASS
  1
HATCH
  2
AcDbHatch
  3
ObjectDBX Classes
 90
        0
280
     0
281
     1
  0
CLASS
  1
XRECORD
  2
AcDbXrecord
  3
ObjectDBX Classes
 90
        0
280
     0
281
     0
  0
CLASS
  1
LONG_TRANSACTION
  2
AcDbLongTransaction
  3
ObjectDBX Classes
 90
    32768
280
     0
281
     0
  0
CLASS
  1
LWPOLYLINE
  2
AcDbPolyline
  3
ObjectDBX Classes
 90
        0
280
     0
281
     1
  0
CLASS
  1
HATCH
  2
AcDbHatch
  3
ObjectDBX Classes
 90
        0
280
     0
281
     1
  0
CLASS
  1
XRECORD
  2
AcDbXrecord
  3
ObjectDBX Classes
 90
        0
280
     0
281
     0
  0
CLASS
  1
LONG_TRANSACTION
  2
AcDbLongTransaction
  3
ObjectDBX Classes
 90
    32768
280
     0
281
     0
  0
CLASS
  1
LWPOLYLINE
  2
AcDbPolyline
  3
ObjectDBX Classes
 90
        0
280
     0
281
     1
  0
CLASS
  1
HATCH
  2
AcDbHatch
  3
ObjectDBX Classes
 90
        0
280
     0
281
     1
  0
CLASS
  1
XRECORD
  2
AcDbXrecord
  3
ObjectDBX Classes
 90
        0
280
     0
281
     0
  0
CLASS
  1
LONG_TRANSACTION
  2
AcDbLongTransaction
  3
ObjectDBX Classes
 90
    32768
280
     0
281
     0
  0
CLASS
  1
LWPOLYLINE
  2
AcDbPolyline
  3
ObjectDBX Classes
 90
        0
280
     0
281
     1
  0
CLASS
  1
HATCH
  2
AcDbHatch
  3
ObjectDBX Classes
 90
        0
280
     0
281
     1
  0
CLASS
  1
XRECORD
  2
AcDbXrecord
  3
ObjectDBX Classes
 90
        0
280
     0
281
     0
  0
CLASS
  1
LONG_TRANSACTION
  2
AcDbLongTransaction
  3
ObjectDBX Classes
 90
    32768
280
     0
281
     0
  0
CLASS
  1
LWPOLYLINE
  2
AcDbPolyline
  3
ObjectDBX Classes
 90
        0
280
     0
281
     1
  0
CLASS
  1
HATCH
  2
AcDbHatch
  3
ObjectDBX Classes
 90
        0
280
     0
281
     1
  0
CLASS
  1
XRECORD
  2
AcDbXrecord
  3
ObjectDBX Classes
 90
        0
280
     0
281
     0
  0
CLASS
  1
MATERIAL
  2
AcDbMaterial
  3
ObjectDBX Classes
 90
     1024
280
     0
281
     0
  0
CLASS
  1
VISUALSTYLE
  2
AcDbVisualStyle
  3
ObjectDBX Classes
 90
     4095
280
     0
281
     0
  0
CLASS
  1
TABLESTYLE
  2
AcDbTableStyle
  3
ObjectDBX Classes
 90
     4095
280
     0
281
     0
  0
CLASS
  1
SORTENTSTABLE
  2
AcDbSortentsTable
  3
ObjectDBX Classes
 90
        0
280
     0
281
     0
  0
CLASS
  1
SCALE
  2
AcDbScale
  3
ObjectDBX Classes
 90
     1153
280
     0
281
     0
  0
CLASS
  1
RASTERVARIABLES
  2
AcDbRasterVariables
  3
ISM
 90
        0
280
     0
281
     0
  0
ENDSEC
  0
SECTION
  2
TABLES
  0
TABLE
  2
VPORT
  5
4C4
330
0
100
AcDbSymbolTable
 70
     1
  0
VPORT
  5
22E9
330
4C4
100
AcDbSymbolTableRecord
100
AcDbViewportTableRecord
  2
*Active
 70
     0
 10
0.0
 20
0.0
 11
1.0
 21
1.0
 12
8.550584777543527
 22
4.800068147251213
 13
0.0
 23
0.0
 14
1.0
 24
1.0
 15
0.0
 25
0.0
 16
0.0
 26
0.0
 36
1.0
 17
0.0
 27
0.0
 37
0.0
 40
14.41748930371339
 41
2.664714494875549
 42
50.0
 43
0.0
 44
0.0
 50
0.0
 51
0.0
 71
     0
 72
 10000
 73
     1
 74
     0
 75
     0
 76
     0
 77
     0
 78
     0
281
     0
 65
     1
110
0.0
120
0.0
130
0.0
111
1.0
121
0.0
131
0.0
112
0.0
122
1.0
132
0.0
 79
     0
146
0.0
  0
ENDTAB
  0
TABLE
  2
LTYPE
  5
4BF
330
0
100
AcDbSymbolTable
 70
     3
  0
LTYPE
  5
4C0
330
4BF
100
AcDbSymbolTableRecord
100
AcDbLinetypeTableRecord
  2
BYBLOCK
 70
     0
  3

 72
    65
 73
     0
 40
0.0
  0
LTYPE
  5
4C1
330
4BF
100
AcDbSymbolTableRecord
100
AcDbLinetypeTableRecord
  2
BYLAYER
 70
     0
  3

 72
    65
 73
     0
 40
0.0
  0
LTYPE
  5
8
330
4BF
100
AcDbSymbolTableRecord
100
AcDbLinetypeTableRecord
  2
CONTINUOUS
 70
     0
  3
Solid line
 72
    65
 73
     0
 40
0.0
  0
LTYPE
  5
1A7
330
4BF
100
AcDbSymbolTableRecord
100
AcDbLinetypeTableRecord
  2
HIDDEN
 70
     0
  3
__ __ __ __ __ __ __ __ __ __ __ __ __ __ __ __
 72
    65
 73
     2
 40
0.375
 49
0.25
 74
     0
 49
-0.125
 74
     0
  0
LTYPE
  5
DF
330
4BF
100
AcDbSymbolTableRecord
100
AcDbLinetypeTableRecord
  2
CENTER
 70
     0
  3
____ _ ____ _ ____ _ ____ _ ____ _ ____ _ ____ 
 72
    65
 73
     4
 40
2.0
 49
1.25
 74
     0
 49
-0.25
 74
     0
 49
0.25
 74
     0
 49
-0.25
 74
     0
  0
ENDTAB
  0
TABLE
  2
LAYER
  5
4BC
102
{ACAD_XDICTIONARY
360
2534
102
}
330
0
100
AcDbSymbolTable
 70
    15
  0
LAYER
  5
4
330
4BC
100
AcDbSymbolTableRecord
100
AcDbLayerTableRecord
  2
0
 70
     0
 62
     7
  6
CONTINUOUS
370
    -3
390
5
  0
LAYER
  5
1AD
330
4BC
100
AcDbSymbolTableRecord
100
AcDbLayerTableRecord
  2
4
 70
     0
 62
     7
  6
CONTINUOUS
370
    -3
390
5
  0
LAYER
  5
19E
330
4BC
100
AcDbSymbolTableRecord
100
AcDbLayerTableRecord
  2
5
 70
     0
 62
     7
  6
CONTINUOUS
370
    -3
390
5
  0
LAYER
  5
439
330
4BC
100
AcDbSymbolTableRecord
100
AcDbLayerTableRecord
  2
Defpoints
 70
     0
 62
     7
  6
CONTINUOUS
290
     0
370
    -3
390
5
  0
LAYER
  5
42C
330
4BC
100
AcDbSymbolTableRecord
100
AcDbLayerTableRecord
  2
DIM
 70
     0
 62
     7
  6
CONTINUOUS
370
    -3
390
5
  0
LAYER
  5
423
330
4BC
100
AcDbSymbolTableRecord
100
AcDbLayerTableRecord
  2
Hatch
 70
     0
 62
     8
  6
CONTINUOUS
370
    -3
390
5
  0
LAYER
  5
1139
330
4BC
100
AcDbSymbolTableRecord
100
AcDbLayerTableRecord
  2
2
 70
     0
 62
     7
  6
CONTINUOUS
370
    -3
390
5
  0
LAYER
  5
113A
330
4BC
100
AcDbSymbolTableRecord
100
AcDbLayerTableRecord
  2
3
 70
     0
 62
     7
  6
CONTINUOUS
370
    -3
390
5
  0
LAYER
  5
113B
330
4BC
100
AcDbSymbolTableRecord
100
AcDbLayerTableRecord
  2
1
 70
     0
 62
     7
  6
CONTINUOUS
370
    -3
390
5
  0
LAYER
  5
252B
330
4BC
100
AcDbSymbolTableRecord
100
AcDbLayerTableRecord
  2
glass
 70
     0
 62
   132
  6
CONTINUOUS
370
    -3
390
5
1001
AcAecLayerStandard
1000

1000

1001
AcCmTransparency
1071
        0
  0
LAYER
  5
252C
330
4BC
100
AcDbSymbolTableRecord
100
AcDbLayerTableRecord
  2
silicone
 70
     0
 62
    44
  6
CONTINUOUS
370
    -3
390
5
1001
AcAecLayerStandard
1000

1000

1001
AcCmTransparency
1071
        0
  0
LAYER
  5
252D
330
4BC
100
AcDbSymbolTableRecord
100
AcDbLayerTableRecord
  2
structural tape
 70
     0
 62
    84
  6
CONTINUOUS
370
    -3
390
5
1001
AcAecLayerStandard
1000

1000

1001
AcCmTransparency
1071
        0
  0
LAYER
  5
252E
330
4BC
100
AcDbSymbolTableRecord
100
AcDbLayerTableRecord
  2
tape
 70
     0
 62
    50
  6
CONTINUOUS
370
    -3
390
5
1001
AcAecLayerStandard
1000

1000

1001
AcCmTransparency
1071
        0
  0
LAYER
  5
252F
330
4BC
100
AcDbSymbolTableRecord
100
AcDbLayerTableRecord
  2
spacer1
 70
     0
 62
   254
  6
CONTINUOUS
370
    -3
390
5
1001
AcAecLayerStandard
1000

1000

1001
AcCmTransparency
1071
        0
  0
LAYER
  5
2530
330
4BC
100
AcDbSymbolTableRecord
100
AcDbLayerTableRecord
  2
hc1
 70
     0
 62
     7
  6
CONTINUOUS
370
    -3
390
5
1001
AcAecLayerStandard
1000

1000

1001
AcCmTransparency
1071
        0
  0
ENDTAB
  0
TABLE
  2
STYLE
  5
4BD
330
0
100
AcDbSymbolTable
 70
     5
  0
STYLE
  5
3CF
330
4BD
100
AcDbSymbolTableRecord
100
AcDbTextStyleTableRecord
  2
STANDARD
 70
     0
 40
0.0
 41
1.0
 50
0.0
 71
     0
 42
0.25
  3
architec.shx
  4

  0
STYLE
  5
19F
330
4BD
100
AcDbSymbolTableRecord
100
AcDbTextStyleTableRecord
  2
ROMANS
 70
     0
 40
0.1875
 41
0.8
 50
0.0
 71
     0
 42
0.1875
  3
architec.shx
  4

  0
STYLE
  5
402
330
4BD
100
AcDbSymbolTableRecord
100
AcDbTextStyleTableRecord
  2
ADESK1
 70
     0
 40
0.0
 41
0.8
 50
0.0
 71
     0
 42
0.25
  3
architec.shx
  4

  0
STYLE
  5
3E0
330
4BD
100
AcDbSymbolTableRecord
100
AcDbTextStyleTableRecord
  2
TITLE
 70
     0
 40
0.0
 41
1.0
 50
0.0
 71
     0
 42
0.32668537629849
  3
romand.shx
  4

  0
STYLE
  5
E47
330
4BD
100
AcDbSymbolTableRecord
100
AcDbTextStyleTableRecord
  2
style1
 70
     0
 40
0.1875
 41
1.0
 50
0.0
 71
     0
 42
0.1875
  3
romand.shx
  4

  0
ENDTAB
  0
TABLE
  2
VIEW
  5
4C2
330
0
100
AcDbSymbolTable
 70
     0
  0
ENDTAB
  0
TABLE
  2
UCS
  5
4C3
330
0
100
AcDbSymbolTable
 70
     0
  0
ENDTAB
  0
TABLE
  2
APPID
  5
4C6
330
0
100
AcDbSymbolTable
 70
     7
  0
APPID
  5
43E
330
4C6
100
AcDbSymbolTableRecord
100
AcDbRegAppTableRecord
  2
ACAD
 70
     0
  0
APPID
  5
1953
330
4C6
100
AcDbSymbolTableRecord
100
AcDbRegAppTableRecord
  2
DCO15
 70
     0
  0
APPID
  5
199A
330
4C6
100
AcDbSymbolTableRecord
100
AcDbRegAppTableRecord
  2
ACAD_EXEMPT_FROM_CAD_STANDARDS
 70
     0
  0
APPID
  5
2531
330
4C6
100
AcDbSymbolTableRecord
100
AcDbRegAppTableRecord
  2
AcAecLayerStandard
 70
     0
  0
APPID
  5
2532
330
4C6
100
AcDbSymbolTableRecord
100
AcDbRegAppTableRecord
  2
AcCmTransparency
 70
     0
  0
APPID
  5
2533
330
4C6
100
AcDbSymbolTableRecord
100
AcDbRegAppTableRecord
  2
ACAD_NAV_VCDISPLAY
 70
     0
  0
APPID
  5
286E
330
4C6
100
AcDbSymbolTableRecord
100
AcDbRegAppTableRecord
  2
ACAD_PSEXT
 70
     0
  0
ENDTAB
  0
TABLE
  2
DIMSTYLE
  5
4C7
330
0
100
AcDbSymbolTable
 70
     2
100
AcDbDimStyleTable
 71
     1
340
430
  0
DIMSTYLE
105
430
102
{ACAD_REACTORS
330
271D
102
}
330
4C7
100
AcDbSymbolTableRecord
100
AcDbDimStyleTableRecord
  2
STANDARD
 70
     0
 41
0.125
 42
0.125
 43
0.375
 44
0.125
140
0.125
141
0.0625
147
0.0625
171
     1
173
     1
174
     1
271
     2
272
     2
274
     1
277
     4
279
     2
340
3CF
341
C12
343
C12
344
C12
  0
DIMSTYLE
105
143D
102
{ACAD_REACTORS
330
24FD
102
}
330
4C7
100
AcDbSymbolTableRecord
100
AcDbDimStyleTableRecord
  2
STANDARD$0
 70
     0
 41
0.08
 44
0.0625
 73
     0
 74
     0
 77
     1
140
0.08
141
0.0
147
0.035
172
     1
271
     5
272
     5
276
     2
277
     5
340
3CF
  0
ENDTAB
  0
TABLE
  2
BLOCK_RECORD
  5
1
330
0
100
AcDbSymbolTable
 70
    20
  0
BLOCK_RECORD
  5
2
102
{ACAD_XDICTIONARY
360
47A
102
}
330
1
100
AcDbSymbolTableRecord
100
AcDbBlockTableRecord
  2
*MODEL_SPACE
340
47E
  0
BLOCK_RECORD
  5
2861
330
1
100
AcDbSymbolTableRecord
100
AcDbBlockTableRecord
  2
*Paper_Space
340
2862
  0
BLOCK_RECORD
  5
485
330
1
100
AcDbSymbolTableRecord
100
AcDbBlockTableRecord
  2
ansi_v
340
0
  0
BLOCK_RECORD
  5
42D
330
1
100
AcDbSymbolTableRecord
100
AcDbBlockTableRecord
  2
_None
340
0
  0
BLOCK_RECORD
  5
440
330
1
100
AcDbSymbolTableRecord
100
AcDbBlockTableRecord
  2
_DotSmall
340
0
  0
BLOCK_RECORD
  5
C12
330
1
100
AcDbSymbolTableRecord
100
AcDbBlockTableRecord
  2
_ARCHTICK
340
0
102
{BLKREFS
331
2276
331
2277
331
2451
331
2452
331
26D8
331
26D9
331
270D
331
270E
331
274F
331
2750
331
285C
331
285D
102
}
  0
BLOCK_RECORD
  5
E8E
330
1
100
AcDbSymbolTableRecord
100
AcDbBlockTableRecord
  2
A$C65655757
340
0
  0
BLOCK_RECORD
  5
113C
330
1
100
AcDbSymbolTableRecord
100
AcDbBlockTableRecord
  2
sol_t profile
340
0
  0
BLOCK_RECORD
  5
13EA
330
1
100
AcDbSymbolTableRecord
100
AcDbBlockTableRecord
  2
A$C612D7DA8
340
0
  0
BLOCK_RECORD
  5
1663
330
1
100
AcDbSymbolTableRecord
100
AcDbBlockTableRecord
  2
fordelte
340
0
310
2800000020000000200000000100080000000000000400000000000000000000000000000000000000000000000080000080000000808000800000008000800080800000C0C0C000C0DCC000F0CAA6000020400000206000002080000020A0000020C0000020E00000400000004020000040400000406000004080000040A0
310
000040C0000040E00000600000006020000060400000606000006080000060A0000060C0000060E00000800000008020000080400000806000008080000080A0000080C0000080E00000A0000000A0200000A0400000A0600000A0800000A0A00000A0C00000A0E00000C0000000C0200000C0400000C0600000C0800000C0
310
A00000C0C00000C0E00000E0000000E0200000E0400000E0600000E0800000E0A00000E0C00000E0E00040000000400020004000400040006000400080004000A0004000C0004000E00040200000402020004020400040206000402080004020A0004020C0004020E000404000004040200040404000404060004040800040
310
40A0004040C0004040E00040600000406020004060400040606000406080004060A0004060C0004060E00040800000408020004080400040806000408080004080A0004080C0004080E00040A0000040A0200040A0400040A0600040A0800040A0A00040A0C00040A0E00040C0000040C0200040C0400040C0600040C08000
310
40C0A00040C0C00040C0E00040E0000040E0200040E0400040E0600040E0800040E0A00040E0C00040E0E00080000000800020008000400080006000800080008000A0008000C0008000E00080200000802020008020400080206000802080008020A0008020C0008020E00080400000804020008040400080406000804080
310
008040A0008040C0008040E00080600000806020008060400080606000806080008060A0008060C0008060E00080800000808020008080400080806000808080008080A0008080C0008080E00080A0000080A0200080A0400080A0600080A0800080A0A00080A0C00080A0E00080C0000080C0200080C0400080C0600080C0
310
800080C0A00080C0C00080C0E00080E0000080E0200080E0400080E0600080E0800080E0A00080E0C00080E0E000C0000000C0002000C0004000C0006000C0008000C000A000C000C000C000E000C0200000C0202000C0204000C0206000C0208000C020A000C020C000C020E000C0400000C0402000C0404000C0406000C0
310
408000C040A000C040C000C040E000C0600000C0602000C0604000C0606000C0608000C060A000C060C000C060E000C0800000C0802000C0804000C0806000C0808000C080A000C080C000C080E000C0A00000C0A02000C0A04000C0A06000C0A08000C0A0A000C0A0C000C0A0E000C0C00000C0C02000C0C04000C0C06000
310
C0C08000C0C0A000F0FBFF00A4A0A000808080000000FF0000FF000000FFFF00FF000000FF00FF00FFFF0000FFFFFF0000000000000000000000000000000000000000000000000000000000000000000000000000000000000000000000000000000000000000000000000000000000000000000000000000000000000000
310
000000000000000000000000000000000000000000000000000000000000000000000000000000000000000000000000000000000000FFFFFFFFFFFFFFFF000000000000000000000000000000000000000000000000FF00FFFF000000FF000000000000000000000000000000000000000000000000FF00FF00000000FF00
310
0000000000000000000000000000000000000000000000FF00FF00000000FF000000000000000000000000000000000000000000000000FF00FFFFFF0000FF000000000000000000000000000000000000000000000000FF00FFFFFFFFFFFFFFFFFFFFFFFFFFFFFFFF00FFFFFF00000000000000000000FF00FFFFFFFFFFFF
310
FFFFFFFFFFFFFFFFFFFFFFFF00FF00000000000000000000FF00FF00000000000000FFFFFFFFFFFFFF00FFFF00FF00000000000000000000FF00FFFFFFFFFFFFFFFFFFFFFFFFFFFFFFFFFFFF00FF00000000000000000000FF00FFFFFFFFFFFFFFFFFFFFFFFFFFFFFFFFFFFF00FF00000000000000000000FF00FF00000000
310
000000000000000000000000FF00FF00000000000000000000FF00FFFFFFFFFFFFFFFFFFFFFFFFFFFFFFFFFFFF00FF00000000000000000000FF00FF00000000000000000000000000000000FF00FF00000000000000000000FF00FFFFFFFFFFFFFFFFFFFFFFFFFFFFFFFFFFFF00FF00000000000000000000FF00FF000000
310
00000000000000000000000000FF00FF00000000000000000000FF00FFFFFFFFFFFFFFFFFFFFFFFFFFFFFFFFFFFF00FF00000000000000000000FF00FF00000000000000000000000000000000FF00FF00000000000000000000FF00FFFFFFFFFFFFFFFFFFFFFFFFFFFFFFFFFFFF00FF00000000000000000000FF00FFFFFF
310
FFFFFFFFFFFFFFFFFFFFFFFFFFFFFF00FF00000000000000000000FF00FF00000000000000000000000000000000FF00FF00000000000000000000FF00FFFFFFFFFFFFFFFFFFFFFFFFFFFFFFFFFFFF00FF00000000000000000000FF00FF00000000000000000000FF0000000000FF00FF000000000000FFFFFFFFFFFFFFFF
310
FFFFFFFFFFFFFFFFFFFFFFFFFFFFFFFFFFFFFFFFFFFF000000000000000000000000000000FFFF00000000000000000000000000000000000000000000000000000000000000000000000000000000000000000000000000000000000000000000000000000000000000000000000000000000000000000000000000000000
310
0000000000000000000000000000000000000000000000000000000000000000000000000000000000000000000000000000000000000000
  0
BLOCK_RECORD
  5
19A4
330
1
100
AcDbSymbolTableRecord
100
AcDbBlockTableRecord
  2
tape.5
340
0
310
2800000020000000200000000100080000000000000400000000000000000000000000000000000000000000000080000080000000808000800000008000800080800000C0C0C000C0DCC000F0CAA6000020400000206000002080000020A0000020C0000020E00000400000004020000040400000406000004080000040A0
310
000040C0000040E00000600000006020000060400000606000006080000060A0000060C0000060E00000800000008020000080400000806000008080000080A0000080C0000080E00000A0000000A0200000A0400000A0600000A0800000A0A00000A0C00000A0E00000C0000000C0200000C0400000C0600000C0800000C0
310
A00000C0C00000C0E00000E0000000E0200000E0400000E0600000E0800000E0A00000E0C00000E0E00040000000400020004000400040006000400080004000A0004000C0004000E00040200000402020004020400040206000402080004020A0004020C0004020E000404000004040200040404000404060004040800040
310
40A0004040C0004040E00040600000406020004060400040606000406080004060A0004060C0004060E00040800000408020004080400040806000408080004080A0004080C0004080E00040A0000040A0200040A0400040A0600040A0800040A0A00040A0C00040A0E00040C0000040C0200040C0400040C0600040C08000
310
40C0A00040C0C00040C0E00040E0000040E0200040E0400040E0600040E0800040E0A00040E0C00040E0E00080000000800020008000400080006000800080008000A0008000C0008000E00080200000802020008020400080206000802080008020A0008020C0008020E00080400000804020008040400080406000804080
310
008040A0008040C0008040E00080600000806020008060400080606000806080008060A0008060C0008060E00080800000808020008080400080806000808080008080A0008080C0008080E00080A0000080A0200080A0400080A0600080A0800080A0A00080A0C00080A0E00080C0000080C0200080C0400080C0600080C0
310
800080C0A00080C0C00080C0E00080E0000080E0200080E0400080E0600080E0800080E0A00080E0C00080E0E000C0000000C0002000C0004000C0006000C0008000C000A000C000C000C000E000C0200000C0202000C0204000C0206000C0208000C020A000C020C000C020E000C0400000C0402000C0404000C0406000C0
310
408000C040A000C040C000C040E000C0600000C0602000C0604000C0606000C0608000C060A000C060C000C060E000C0800000C0802000C0804000C0806000C0808000C080A000C080C000C080E000C0A00000C0A02000C0A04000C0A06000C0A08000C0A0A000C0A0C000C0A0E000C0C00000C0C02000C0C04000C0C06000
310
C0C08000C0C0A000F0FBFF00A4A0A000808080000000FF0000FF000000FFFF00FF000000FF00FF00FFFF0000FFFFFF000000000000000000000000000000000000000000000000000000000000000000000000000000000000000000000000FFFF000000000000000000000000000000000000000000000000000000000000
310
FFFF000000000000000000000000000000000000000000000000000000000000FFFF000000000000000000000000000000000000000000000000000000000000FFFF000000000000000000000000000000000000000000000000000000000000FFFF0000000000000000000000000000000000000000000000000000000000
310
00FFFF000000000000000000000000000000000000000000000000000000000000FFFF000000000000000000000000000000000000000000000000000000000000FFFF000000000000000000000000000000000000000000000000000000000000FFFF00000000000000000000000000000000000000000000000000000000
310
0000FFFF000000000000000000000000000000000000000000000000000000000000FFFF000000000000000000000000000000000000000000000000000000000000FFFF000000000000000000000000000000000000000000000000000000000000FFFF000000000000000000000000000000000000000000000000000000
310
000000FFFF000000000000000000000000000000000000000000000000000000000000FFFF000000000000000000000000000000000000000000000000000000000000FFFF000000000000000000000000000000000000000000000000000000000000FFFF0000000000000000000000000000000000000000000000000000
310
00000000FFFF000000000000000000000000000000000000000000000000000000000000FFFF000000000000000000000000000000000000000000000000000000000000FFFF000000000000000000000000000000000000000000000000000000000000FFFF00000000000000000000000000000000000000000000000000
310
0000000000FFFF000000000000000000000000000000000000000000000000000000000000FFFF000000000000000000000000000000000000000000000000000000000000FFFF000000000000000000000000000000000000000000000000000000000000FFFF000000000000000000000000000000000000000000000000
310
000000000000FFFF000000000000000000000000000000000000000000000000000000000000FFFF000000000000000000000000000000000000000000000000000000000000FFFF000000000000000000000000000000000000000000000000000000000000FFFF0000000000000000000000000000000000000000000000
310
00000000000000FFFF0000000000000000000000000000000000000000000000000000000000000000000000000000000000000000000000
  0
BLOCK_RECORD
  5
19B0
330
1
100
AcDbSymbolTableRecord
100
AcDbBlockTableRecord
  2
tape.1875
340
0
310
2800000020000000200000000100080000000000000400000000000000000000000000000000000000000000000080000080000000808000800000008000800080800000C0C0C000C0DCC000F0CAA6000020400000206000002080000020A0000020C0000020E00000400000004020000040400000406000004080000040A0
310
000040C0000040E00000600000006020000060400000606000006080000060A0000060C0000060E00000800000008020000080400000806000008080000080A0000080C0000080E00000A0000000A0200000A0400000A0600000A0800000A0A00000A0C00000A0E00000C0000000C0200000C0400000C0600000C0800000C0
310
A00000C0C00000C0E00000E0000000E0200000E0400000E0600000E0800000E0A00000E0C00000E0E00040000000400020004000400040006000400080004000A0004000C0004000E00040200000402020004020400040206000402080004020A0004020C0004020E000404000004040200040404000404060004040800040
310
40A0004040C0004040E00040600000406020004060400040606000406080004060A0004060C0004060E00040800000408020004080400040806000408080004080A0004080C0004080E00040A0000040A0200040A0400040A0600040A0800040A0A00040A0C00040A0E00040C0000040C0200040C0400040C0600040C08000
310
40C0A00040C0C00040C0E00040E0000040E0200040E0400040E0600040E0800040E0A00040E0C00040E0E00080000000800020008000400080006000800080008000A0008000C0008000E00080200000802020008020400080206000802080008020A0008020C0008020E00080400000804020008040400080406000804080
310
008040A0008040C0008040E00080600000806020008060400080606000806080008060A0008060C0008060E00080800000808020008080400080806000808080008080A0008080C0008080E00080A0000080A0200080A0400080A0600080A0800080A0A00080A0C00080A0E00080C0000080C0200080C0400080C0600080C0
310
800080C0A00080C0C00080C0E00080E0000080E0200080E0400080E0600080E0800080E0A00080E0C00080E0E000C0000000C0002000C0004000C0006000C0008000C000A000C000C000C000E000C0200000C0202000C0204000C0206000C0208000C020A000C020C000C020E000C0400000C0402000C0404000C0406000C0
310
408000C040A000C040C000C040E000C0600000C0602000C0604000C0606000C0608000C060A000C060C000C060E000C0800000C0802000C0804000C0806000C0808000C080A000C080C000C080E000C0A00000C0A02000C0A04000C0A06000C0A08000C0A0A000C0A0C000C0A0E000C0C00000C0C02000C0C04000C0C06000
310
C0C08000C0C0A000F0FBFF00A4A0A000808080000000FF0000FF000000FFFF00FF000000FF00FF00FFFF0000FFFFFF0000000000000000000000000000000000000000000000000000000000000000000000000000000000000000FFFFFFFFFFFFFFFFFFFF00000000000000000000000000000000000000000000FF000000
310
0000000000FF00000000000000000000000000000000000000000000FF0000000000000000FF00000000000000000000000000000000000000000000FF0000000000000000FF00000000000000000000000000000000000000000000FF0000000000000000FF00000000000000000000000000000000000000000000FF0000
310
000000000000FF00000000000000000000000000000000000000000000FF0000000000000000FF00000000000000000000000000000000000000000000FF0000000000000000FF00000000000000000000000000000000000000000000FF0000000000000000FF00000000000000000000000000000000000000000000FF00
310
00000000000000FF00000000000000000000000000000000000000000000FF0000000000000000FF00000000000000000000000000000000000000000000FF0000000000000000FF00000000000000000000000000000000000000000000FF0000000000000000FF00000000000000000000000000000000000000000000FF
310
0000000000000000FF00000000000000000000000000000000000000000000FF0000000000000000FF00000000000000000000000000000000000000000000FF0000000000000000FF00000000000000000000000000000000000000000000FF0000000000000000FF00000000000000000000000000000000000000000000
310
FF0000000000000000FF00000000000000000000000000000000000000000000FF0000000000000000FF00000000000000000000000000000000000000000000FF0000000000000000FF00000000000000000000000000000000000000000000FF0000000000000000FF000000000000000000000000000000000000000000
310
00FF0000000000000000FF00000000000000000000000000000000000000000000FF0000000000000000FF00000000000000000000000000000000000000000000FF0000000000000000FF00000000000000000000000000000000000000000000FF0000000000000000FF0000000000000000000000000000000000000000
310
0000FF0000000000000000FF00000000000000000000000000000000000000000000FF0000000000000000FF00000000000000000000000000000000000000000000FF0000000000000000FF00000000000000000000000000000000000000000000FF0000000000000000FF00000000000000000000000000000000000000
310
000000FFFFFFFFFFFFFFFFFFFF00000000000000000000000000000000000000000000000000000000000000000000000000000000000000
  0
BLOCK_RECORD
  5
1A0B
330
1
100
AcDbSymbolTableRecord
100
AcDbBlockTableRecord
  2
rollformspacer
340
0
310
2800000020000000200000000100080000000000000400000000000000000000000000000000000000000000000080000080000000808000800000008000800080800000C0C0C000C0DCC000F0CAA6000020400000206000002080000020A0000020C0000020E00000400000004020000040400000406000004080000040A0
310
000040C0000040E00000600000006020000060400000606000006080000060A0000060C0000060E00000800000008020000080400000806000008080000080A0000080C0000080E00000A0000000A0200000A0400000A0600000A0800000A0A00000A0C00000A0E00000C0000000C0200000C0400000C0600000C0800000C0
310
A00000C0C00000C0E00000E0000000E0200000E0400000E0600000E0800000E0A00000E0C00000E0E00040000000400020004000400040006000400080004000A0004000C0004000E00040200000402020004020400040206000402080004020A0004020C0004020E000404000004040200040404000404060004040800040
310
40A0004040C0004040E00040600000406020004060400040606000406080004060A0004060C0004060E00040800000408020004080400040806000408080004080A0004080C0004080E00040A0000040A0200040A0400040A0600040A0800040A0A00040A0C00040A0E00040C0000040C0200040C0400040C0600040C08000
310
40C0A00040C0C00040C0E00040E0000040E0200040E0400040E0600040E0800040E0A00040E0C00040E0E00080000000800020008000400080006000800080008000A0008000C0008000E00080200000802020008020400080206000802080008020A0008020C0008020E00080400000804020008040400080406000804080
310
008040A0008040C0008040E00080600000806020008060400080606000806080008060A0008060C0008060E00080800000808020008080400080806000808080008080A0008080C0008080E00080A0000080A0200080A0400080A0600080A0800080A0A00080A0C00080A0E00080C0000080C0200080C0400080C0600080C0
310
800080C0A00080C0C00080C0E00080E0000080E0200080E0400080E0600080E0800080E0A00080E0C00080E0E000C0000000C0002000C0004000C0006000C0008000C000A000C000C000C000E000C0200000C0202000C0204000C0206000C0208000C020A000C020C000C020E000C0400000C0402000C0404000C0406000C0
310
408000C040A000C040C000C040E000C0600000C0602000C0604000C0606000C0608000C060A000C060C000C060E000C0800000C0802000C0804000C0806000C0808000C080A000C080C000C080E000C0A00000C0A02000C0A04000C0A06000C0A08000C0A0A000C0A0C000C0A0E000C0C00000C0C02000C0C04000C0C06000
310
C0C08000C0C0A000F0FBFF00A4A0A000808080000000FF0000FF000000FFFF00FF000000FF00FF00FFFF0000FFFFFF0000000000000000000000000000000000000000000000000000000000000000000000000000000000000000000000000000000000000000000000000000000000000000000000000000000000000000
310
00000000000000000000000000000000000000000000000000000000000000000000000000000000000000000000000000000000000000000000000000000000000000000000000000000000000000000000000000000000000000000000000000000000000000000000000000000000000000000000000000000000000000
310
00000000000000000000000000000000000000000000000000000000000000000000000000000000000000000000000000000000000000000000000000000000000000000000000000000000000000000000000000000000000000000000000000000000000000000000000000000000000000000000000000000000000000
310
000000000000000000000000000000000000000000000000000000000000000000000000000000000000000000000000000000000000FFFFFFFFFFFFFFFFFFFFFFFFFFFFFFFFFFFFFFFFFFFFFFFFFFFF0000000000FFFF000000000000000000000000000000000000000000000000FFFF000000FFFF000000000000000000
310
0000000000000000000000000000000000FFFF0000FFFF0000000000000000000000000000000000000000000000000000FFFF0000FFFF0000000000000000000000000000000000000000000000000000FFFF0000FFFF0000000000000000000000000000000000000000000000000000FFFF0000FFFF0000000000000000
310
000000000000000000000000000000000000FFFF0000FFFFFFFFFFFFFFFFFFFFFFFFFFFFFFFFFFFFFFFFFFFFFFFFFFFFFFFFFFFF000000000000000000000000000000000000000000000000000000000000000000000000000000000000000000000000000000000000000000000000000000000000000000000000000000
310
00000000000000000000000000000000000000000000000000000000000000000000000000000000000000000000000000000000000000000000000000000000000000000000000000000000000000000000000000000000000000000000000000000000000000000000000000000000000000000000000000000000000000
310
00000000000000000000000000000000000000000000000000000000000000000000000000000000000000000000000000000000000000000000000000000000000000000000000000000000000000000000000000000000000000000000000000000000000000000000000000000000000000000000000000000000000000
310
0000000000000000000000000000000000000000000000000000000000000000000000000000000000000000000000000000000000000000
  0
BLOCK_RECORD
  5
1D5E
330
1
100
AcDbSymbolTableRecord
100
AcDbBlockTableRecord
  2
tape
340
0
310
2800000020000000200000000100080000000000000400000000000000000000000000000000000000000000000080000080000000808000800000008000800080800000C0C0C000C0DCC000F0CAA6000020400000206000002080000020A0000020C0000020E00000400000004020000040400000406000004080000040A0
310
000040C0000040E00000600000006020000060400000606000006080000060A0000060C0000060E00000800000008020000080400000806000008080000080A0000080C0000080E00000A0000000A0200000A0400000A0600000A0800000A0A00000A0C00000A0E00000C0000000C0200000C0400000C0600000C0800000C0
310
A00000C0C00000C0E00000E0000000E0200000E0400000E0600000E0800000E0A00000E0C00000E0E00040000000400020004000400040006000400080004000A0004000C0004000E00040200000402020004020400040206000402080004020A0004020C0004020E000404000004040200040404000404060004040800040
310
40A0004040C0004040E00040600000406020004060400040606000406080004060A0004060C0004060E00040800000408020004080400040806000408080004080A0004080C0004080E00040A0000040A0200040A0400040A0600040A0800040A0A00040A0C00040A0E00040C0000040C0200040C0400040C0600040C08000
310
40C0A00040C0C00040C0E00040E0000040E0200040E0400040E0600040E0800040E0A00040E0C00040E0E00080000000800020008000400080006000800080008000A0008000C0008000E00080200000802020008020400080206000802080008020A0008020C0008020E00080400000804020008040400080406000804080
310
008040A0008040C0008040E00080600000806020008060400080606000806080008060A0008060C0008060E00080800000808020008080400080806000808080008080A0008080C0008080E00080A0000080A0200080A0400080A0600080A0800080A0A00080A0C00080A0E00080C0000080C0200080C0400080C0600080C0
310
800080C0A00080C0C00080C0E00080E0000080E0200080E0400080E0600080E0800080E0A00080E0C00080E0E000C0000000C0002000C0004000C0006000C0008000C000A000C000C000C000E000C0200000C0202000C0204000C0206000C0208000C020A000C020C000C020E000C0400000C0402000C0404000C0406000C0
310
408000C040A000C040C000C040E000C0600000C0602000C0604000C0606000C0608000C060A000C060C000C060E000C0800000C0802000C0804000C0806000C0808000C080A000C080C000C080E000C0A00000C0A02000C0A04000C0A06000C0A08000C0A0A000C0A0C000C0A0E000C0C00000C0C02000C0C04000C0C06000
310
C0C08000C0C0A000F0FBFF00A4A0A000808080000000FF0000FF000000FFFF00FF000000FF00FF00FFFF0000FFFFFF0000000000000000000000000000000000000000000000000000000000000000000000000000000000000000FFFFFFFFFFFFFFFFFFFF00000000000000000000000000000000000000000000FF000000
310
0000000000FF00000000000000000000000000000000000000000000FF0000000000000000FF00000000000000000000000000000000000000000000FF0000000000000000FF00000000000000000000000000000000000000000000FF0000000000000000FF00000000000000000000000000000000000000000000FF0000
310
000000000000FF00000000000000000000000000000000000000000000FF0000000000000000FF00000000000000000000000000000000000000000000FF0000000000000000FF00000000000000000000000000000000000000000000FF0000000000000000FF00000000000000000000000000000000000000000000FF00
310
00000000000000FF00000000000000000000000000000000000000000000FF0000000000000000FF00000000000000000000000000000000000000000000FF0000000000000000FF00000000000000000000000000000000000000000000FF0000000000000000FF00000000000000000000000000000000000000000000FF
310
0000000000000000FF00000000000000000000000000000000000000000000FF0000000000000000FF00000000000000000000000000000000000000000000FF0000000000000000FF00000000000000000000000000000000000000000000FF0000000000000000FF00000000000000000000000000000000000000000000
310
FF0000000000000000FF00000000000000000000000000000000000000000000FF0000000000000000FF00000000000000000000000000000000000000000000FF0000000000000000FF00000000000000000000000000000000000000000000FF0000000000000000FF000000000000000000000000000000000000000000
310
00FF0000000000000000FF00000000000000000000000000000000000000000000FF0000000000000000FF00000000000000000000000000000000000000000000FF0000000000000000FF00000000000000000000000000000000000000000000FF0000000000000000FF0000000000000000000000000000000000000000
310
0000FF0000000000000000FF00000000000000000000000000000000000000000000FF0000000000000000FF00000000000000000000000000000000000000000000FF0000000000000000FF00000000000000000000000000000000000000000000FF0000000000000000FF00000000000000000000000000000000000000
310
000000FFFFFFFFFFFFFFFFFFFF00000000000000000000000000000000000000000000000000000000000000000000000000000000000000
  0
BLOCK_RECORD
  5
1E2A
330
1
100
AcDbSymbolTableRecord
100
AcDbBlockTableRecord
  2
spacer
340
0
310
2800000020000000200000000100080000000000000400000000000000000000000000000000000000000000000080000080000000808000800000008000800080800000C0C0C000C0DCC000F0CAA6000020400000206000002080000020A0000020C0000020E00000400000004020000040400000406000004080000040A0
310
000040C0000040E00000600000006020000060400000606000006080000060A0000060C0000060E00000800000008020000080400000806000008080000080A0000080C0000080E00000A0000000A0200000A0400000A0600000A0800000A0A00000A0C00000A0E00000C0000000C0200000C0400000C0600000C0800000C0
310
A00000C0C00000C0E00000E0000000E0200000E0400000E0600000E0800000E0A00000E0C00000E0E00040000000400020004000400040006000400080004000A0004000C0004000E00040200000402020004020400040206000402080004020A0004020C0004020E000404000004040200040404000404060004040800040
310
40A0004040C0004040E00040600000406020004060400040606000406080004060A0004060C0004060E00040800000408020004080400040806000408080004080A0004080C0004080E00040A0000040A0200040A0400040A0600040A0800040A0A00040A0C00040A0E00040C0000040C0200040C0400040C0600040C08000
310
40C0A00040C0C00040C0E00040E0000040E0200040E0400040E0600040E0800040E0A00040E0C00040E0E00080000000800020008000400080006000800080008000A0008000C0008000E00080200000802020008020400080206000802080008020A0008020C0008020E00080400000804020008040400080406000804080
310
008040A0008040C0008040E00080600000806020008060400080606000806080008060A0008060C0008060E00080800000808020008080400080806000808080008080A0008080C0008080E00080A0000080A0200080A0400080A0600080A0800080A0A00080A0C00080A0E00080C0000080C0200080C0400080C0600080C0
310
800080C0A00080C0C00080C0E00080E0000080E0200080E0400080E0600080E0800080E0A00080E0C00080E0E000C0000000C0002000C0004000C0006000C0008000C000A000C000C000C000E000C0200000C0202000C0204000C0206000C0208000C020A000C020C000C020E000C0400000C0402000C0404000C0406000C0
310
408000C040A000C040C000C040E000C0600000C0602000C0604000C0606000C0608000C060A000C060C000C060E000C0800000C0802000C0804000C0806000C0808000C080A000C080C000C080E000C0A00000C0A02000C0A04000C0A06000C0A08000C0A0A000C0A0C000C0A0E000C0C00000C0C02000C0C04000C0C06000
310
C0C08000C0C0A000F0FBFF00A4A0A000808080000000FF0000FF000000FFFF00FF000000FF00FF00FFFF0000FFFFFF0000000000000000000000000000000000000000000000000000000000000000000000000000000000000000000000000000000000000000000000000000000000000000000000000000000000000000
310
000000000000000000000000000000000000000000000000000000000000000000000000000000000000000000000000000000000000000000000000000000000000000000000000000000000000000000000000000000000000000000000000000000000000000000000000000000000000FFFFFFFFFFFFFFFF0000000000
310
00000000000000000000000000000000000000FFFF0000000000FF000000000000000000000000000000000000000000000000FFFF0000000000FF000000000000000000000000000000000000000000000000FFFF0000000000FF000000000000000000000000000000000000000000000000FFFF0000000000FF00000000
310
0000000000000000000000000000000000000000FFFF0000000000FF000000000000000000000000000000000000000000000000FFFF0000000000FF000000000000000000000000000000000000000000000000FFFF0000000000FF000000000000000000000000000000000000000000000000FFFF000000FFFFFF000000
310
000000000000000000000000000000000000000000FFFF000000FFFFFF000000000000000000000000000000000000000000000000FFFF0000000000FFFF0000000000000000000000000000000000000000000000FFFF000000000000FFFFFFFFFFFFFFFFFFFFFFFFFFFFFFFFFFFFFFFFFFFF0000FFFFFF00000000000000
310
000000000000000000FFFFFF000000000000FFFF0000FFFFFFFFFFFFFFFFFF00000000000000000000FFFFFF000000000000FFFF0000000000FFFFFFFFFFFFFFFFFFFF000000000000000000000000000000FFFF0000000000000000000000FFFFFFFFFFFFFFFF0000000000000000000000FFFF0000000000000000000000
310
00000000FFFFFFFFFFFFFFFFFFFF0000000000FFFF00000000000000000000000000000000000000FFFFFFFFFFFFFFFF000000FFFF00000000000000000000000000000000000000000000000000FFFFFFFF00FFFF0000000000000000000000000000000000000000000000000000000000FFFFFF00000000000000000000
310
00000000000000000000000000000000000000000000000000000000000000000000000000000000000000000000000000000000000000000000000000000000000000000000000000000000000000000000000000000000000000000000000000000000000000000000000000000000000000000000000000000000000000
310
0000000000000000000000000000000000000000000000000000000000000000000000000000000000000000000000000000000000000000
  0
BLOCK_RECORD
  5
206C
330
1
100
AcDbSymbolTableRecord
100
AcDbBlockTableRecord
  2
A$C53C2538B
340
0
  0
BLOCK_RECORD
  5
24FE
330
1
100
AcDbSymbolTableRecord
100
AcDbBlockTableRecord
  2
*D15
340
0
  0
BLOCK_RECORD
  5
2721
330
1
100
AcDbSymbolTableRecord
100
AcDbBlockTableRecord
  2
*D17
340
0
  0
BLOCK_RECORD
  5
274A
330
1
100
AcDbSymbolTableRecord
100
AcDbBlockTableRecord
  2
*D18
340
0
  0
BLOCK_RECORD
  5
2756
102
{ACAD_XDICTIONARY
360
275B
102
}
330
1
100
AcDbSymbolTableRecord
100
AcDbBlockTableRecord
  2
A$C07F6356F
340
0
  0
ENDTAB
  0
ENDSEC
  0
SECTION
  2
BLOCKS
  0
BLOCK
  5
47C
330
2
100
AcDbEntity
  8
0
100
AcDbBlockBegin
  2
*MODEL_SPACE
 70
     0
 10
0.0
 20
0.0
 30
0.0
  3
*MODEL_SPACE
  1

  0
ENDBLK
  5
47D
330
2
100
AcDbEntity
  8
0
100
AcDbBlockEnd
  0
BLOCK
  5
2863
330
2861
100
AcDbEntity
 67
     1
  8
0
 62
     1
370
     0
100
AcDbBlockBegin
  2
*Paper_Space
 70
     0
 10
0.0
 20
0.0
 30
0.0
  3
*Paper_Space
  1

  0
ENDBLK
  5
2864
330
2861
100
AcDbEntity
 67
     1
  8
0
 62
     1
370
     0
100
AcDbBlockEnd
  0
BLOCK
  5
4B5
330
485
100
AcDbEntity
  8
0
100
AcDbBlockBegin
  2
ansi_v
 70
     0
 10
0.0
 20
0.0
 30
0.0
  3
ansi_v
  1

  0
LINE
  5
486
330
485
100
AcDbEntity
  8
0
100
AcDbLine
 10
0.0
 20
0.0
 30
0.0
 11
8.5
 21
0.0
 31
0.0
  0
LINE
  5
487
330
485
100
AcDbEntity
  8
0
100
AcDbLine
 10
8.5
 20
0.0
 30
0.0
 11
8.5
 21
11.0
 31
0.0
  0
LINE
  5
488
330
485
100
AcDbEntity
  8
0
100
AcDbLine
 10
8.5
 20
11.0
 30
0.0
 11
0.0
 21
11.0
 31
0.0
  0
LINE
  5
489
330
485
100
AcDbEntity
  8
0
100
AcDbLine
 10
0.0
 20
11.0
 30
0.0
 11
0.0
 21
0.0
 31
0.0
  0
LINE
  5
48A
330
485
100
AcDbEntity
  8
0
100
AcDbLine
 10
0.38
 20
0.25
 30
0.0
 11
8.119999999999999
 21
0.25
 31
0.0
  0
LINE
  5
48B
330
485
100
AcDbEntity
  8
0
100
AcDbLine
 10
8.119999999999999
 20
0.25
 30
0.0
 11
8.119999999999999
 21
10.75
 31
0.0
  0
LINE
  5
48C
330
485
100
AcDbEntity
  8
0
100
AcDbLine
 10
8.119999999999999
 20
10.75
 30
0.0
 11
0.38
 21
10.75
 31
0.0
  0
LINE
  5
48D
330
485
100
AcDbEntity
  8
0
100
AcDbLine
 10
0.38
 20
10.75
 30
0.0
 11
0.38
 21
0.25
 31
0.0
  0
LWPOLYLINE
  5
48E
330
485
100
AcDbEntity
  8
0
100
AcDbPolyline
 90
        2
 70
     0
 43
0.02
 10
4.25
 20
0.0
 10
4.25
 20
0.1
  0
SOLID
  5
48F
330
485
100
AcDbEntity
  8
0
100
AcDbTrace
 10
4.099999999999999
 20
0.1
 30
0.0
 11
4.4
 21
0.1
 31
0.0
 12
4.25
 22
0.25
 32
0.0
 13
4.25
 23
0.25
 33
0.0
  0
LWPOLYLINE
  5
490
330
485
100
AcDbEntity
  8
0
100
AcDbPolyline
 90
        2
 70
     0
 43
0.02
 10
8.369999999999999
 20
5.5
 10
8.269999999999999
 20
5.5
  0
SOLID
  5
491
330
485
100
AcDbEntity
  8
0
100
AcDbTrace
 10
8.269999999999999
 20
5.349999999999999
 30
0.0
 11
8.269999999999999
 21
5.65
 31
0.0
 12
8.119999999999999
 22
5.5
 32
0.0
 13
8.119999999999999
 23
5.5
 33
0.0
  0
LWPOLYLINE
  5
492
330
485
100
AcDbEntity
  8
0
100
AcDbPolyline
 90
        2
 70
     0
 43
0.02
 10
4.25
 20
11.0
 10
4.25
 20
10.9
  0
SOLID
  5
493
330
485
100
AcDbEntity
  8
0
100
AcDbTrace
 10
4.099999999999999
 20
10.9
 30
0.0
 11
4.4
 21
10.9
 31
0.0
 12
4.25
 22
10.75
 32
0.0
 13
4.25
 23
10.75
 33
0.0
  0
LWPOLYLINE
  5
494
330
485
100
AcDbEntity
  8
0
100
AcDbPolyline
 90
        2
 70
     0
 43
0.02
 10
0.13
 20
5.5
 10
0.23
 20
5.5
  0
SOLID
  5
495
330
485
100
AcDbEntity
  8
0
100
AcDbTrace
 10
0.23
 20
5.349999999999999
 30
0.0
 11
0.23
 21
5.65
 31
0.0
 12
0.38
 22
5.5
 32
0.0
 13
0.38
 23
5.5
 33
0.0
  0
LINE
  5
496
330
485
100
AcDbEntity
  8
0
100
AcDbLine
 10
1.87
 20
0.25
 30
0.0
 11
1.87
 21
2.0
 31
0.0
  0
LINE
  5
497
330
485
100
AcDbEntity
  8
0
100
AcDbLine
 10
1.87
 20
2.0
 30
0.0
 11
8.119999999999999
 21
2.0
 31
0.0
  0
LINE
  5
498
330
485
100
AcDbEntity
  8
0
100
AcDbLine
 10
1.87
 20
0.565
 30
0.0
 11
3.87
 21
0.565
 31
0.0
  0
LINE
  5
499
330
485
100
AcDbEntity
  8
0
100
AcDbLine
 10
1.87
 20
0.88
 30
0.0
 11
8.119999999999999
 21
0.88
 31
0.0
  0
LINE
  5
49A
330
485
100
AcDbEntity
  8
0
100
AcDbLine
 10
3.87
 20
0.5
 30
0.0
 11
8.119999999999999
 21
0.5
 31
0.0
  0
LINE
  5
49B
330
485
100
AcDbEntity
  8
0
100
AcDbLine
 10
3.87
 20
1.5
 30
0.0
 11
8.119999999999999
 21
1.5
 31
0.0
  0
LINE
  5
49C
330
485
100
AcDbEntity
  8
0
100
AcDbLine
 10
3.87
 20
0.25
 30
0.0
 11
3.87
 21
2.0
 31
0.0
  0
LINE
  5
49D
330
485
100
AcDbEntity
  8
0
100
AcDbLine
 10
4.87
 20
0.25
 30
0.0
 11
4.87
 21
0.5
 31
0.0
  0
LINE
  5
49E
330
485
100
AcDbEntity
  8
0
100
AcDbLine
 10
6.37
 20
0.25
 30
0.0
 11
6.37
 21
0.5
 31
0.0
  0
LINE
  5
49F
330
485
100
AcDbEntity
  8
0
100
AcDbLine
 10
4.25
 20
0.5
 30
0.0
 11
4.25
 21
0.88
 31
0.0
  0
LINE
  5
4A0
330
485
100
AcDbEntity
  8
0
100
AcDbLine
 10
5.37
 20
0.5
 30
0.0
 11
5.37
 21
0.88
 31
0.0
  0
LINE
  5
4A1
330
485
100
AcDbEntity
  8
0
100
AcDbLine
 10
7.74
 20
0.5
 30
0.0
 11
7.74
 21
0.88
 31
0.0
  0
TEXT
  5
4A2
330
485
100
AcDbEntity
  8
0
100
AcDbText
 10
3.922299999999999
 20
0.3425
 30
0.0
 40
0.065
  1
Scale
  7
ADESK1
100
AcDbText
  0
TEXT
  5
4A3
330
485
100
AcDbEntity
  8
0
100
AcDbText
 10
6.422799999999999
 20
0.3425
 30
0.0
 40
0.065
  1
Sheet
  7
ADESK1
100
AcDbText
  0
TEXT
  5
4A4
330
485
100
AcDbEntity
  8
0
100
AcDbText
 10
3.9579
 20
0.7659000000000001
 30
0.0
 40
0.065
  1
SIZE
  7
ADESK1
100
AcDbText
  0
TEXT
  5
4A5
330
485
100
AcDbEntity
  8
0
100
AcDbText
 10
4.3189
 20
0.7659000000000001
 30
0.0
 40
0.065
  1
FSCM NO.
  7
ADESK1
100
AcDbText
  0
TEXT
  5
4A6
330
485
100
AcDbEntity
  8
0
100
AcDbText
 10
5.440999999999999
 20
0.7659000000000001
 30
0.0
 40
0.065
  1
DWG NO.
  7
ADESK1
100
AcDbText
  0
TEXT
  5
4A7
330
485
100
AcDbEntity
  8
0
100
AcDbText
 10
7.8205
 20
0.7659000000000001
 30
0.0
 40
0.065
  1
REV
  7
ADESK1
100
AcDbText
  0
LINE
  5
4A8
330
485
100
AcDbEntity
  8
0
100
AcDbLine
 10
2.62
 20
10.5
 30
0.0
 11
8.119999999999999
 21
10.5
 31
0.0
  0
LINE
  5
4A9
330
485
100
AcDbEntity
  8
0
100
AcDbLine
 10
2.62
 20
10.25
 30
0.0
 11
8.119999999999999
 21
10.25
 31
0.0
  0
LINE
  5
4AA
330
485
100
AcDbEntity
  8
0
100
AcDbLine
 10
2.62
 20
10.75
 30
0.0
 11
2.62
 21
9.7027
 31
0.0
  0
LINE
  5
4AB
330
485
100
AcDbEntity
  8
0
100
AcDbLine
 10
3.12
 20
10.25
 30
0.0
 11
3.12
 21
10.5
 31
0.0
  0
LINE
  5
4AC
330
485
100
AcDbEntity
  8
0
100
AcDbLine
 10
3.5
 20
10.25
 30
0.0
 11
3.5
 21
10.5
 31
0.0
  0
LINE
  5
4AD
330
485
100
AcDbEntity
  8
0
100
AcDbLine
 10
6.24
 20
10.25
 30
0.0
 11
6.24
 21
10.5
 31
0.0
  0
LINE
  5
4AE
330
485
100
AcDbEntity
  8
0
100
AcDbLine
 10
7.12
 20
10.25
 30
0.0
 11
7.12
 21
10.5
 31
0.0
  0
TEXT
  5
4AF
330
485
100
AcDbEntity
  8
0
100
AcDbText
 10
5.330199999999999
 20
10.5825
 30
0.0
 40
0.065
  1
REVISIONS
  7
ADESK1
100
AcDbText
  0
TEXT
  5
4B0
330
485
100
AcDbEntity
  8
0
100
AcDbText
 10
2.728699999999999
 20
10.3403
 30
0.0
 40
0.065
  1
ZONE
  7
ADESK1
100
AcDbText
  0
TEXT
  5
4B1
330
485
100
AcDbEntity
  8
0
100
AcDbText
 10
3.200099999999999
 20
10.3403
 30
0.0
 40
0.065
  1
REV
  7
ADESK1
100
AcDbText
  0
TEXT
  5
4B2
330
485
100
AcDbEntity
  8
0
100
AcDbText
 10
4.501999999999999
 20
10.3403
 30
0.0
 40
0.065
  1
DESCRIPTION
  7
ADESK1
100
AcDbText
  0
TEXT
  5
4B3
330
485
100
AcDbEntity
  8
0
100
AcDbText
 10
6.5677
 20
10.3403
 30
0.0
 40
0.065
  1
Date
  7
ADESK1
100
AcDbText
  0
TEXT
  5
4B4
330
485
100
AcDbEntity
  8
0
100
AcDbText
 10
7.361399999999999
 20
10.3403
 30
0.0
 40
0.065
  1
APPROVED
  7
ADESK1
100
AcDbText
  0
ENDBLK
  5
4B6
330
485
100
AcDbEntity
  8
0
100
AcDbBlockEnd
  0
BLOCK
  5
42E
330
42D
100
AcDbEntity
  8
0
100
AcDbBlockBegin
  2
_None
 70
     0
 10
0.0
 20
0.0
 30
0.0
  3
_None
  1

  0
ENDBLK
  5
42F
330
42D
100
AcDbEntity
  8
0
100
AcDbBlockEnd
  0
BLOCK
  5
442
330
440
100
AcDbEntity
  8
0
100
AcDbBlockBegin
  2
_DotSmall
 70
     0
 10
0.0
 20
0.0
 30
0.0
  3
_DotSmall
  1

  0
LWPOLYLINE
  5
441
330
440
100
AcDbEntity
  8
Hatch
 62
     0
100
AcDbPolyline
 90
        2
 70
     1
 43
0.5
 10
-0.0625
 20
0.0
 42
1.0
 10
0.0625
 20
0.0
 42
1.0
  0
ENDBLK
  5
443
330
440
100
AcDbEntity
  8
0
100
AcDbBlockEnd
  0
BLOCK
  5
C13
330
C12
100
AcDbEntity
  8
0
100
AcDbBlockBegin
  2
_ARCHTICK
 70
     0
 10
0.0
 20
0.0
 30
0.0
  3
_ARCHTICK
  1

  0
LWPOLYLINE
  5
C14
330
C12
100
AcDbEntity
  8
0
  6
ByBlock
 62
     0
100
AcDbPolyline
 90
        2
 70
     0
 43
0.15
 10
-0.5
 20
-0.5
 10
0.5
 20
0.5
  0
ENDBLK
  5
C18
330
C12
100
AcDbEntity
  8
0
100
AcDbBlockEnd
  0
BLOCK
  5
E97
330
E8E
100
AcDbEntity
  8
0
100
AcDbBlockBegin
  2
A$C65655757
 70
     0
 10
0.0
 20
0.0
 30
0.0
  3
A$C65655757
  1

  0
TEXT
  5
E8F
330
E8E
100
AcDbEntity
  8
5
  6
Continuous
 62
     7
370
    30
100
AcDbText
 10
-0.0111139013349089
 20
2.65912195243645
 30
-2.3346
 40
0.375
  1
ADVANCED GLAZINGS Ltd.
 41
0.8
  7
style1
 11
-0.0111139013349089
 21
2.84662195243645
 31
-2.3346
100
AcDbText
 73
     2
  0
TEXT
  5
E90
330
E8E
100
AcDbEntity
  8
0
100
AcDbText
 10
0.0393205943543649
 20
-0.0000000212489294
 30
7.003999999999999
 40
0.195
  1
CSI UNIFORM DRAWING SYSTEM 2000
  7
style1
 11
0.0393205943543649
 21
0.1949999787510705
 31
7.003999999999999
100
AcDbText
 73
     3
  0
TEXT
  5
E91
330
E8E
100
AcDbEntity
  8
0
100
AcDbText
 10
0.0393205943543649
 20
0.3076200495211554
 30
7.003999999999999
 40
0.195
  1
DRAWINGS CONFORM TO
  7
style1
 11
0.0393205943543649
 21
0.5026200495211555
 31
7.003999999999999
100
AcDbText
 73
     3
  0
TEXT
  5
E92
330
E8E
100
AcDbEntity
  8
5
  6
Continuous
 62
     7
100
AcDbText
 10
-0.003116681697918
 20
2.24356586670801
 30
7.003999999999999
 40
0.1875
  1
SYDNEY , NOVA SCOTIA
  7
style1
 11
-0.003116681697918
 21
2.43106586670801
 31
7.003999999999999
100
AcDbText
 73
     3
  0
TEXT
  5
E93
330
E8E
100
AcDbEntity
  8
5
  6
Continuous
 62
     7
100
AcDbText
 10
-0.003116681697918
 20
1.887253649928922
 30
7.003999999999999
 40
0.1875
  1
CANADA
  7
style1
 11
-0.003116681697918
 21
2.074753649928922
 31
7.003999999999999
100
AcDbText
 73
     3
  0
TEXT
  5
E94
330
E8E
100
AcDbEntity
  8
DIM
 62
     7
100
AcDbText
 10
-0.003116681697918
 20
3.489213974989991
 30
7.003999999999999
 40
0.187
  1
DIMENSIONS IN INCHES  
 41
0.8
  7
ADESK1
 11
-0.003116681697918
 21
3.676213974989991
 31
7.003999999999999
100
AcDbText
 73
     3
  0
TEXT
  5
E95
330
E8E
100
AcDbEntity
  8
0
100
AcDbText
 10
0.0130734016746885
 20
0.8627432887918262
 30
11.6733
 40
0.195
  1
ADVANCED GLAZINGS LTD.
  7
style1
 11
0.0130734016746885
 21
1.057743288791826
 31
11.6733
100
AcDbText
 73
     3
  0
TEXT
  5
E96
330
E8E
100
AcDbEntity
  8
0
100
AcDbText
 10
0.0130734016746885
 20
1.16395665126975
 30
11.6733
 40
0.195
  1
SOLERA IS A REGISTERED TRADEMARK
  7
style1
 11
0.0130734016746885
 21
1.35895665126975
 31
11.6733
100
AcDbText
 73
     3
  0
ENDBLK
  5
E98
330
E8E
100
AcDbEntity
  8
0
100
AcDbBlockEnd
  0
BLOCK
  5
1229
330
113C
100
AcDbEntity
  8
0
100
AcDbBlockBegin
  2
sol_t profile
 70
     0
 10
0.0
 20
0.0
 30
0.0
  3
sol_t profile
  1

  0
LINE
  5
113D
330
113C
100
AcDbEntity
  8
2
  6
Continuous
 62
     7
100
AcDbLine
 10
15.07240589726958
 20
18.43774384109204
 30
12.121909
 11
14.82735389726958
 21
18.68279584109204
 31
12.121909
  0
LINE
  5
113E
330
113C
100
AcDbEntity
  8
2
  6
Continuous
 62
     7
100
AcDbLine
 10
15.00169689726958
 20
18.43774384109204
 30
12.121909
 11
14.75664589726959
 21
18.68279584109204
 31
12.121909
  0
LINE
  5
113F
330
113C
100
AcDbEntity
  8
2
  6
Continuous
 62
     7
100
AcDbLine
 10
14.93098389726958
 20
18.43774384109204
 30
12.121909
 11
14.68593289726958
 21
18.68279584109204
 31
12.121909
  0
LINE
  5
1140
330
113C
100
AcDbEntity
  8
2
  6
Continuous
 62
     7
100
AcDbLine
 10
14.86027589726958
 20
18.43774384109204
 30
12.121909
 11
14.61522389726958
 21
18.68279584109204
 31
12.121909
  0
LWPOLYLINE
  5
1141
330
113C
100
AcDbEntity
  8
2
  6
Continuous
 62
     7
100
AcDbPolyline
 90
        4
 70
     1
 43
0.0
 38
12.121909
 10
14.01538589726958
 20
18.68279584109204
 10
14.01538589726958
 20
18.43774384109204
 10
15.17670889726958
 20
18.43774384109204
 10
15.17670889726958
 20
18.68279584109204
  0
LINE
  5
1142
330
113C
100
AcDbEntity
  8
5
  6
Continuous
 62
     7
100
AcDbLine
 10
14.36733089726958
 20
17.12834429319726
 30
12.121909
 11
16.87333089726958
 21
17.12834429319726
 31
12.121909
  0
LINE
  5
1143
330
113C
100
AcDbEntity
  8
5
  6
HIDDEN
 62
     7
100
AcDbLine
 10
14.36733089726958
 20
16.87834429319726
 30
12.121909
 11
16.87333089726958
 21
16.87834429319726
 31
12.121909
  0
LINE
  5
1144
330
113C
100
AcDbEntity
  8
5
  6
HIDDEN
 62
     7
100
AcDbLine
 10
14.36733089726958
 20
16.62834429319726
 30
12.121909
 11
16.87333089726958
 21
16.62834429319726
 31
12.121909
  0
LINE
  5
1145
330
113C
100
AcDbEntity
  8
5
  6
Continuous
 62
     7
100
AcDbLine
 10
14.36733089726958
 20
16.35000809043034
 30
12.121909
 11
16.87333089726958
 21
16.35000809043034
 31
12.121909
  0
LINE
  5
1146
330
113C
100
AcDbEntity
  8
5
  6
HIDDEN
 62
     7
100
AcDbLine
 10
14.36733089726958
 20
15.35000809043034
 30
12.121909
 11
16.87333089726958
 21
15.35000809043034
 31
12.121909
  0
LINE
  5
1147
330
113C
100
AcDbEntity
  8
5
  6
Continuous
 62
     7
100
AcDbLine
 10
14.36733089726958
 20
15.60000809043034
 30
12.121909
 11
16.87333089726958
 21
15.60000809043034
 31
12.121909
  0
LINE
  5
1148
330
113C
100
AcDbEntity
  8
5
  6
HIDDEN
 62
     7
100
AcDbLine
 10
14.36733089726958
 20
15.85000809043034
 30
12.121909
 11
16.87333089726958
 21
15.85000809043034
 31
12.121909
  0
LINE
  5
1149
330
113C
100
AcDbEntity
  8
5
  6
HIDDEN
 62
     7
100
AcDbLine
 10
14.36733089726958
 20
16.10000809043034
 30
12.121909
 11
16.87333089726958
 21
16.10000809043034
 31
12.121909
  0
3DFACE
  5
114A
330
113C
100
AcDbEntity
  8
1
  6
Continuous
 62
     7
100
AcDbFace
 10
14.67397289726958
 20
18.42693784109204
 30
12.121909
 11
14.44531889726958
 21
17.79290484109204
 31
12.121909
 12
15.17983089726958
 22
17.62279584109204
 32
12.121909
 13
15.09144189726958
 23
17.71940684109203
 33
12.121909
 70
    13
  0
3DFACE
  5
114B
330
113C
100
AcDbEntity
  8
1
  6
Continuous
 62
     7
100
AcDbFace
 10
14.67397289726958
 20
18.42693784109204
 30
12.121909
 11
15.09144189726958
 21
17.71940684109203
 31
12.121909
 12
15.05483089726958
 22
17.80779584109204
 32
12.121909
 13
14.68811389726958
 23
18.43279584109204
 33
12.121909
 70
     5
  0
3DFACE
  5
114C
330
113C
100
AcDbEntity
  8
1
  6
Continuous
 62
     7
100
AcDbFace
 10
14.68811389726958
 20
18.43279584109204
 30
12.121909
 11
15.05483089726958
 21
17.80779584109204
 31
12.121909
 12
15.05483089726958
 22
18.41279584109203
 32
12.121909
 13
15.03483089726958
 23
18.43279584109204
 33
12.121909
 70
     1
  0
LINE
  5
114D
330
113C
100
AcDbEntity
  8
5
  6
HIDDEN
 62
     7
100
AcDbLine
 10
14.36733089726958
 20
17.62834429319726
 30
12.121909
 11
15.17983089726958
 21
17.62834429319726
 31
12.121909
  0
3DFACE
  5
114E
330
113C
100
AcDbEntity
  8
1
  6
Continuous
 62
     7
100
AcDbFace
 10
14.68639789726958
 20
18.39693584109204
 30
12.121909
 11
14.47531889726958
 21
17.81675384109204
 31
12.121909
 12
15.00031889726958
 22
17.69516584109203
 32
12.121909
 13
14.70054289726959
 23
18.40279584109204
 33
12.121909
 70
     5
  0
3DFACE
  5
114F
330
113C
100
AcDbEntity
  8
1
  6
Continuous
 62
     7
100
AcDbFace
 10
14.70054289726959
 20
18.40279584109204
 30
12.121909
 11
15.00031889726958
 21
17.69516584109203
 31
12.121909
 12
15.01727589726958
 22
17.69899384109203
 32
12.121909
 13
15.00483089726958
 23
18.40279584109204
 33
12.121909
 70
     5
  0
LINE
  5
1150
330
113C
100
AcDbEntity
  8
5
  6
HIDDEN
 62
     7
100
AcDbLine
 10
14.36733089726958
 20
17.37834429319726
 30
12.121909
 11
16.23534394171945
 21
17.37834429319726
 31
12.121909
  0
LINE
  5
1151
330
113C
100
AcDbEntity
  8
5
  6
HIDDEN
 62
     7
100
AcDbLine
 10
14.36733089726958
 20
5.082756390024307
 30
12.121909
 11
16.23534394171945
 21
5.082756390024307
 31
12.121909
  0
3DFACE
  5
1152
330
113C
100
AcDbEntity
  8
1
  6
Continuous
 62
     7
100
AcDbFace
 10
14.70054289726959
 20
4.05830484212953
 30
12.121909
 11
15.00031889726958
 21
4.765934842129539
 31
12.121909
 12
15.01727589726958
 22
4.76210684212954
 32
12.121909
 13
15.00483089726958
 23
4.05830484212953
 33
12.121909
 70
     5
  0
3DFACE
  5
1153
330
113C
100
AcDbEntity
  8
1
  6
Continuous
 62
     7
100
AcDbFace
 10
14.68639789726958
 20
4.064164842129528
 30
12.121909
 11
14.47531889726958
 21
4.644346842129536
 31
12.121909
 12
15.00031889726958
 22
4.765934842129539
 32
12.121909
 13
14.70054289726959
 23
4.05830484212953
 33
12.121909
 70
     5
  0
LINE
  5
1154
330
113C
100
AcDbEntity
  8
5
  6
HIDDEN
 62
     7
100
AcDbLine
 10
14.36733089726958
 20
4.832756390024307
 30
12.121909
 11
15.17983089726958
 21
4.832756390024307
 31
12.121909
  0
3DFACE
  5
1155
330
113C
100
AcDbEntity
  8
1
  6
Continuous
 62
     7
100
AcDbFace
 10
14.68811389726958
 20
4.028304842129529
 30
12.121909
 11
15.05483089726958
 21
4.653304842129529
 31
12.121909
 12
15.05483089726958
 22
4.048304842129539
 32
12.121909
 13
15.03483089726958
 23
4.028304842129529
 33
12.121909
 70
     1
  0
3DFACE
  5
1156
330
113C
100
AcDbEntity
  8
1
  6
Continuous
 62
     7
100
AcDbFace
 10
14.67397289726958
 20
4.034162842129532
 30
12.121909
 11
15.09144189726958
 21
4.741693842129535
 31
12.121909
 12
15.05483089726958
 22
4.653304842129529
 32
12.121909
 13
14.68811389726958
 23
4.028304842129529
 33
12.121909
 70
     5
  0
3DFACE
  5
1157
330
113C
100
AcDbEntity
  8
1
  6
Continuous
 62
     7
100
AcDbFace
 10
14.67397289726958
 20
4.034162842129532
 30
12.121909
 11
14.44531889726958
 21
4.668195842129534
 31
12.121909
 12
15.17983089726958
 22
4.838304842129531
 32
12.121909
 13
15.09144189726958
 23
4.741693842129535
 33
12.121909
 70
    13
  0
LINE
  5
1158
330
113C
100
AcDbEntity
  8
5
  6
HIDDEN
 62
     7
100
AcDbLine
 10
14.36733089726958
 20
6.36109259279123
 30
12.121909
 11
16.87333089726958
 21
6.36109259279123
 31
12.121909
  0
LINE
  5
1159
330
113C
100
AcDbEntity
  8
5
  6
HIDDEN
 62
     7
100
AcDbLine
 10
14.36733089726958
 20
6.61109259279123
 30
12.121909
 11
16.87333089726958
 21
6.61109259279123
 31
12.121909
  0
LINE
  5
115A
330
113C
100
AcDbEntity
  8
5
  6
Continuous
 62
     7
100
AcDbLine
 10
14.36733089726958
 20
6.86109259279123
 30
12.121909
 11
16.87333089726958
 21
6.86109259279123
 31
12.121909
  0
LINE
  5
115B
330
113C
100
AcDbEntity
  8
5
  6
HIDDEN
 62
     7
100
AcDbLine
 10
14.36733089726958
 20
7.11109259279123
 30
12.121909
 11
16.87333089726958
 21
7.11109259279123
 31
12.121909
  0
LINE
  5
115C
330
113C
100
AcDbEntity
  8
5
  6
Continuous
 62
     7
100
AcDbLine
 10
14.36733089726958
 20
6.11109259279123
 30
12.121909
 11
16.87333089726958
 21
6.11109259279123
 31
12.121909
  0
LINE
  5
115D
330
113C
100
AcDbEntity
  8
5
  6
HIDDEN
 62
     7
100
AcDbLine
 10
14.36733089726958
 20
5.832756390024307
 30
12.121909
 11
16.87333089726958
 21
5.832756390024307
 31
12.121909
  0
LINE
  5
115E
330
113C
100
AcDbEntity
  8
5
  6
HIDDEN
 62
     7
100
AcDbLine
 10
14.36733089726958
 20
5.582756390024307
 30
12.121909
 11
16.87333089726958
 21
5.582756390024307
 31
12.121909
  0
LINE
  5
115F
330
113C
100
AcDbEntity
  8
5
  6
Continuous
 62
     7
100
AcDbLine
 10
14.36733089726958
 20
5.332756390024307
 30
12.121909
 11
16.87333089726958
 21
5.332756390024307
 31
12.121909
  0
LWPOLYLINE
  5
1160
330
113C
100
AcDbEntity
  8
2
  6
Continuous
 62
     7
100
AcDbPolyline
 90
        4
 70
     1
 43
0.0
 38
12.121909
 10
14.01538589726958
 20
3.778304842129529
 10
14.01538589726958
 20
4.02335684212953
 10
15.17670889726958
 20
4.02335684212953
 10
15.17670889726958
 20
3.778304842129529
  0
LINE
  5
1161
330
113C
100
AcDbEntity
  8
2
  6
Continuous
 62
     7
100
AcDbLine
 10
14.86027589726958
 20
4.02335684212953
 30
12.121909
 11
14.61522389726958
 21
3.778304842129529
 31
12.121909
  0
LINE
  5
1162
330
113C
100
AcDbEntity
  8
2
  6
Continuous
 62
     7
100
AcDbLine
 10
14.93098389726958
 20
4.02335684212953
 30
12.121909
 11
14.68593289726958
 21
3.778304842129529
 31
12.121909
  0
LINE
  5
1163
330
113C
100
AcDbEntity
  8
2
  6
Continuous
 62
     7
100
AcDbLine
 10
15.00169689726958
 20
4.02335684212953
 30
12.121909
 11
14.75664589726959
 21
3.778304842129529
 31
12.121909
  0
LINE
  5
1164
330
113C
100
AcDbEntity
  8
2
  6
Continuous
 62
     7
100
AcDbLine
 10
15.07240589726958
 20
4.02335684212953
 30
12.121909
 11
14.82735389726958
 21
3.778304842129529
 31
12.121909
  0
3DFACE
  5
1165
330
113C
100
AcDbEntity
  8
1
  6
Continuous
 62
     7
100
AcDbFace
 10
14.46568889726958
 20
4.284871842129533
 30
12.121909
 11
14.46417489726958
 21
4.637306842129532
 31
12.121909
 12
14.47531889726958
 22
4.644346842129536
 32
12.121909
 13
14.68639789726958
 23
4.064164842129528
 33
12.121909
 70
     5
  0
3DFACE
  5
1166
330
113C
100
AcDbEntity
  8
1
  6
Continuous
 62
     7
100
AcDbFace
 10
14.43568889726958
 20
4.272446842129539
 30
12.121909
 11
14.42983089726958
 21
4.648710842129545
 31
12.121909
 12
14.44531889726958
 22
4.668195842129534
 32
12.121909
 13
14.67397289726958
 23
4.034162842129532
 33
12.121909
 70
     5
  0
POLYLINE
  5
1167
330
113C
100
AcDbEntity
  8
3
  6
Continuous
 62
     7
100
AcDbPolyFaceMesh
 66
     1
 10
0.0
 20
0.0
 30
0.0
 70
    64
 71
     7
 72
     3
  0
VERTEX
  5
1168
330
1167
100
AcDbEntity
  8
3
  6
Continuous
 62
     7
100
AcDbVertex
100
AcDbPolyFaceMeshVertex
 10
14.36733089726958
 20
4.028304842129529
 30
12.121909
 70
   192
  0
VERTEX
  5
1169
330
1167
100
AcDbEntity
  8
3
  6
Continuous
 62
     7
100
AcDbVertex
100
AcDbPolyFaceMeshVertex
 10
14.11733089726958
 20
6.528304842129529
 30
12.121909
 70
   192
  0
VERTEX
  5
116A
330
1167
100
AcDbEntity
  8
3
  6
Continuous
 62
     7
100
AcDbVertex
100
AcDbPolyFaceMeshVertex
 10
14.36733089726958
 20
6.521143842129532
 30
12.121909
 70
   192
  0
VERTEX
  5
116B
330
1167
100
AcDbEntity
  8
3
  6
Continuous
 62
     7
100
AcDbVertex
100
AcDbPolyFaceMeshVertex
 10
14.11733089726958
 20
7.153304842129529
 30
12.121909
 70
   192
  0
VERTEX
  5
116C
330
1167
100
AcDbEntity
  8
3
  6
Continuous
 62
     7
100
AcDbVertex
100
AcDbPolyFaceMeshVertex
 10
14.36733089726958
 20
7.153304842129529
 30
12.121909
 70
   192
  0
VERTEX
  5
116D
330
1167
100
AcDbEntity
  8
3
  6
Continuous
 62
     7
100
AcDbVertex
100
AcDbPolyFaceMeshVertex
 10
14.11733089726958
 20
4.028304842129529
 30
12.121909
 70
   192
  0
VERTEX
  5
116E
330
1167
100
AcDbEntity
  8
3
  6
Continuous
 62
     7
100
AcDbVertex
100
AcDbPolyFaceMeshVertex
 10
14.36733089726958
 20
6.528304842129529
 30
12.121909
 70
   192
  0
VERTEX
  5
116F
330
1167
100
AcDbEntity
  8
3
  6
Continuous
 62
     7
100
AcDbFaceRecord
 10
0.0
 20
0.0
 30
0.0
 70
   128
 71
    -1
 72
     2
 73
    -4
 74
     3
  0
VERTEX
  5
1170
330
1167
100
AcDbEntity
  8
3
  6
Continuous
 62
     7
100
AcDbFaceRecord
 10
0.0
 20
0.0
 30
0.0
 70
   128
 71
    -2
 72
     1
 73
     6
  0
VERTEX
  5
1171
330
1167
100
AcDbEntity
  8
3
  6
Continuous
 62
     7
100
AcDbFaceRecord
 10
0.0
 20
0.0
 30
0.0
 70
   128
 71
    -3
 72
     4
 73
     5
 74
     7
  0
SEQEND
  5
1172
330
1167
100
AcDbEntity
  8
3
  6
Continuous
 62
     7
  0
LINE
  5
1173
330
113C
100
AcDbEntity
  8
1
  6
Continuous
 62
     7
100
AcDbLine
 10
14.44206289726958
 20
4.266072842129545
 30
12.121909
 11
14.36733089726958
 21
4.191336842129544
 31
12.121909
  0
LINE
  5
1174
330
113C
100
AcDbEntity
  8
1
  6
Continuous
 62
     7
100
AcDbLine
 10
14.47742089726958
 20
4.230714842129529
 30
12.121909
 11
14.36733089726958
 21
4.120627842129536
 31
12.121909
  0
LINE
  5
1175
330
113C
100
AcDbEntity
  8
2
  6
Continuous
 62
     7
100
AcDbLine
 10
14.08245689726958
 20
4.02335684212953
 30
12.121909
 11
14.01538589726958
 21
3.956285842129545
 31
12.121909
  0
LINE
  5
1176
330
113C
100
AcDbEntity
  8
2
  6
Continuous
 62
     7
100
AcDbLine
 10
14.15316489726958
 20
4.02335684212953
 30
12.121909
 11
14.01538589726958
 21
3.885576842129538
 31
12.121909
  0
LINE
  5
1177
330
113C
100
AcDbEntity
  8
2
  6
Continuous
 62
     7
100
AcDbLine
 10
14.22387789726958
 20
4.02335684212953
 30
12.121909
 11
14.01538589726958
 21
3.814863842129526
 31
12.121909
  0
LINE
  5
1178
330
113C
100
AcDbEntity
  8
2
  6
Continuous
 62
     7
100
AcDbLine
 10
14.29458689726958
 20
4.02335684212953
 30
12.121909
 11
14.04953489726958
 21
3.778304842129529
 31
12.121909
  0
LINE
  5
1179
330
113C
100
AcDbEntity
  8
2
  6
Continuous
 62
     7
100
AcDbLine
 10
14.50672089726958
 20
4.02335684212953
 30
12.121909
 11
14.26166889726958
 21
3.778304842129529
 31
12.121909
  0
LINE
  5
117A
330
113C
100
AcDbEntity
  8
2
  6
Continuous
 62
     7
100
AcDbLine
 10
14.57743289726958
 20
4.02335684212953
 30
12.121909
 11
14.33238189726958
 21
3.778304842129529
 31
12.121909
  0
LINE
  5
117B
330
113C
100
AcDbEntity
  8
2
  6
Continuous
 62
     7
100
AcDbLine
 10
14.64814189726958
 20
4.02335684212953
 30
12.121909
 11
14.40309089726958
 21
3.778304842129529
 31
12.121909
  0
ARC
  5
117C
330
113C
100
AcDbEntity
  8
1
  6
Continuous
 62
     7
100
AcDbCircle
 10
14.53952689726958
 20
3.043242842129529
 30
12.121909
 40
1.0
100
AcDbArc
 50
82.27343300000008
 51
99.91552700000008
  0
LINE
  5
117D
330
113C
100
AcDbEntity
  8
1
  6
Continuous
 62
     7
100
AcDbLine
 10
14.51277589726958
 20
4.195360842129545
 30
12.121909
 11
14.36733089726958
 21
4.049915842129536
 31
12.121909
  0
LINE
  5
117E
330
113C
100
AcDbEntity
  8
1
  6
Continuous
 62
     7
100
AcDbLine
 10
14.54812989726958
 20
4.160005842129535
 30
12.121909
 11
14.42465789726959
 21
4.036533842129543
 31
12.121909
  0
LINE
  5
117F
330
113C
100
AcDbEntity
  8
2
  6
Continuous
 62
     7
100
AcDbLine
 10
14.36529889726958
 20
4.02335684212953
 30
12.121909
 11
14.12024789726958
 21
3.778304842129529
 31
12.121909
  0
LINE
  5
1180
330
113C
100
AcDbEntity
  8
2
  6
Continuous
 62
     7
100
AcDbLine
 10
14.43601189726958
 20
4.02335684212953
 30
12.121909
 11
14.19096089726958
 21
3.778304842129529
 31
12.121909
  0
LINE
  5
1181
330
113C
100
AcDbEntity
  8
2
  6
Continuous
 62
     7
100
AcDbLine
 10
14.71885389726958
 20
4.02335684212953
 30
12.121909
 11
14.47380289726958
 21
3.778304842129529
 31
12.121909
  0
LINE
  5
1182
330
113C
100
AcDbEntity
  8
2
  6
Continuous
 62
     7
100
AcDbLine
 10
14.78956289726958
 20
4.02335684212953
 30
12.121909
 11
14.54451189726958
 21
3.778304842129529
 31
12.121909
  0
LINE
  5
1183
330
113C
100
AcDbEntity
  8
1
  6
Continuous
 62
     7
100
AcDbLine
 10
14.58348789726958
 20
4.124647842129533
 30
12.121909
 11
14.50095289726958
 21
4.042115842129533
 31
12.121909
  0
LINE
  5
1184
330
113C
100
AcDbEntity
  8
1
  6
Continuous
 62
     7
100
AcDbLine
 10
14.61884289726958
 20
4.089293842129535
 30
12.121909
 11
14.57179889726958
 21
4.042249842129535
 31
12.121909
  0
LINE
  5
1185
330
113C
100
AcDbEntity
  8
1
  6
Continuous
 62
     7
100
AcDbLine
 10
14.65419689726958
 20
4.053938842129525
 30
12.121909
 11
14.63813389726958
 21
4.037875842129537
 31
12.121909
  0
LWPOLYLINE
  5
1186
330
113C
100
AcDbEntity
  8
2
  6
Continuous
 62
     7
100
AcDbPolyline
 90
        4
 70
     1
 43
0.0
 38
12.121909
 10
14.42983089726958
 20
4.655151842129527
 10
14.42983089726958
 20
4.280151842129527
 10
14.36733089726958
 20
4.280151842129527
 10
14.36733089726958
 20
4.655151842129527
  0
3DFACE
  5
1187
330
113C
100
AcDbEntity
  8
1
  6
Continuous
 62
     7
100
AcDbFace
 10
14.42983089726958
 20
4.648710842129545
 30
12.121909
 11
14.43568889726958
 21
4.272446842129539
 31
12.121909
 12
14.42983089726958
 22
4.286589842129529
 32
12.121909
 13
14.42983089726958
 23
4.286589842129529
 33
12.121909
 70
     1
  0
LINE
  5
1188
330
113C
100
AcDbEntity
  8
1
  6
Continuous
 62
     7
100
AcDbLine
 10
14.38543289726958
 20
4.280151842129527
 30
12.121909
 11
14.36733089726958
 21
4.262049842129528
 31
12.121909
  0
3DFACE
  5
1189
330
113C
100
AcDbEntity
  8
1
  6
Continuous
 62
     7
100
AcDbFace
 10
14.46417489726958
 20
4.637306842129532
 30
12.121909
 11
14.46568889726958
 21
4.284871842129533
 31
12.121909
 12
14.45983089726958
 22
4.299014842129537
 32
12.121909
 13
14.45983089726958
 23
4.624860842129535
 33
12.121909
 70
     1
  0
LINE
  5
118A
330
113C
100
AcDbEntity
  8
1
  6
Continuous
 62
     7
100
AcDbLine
 10
14.47742089726958
 20
18.23038584109204
 30
12.121909
 11
14.36733089726958
 21
18.34047284109203
 31
12.121909
  0
LINE
  5
118B
330
113C
100
AcDbEntity
  8
1
  6
Continuous
 62
     7
100
AcDbLine
 10
14.44206289726958
 20
18.19502784109203
 30
12.121909
 11
14.36733089726958
 21
18.26976384109203
 31
12.121909
  0
POLYLINE
  5
118C
330
113C
100
AcDbEntity
  8
3
  6
Continuous
 62
     7
100
AcDbPolyFaceMesh
 66
     1
 10
0.0
 20
0.0
 30
0.0
 70
    64
 71
     7
 72
     3
  0
VERTEX
  5
118D
330
118C
100
AcDbEntity
  8
3
  6
Continuous
 62
     7
100
AcDbVertex
100
AcDbPolyFaceMeshVertex
 10
14.36733089726958
 20
18.43279584109204
 30
12.121909
 70
   192
  0
VERTEX
  5
118E
330
118C
100
AcDbEntity
  8
3
  6
Continuous
 62
     7
100
AcDbVertex
100
AcDbPolyFaceMeshVertex
 10
14.11733089726958
 20
15.93279584109204
 30
12.121909
 70
   192
  0
VERTEX
  5
118F
330
118C
100
AcDbEntity
  8
3
  6
Continuous
 62
     7
100
AcDbVertex
100
AcDbPolyFaceMeshVertex
 10
14.36733089726958
 20
15.93995684109204
 30
12.121909
 70
   192
  0
VERTEX
  5
1190
330
118C
100
AcDbEntity
  8
3
  6
Continuous
 62
     7
100
AcDbVertex
100
AcDbPolyFaceMeshVertex
 10
14.11733089726958
 20
15.30779584109204
 30
12.121909
 70
   192
  0
VERTEX
  5
1191
330
118C
100
AcDbEntity
  8
3
  6
Continuous
 62
     7
100
AcDbVertex
100
AcDbPolyFaceMeshVertex
 10
14.36733089726958
 20
15.30779584109204
 30
12.121909
 70
   192
  0
VERTEX
  5
1192
330
118C
100
AcDbEntity
  8
3
  6
Continuous
 62
     7
100
AcDbVertex
100
AcDbPolyFaceMeshVertex
 10
14.11733089726958
 20
18.43279584109204
 30
12.121909
 70
   192
  0
VERTEX
  5
1193
330
118C
100
AcDbEntity
  8
3
  6
Continuous
 62
     7
100
AcDbVertex
100
AcDbPolyFaceMeshVertex
 10
14.36733089726958
 20
15.93279584109204
 30
12.121909
 70
   192
  0
VERTEX
  5
1194
330
118C
100
AcDbEntity
  8
3
  6
Continuous
 62
     7
100
AcDbFaceRecord
 10
0.0
 20
0.0
 30
0.0
 70
   128
 71
    -1
 72
     2
 73
    -4
 74
     3
  0
VERTEX
  5
1195
330
118C
100
AcDbEntity
  8
3
  6
Continuous
 62
     7
100
AcDbFaceRecord
 10
0.0
 20
0.0
 30
0.0
 70
   128
 71
    -2
 72
     1
 73
     6
  0
VERTEX
  5
1196
330
118C
100
AcDbEntity
  8
3
  6
Continuous
 62
     7
100
AcDbFaceRecord
 10
0.0
 20
0.0
 30
0.0
 70
   128
 71
    -3
 72
     4
 73
     5
 74
     7
  0
SEQEND
  5
1197
330
118C
100
AcDbEntity
  8
3
  6
Continuous
 62
     7
  0
3DFACE
  5
1198
330
113C
100
AcDbEntity
  8
1
  6
Continuous
 62
     7
100
AcDbFace
 10
14.43568889726958
 20
18.18865384109203
 30
12.121909
 11
14.42983089726958
 21
17.81238984109203
 31
12.121909
 12
14.44531889726958
 22
17.79290484109204
 32
12.121909
 13
14.67397289726958
 23
18.42693784109204
 33
12.121909
 70
     5
  0
3DFACE
  5
1199
330
113C
100
AcDbEntity
  8
1
  6
Continuous
 62
     7
100
AcDbFace
 10
14.46568889726958
 20
18.17622884109204
 30
12.121909
 11
14.46417489726958
 21
17.82379384109204
 31
12.121909
 12
14.47531889726958
 22
17.81675384109204
 32
12.121909
 13
14.68639789726958
 23
18.39693584109204
 33
12.121909
 70
     5
  0
LWPOLYLINE
  5
119A
330
113C
100
AcDbEntity
  8
2
  6
Continuous
 62
     7
100
AcDbPolyline
 90
        4
 70
     1
 43
0.0
 38
12.121909
 10
14.42983089726958
 20
17.80594884109205
 10
14.42983089726958
 20
18.18094884109205
 10
14.36733089726958
 20
18.18094884109205
 10
14.36733089726958
 20
17.80594884109205
  0
LINE
  5
119B
330
113C
100
AcDbEntity
  8
1
  6
Continuous
 62
     7
100
AcDbLine
 10
14.38543289726958
 20
18.18094884109205
 30
12.121909
 11
14.36733089726958
 21
18.19905084109204
 31
12.121909
  0
3DFACE
  5
119C
330
113C
100
AcDbEntity
  8
1
  6
Continuous
 62
     7
100
AcDbFace
 10
14.42983089726958
 20
17.81238984109203
 30
12.121909
 11
14.43568889726958
 21
18.18865384109203
 31
12.121909
 12
14.42983089726958
 22
18.17451084109204
 32
12.121909
 13
14.42983089726958
 23
18.17451084109204
 33
12.121909
 70
     1
  0
3DFACE
  5
119D
330
113C
100
AcDbEntity
  8
1
  6
Continuous
 62
     7
100
AcDbFace
 10
14.46417489726958
 20
17.82379384109204
 30
12.121909
 11
14.46568889726958
 21
18.17622884109204
 31
12.121909
 12
14.45983089726958
 22
18.16208584109203
 32
12.121909
 13
14.45983089726958
 23
17.83623984109204
 33
12.121909
 70
     1
  0
LINE
  5
119E
330
113C
100
AcDbEntity
  8
2
  6
Continuous
 62
     7
100
AcDbLine
 10
14.29458689726958
 20
18.43774384109204
 30
12.121909
 11
14.04953489726958
 21
18.68279584109204
 31
12.121909
  0
LINE
  5
119F
330
113C
100
AcDbEntity
  8
2
  6
Continuous
 62
     7
100
AcDbLine
 10
14.22387789726958
 20
18.43774384109204
 30
12.121909
 11
14.01538589726958
 21
18.64623684109204
 31
12.121909
  0
LINE
  5
11A0
330
113C
100
AcDbEntity
  8
2
  6
Continuous
 62
     7
100
AcDbLine
 10
14.15316489726958
 20
18.43774384109204
 30
12.121909
 11
14.01538589726958
 21
18.57552384109203
 31
12.121909
  0
LINE
  5
11A1
330
113C
100
AcDbEntity
  8
2
  6
Continuous
 62
     7
100
AcDbLine
 10
14.08245689726958
 20
18.43774384109204
 30
12.121909
 11
14.01538589726958
 21
18.50481484109202
 31
12.121909
  0
LINE
  5
11A2
330
113C
100
AcDbEntity
  8
1
  6
Continuous
 62
     7
100
AcDbLine
 10
14.54812989726958
 20
18.30109484109204
 30
12.121909
 11
14.42465789726959
 21
18.42456684109203
 31
12.121909
  0
LINE
  5
11A3
330
113C
100
AcDbEntity
  8
1
  6
Continuous
 62
     7
100
AcDbLine
 10
14.51277589726958
 20
18.26573984109202
 30
12.121909
 11
14.36733089726958
 21
18.41118484109204
 31
12.121909
  0
ARC
  5
11A4
330
113C
100
AcDbEntity
  8
1
  6
Continuous
 62
     7
100
AcDbCircle
 10
14.53952689726958
 20
19.41785784109204
 30
12.121909
 40
1.0
100
AcDbArc
 50
260.0844729999999
 51
277.7265669999999
  0
LINE
  5
11A5
330
113C
100
AcDbEntity
  8
2
  6
Continuous
 62
     7
100
AcDbLine
 10
14.64814189726958
 20
18.43774384109204
 30
12.121909
 11
14.40309089726958
 21
18.68279584109204
 31
12.121909
  0
LINE
  5
11A6
330
113C
100
AcDbEntity
  8
2
  6
Continuous
 62
     7
100
AcDbLine
 10
14.57743289726958
 20
18.43774384109204
 30
12.121909
 11
14.33238189726958
 21
18.68279584109204
 31
12.121909
  0
LINE
  5
11A7
330
113C
100
AcDbEntity
  8
2
  6
Continuous
 62
     7
100
AcDbLine
 10
14.50672089726958
 20
18.43774384109204
 30
12.121909
 11
14.26166889726958
 21
18.68279584109204
 31
12.121909
  0
LINE
  5
11A8
330
113C
100
AcDbEntity
  8
2
  6
Continuous
 62
     7
100
AcDbLine
 10
14.43601189726958
 20
18.43774384109204
 30
12.121909
 11
14.19096089726958
 21
18.68279584109204
 31
12.121909
  0
LINE
  5
11A9
330
113C
100
AcDbEntity
  8
2
  6
Continuous
 62
     7
100
AcDbLine
 10
14.36529889726958
 20
18.43774384109204
 30
12.121909
 11
14.12024789726958
 21
18.68279584109204
 31
12.121909
  0
LINE
  5
11AA
330
113C
100
AcDbEntity
  8
1
  6
Continuous
 62
     7
100
AcDbLine
 10
14.65419689726958
 20
18.40716184109204
 30
12.121909
 11
14.63813389726958
 21
18.42322484109203
 31
12.121909
  0
LINE
  5
11AB
330
113C
100
AcDbEntity
  8
1
  6
Continuous
 62
     7
100
AcDbLine
 10
14.61884289726958
 20
18.37180684109204
 30
12.121909
 11
14.57179889726958
 21
18.41885084109204
 31
12.121909
  0
LINE
  5
11AC
330
113C
100
AcDbEntity
  8
1
  6
Continuous
 62
     7
100
AcDbLine
 10
14.58348789726958
 20
18.33645284109204
 30
12.121909
 11
14.50095289726958
 21
18.41898484109204
 31
12.121909
  0
LINE
  5
11AD
330
113C
100
AcDbEntity
  8
2
  6
Continuous
 62
     7
100
AcDbLine
 10
14.78956289726958
 20
18.43774384109204
 30
12.121909
 11
14.54451189726958
 21
18.68279584109204
 31
12.121909
  0
LINE
  5
11AE
330
113C
100
AcDbEntity
  8
2
  6
Continuous
 62
     7
100
AcDbLine
 10
14.71885389726958
 20
18.43774384109204
 30
12.121909
 11
14.47380289726958
 21
18.68279584109204
 31
12.121909
  0
3DFACE
  5
11AF
330
113C
100
AcDbEntity
  8
1
  6
Continuous
 62
     7
100
AcDbFace
 10
15.01897289726958
 20
4.064162842129533
 30
12.121909
 11
15.02483089726958
 21
4.746450842129533
 31
12.121909
 12
15.02483089726958
 22
4.746450842129533
 32
12.121909
 13
15.02483089726958
 23
4.07830484212954
 33
12.121909
 70
     1
  0
3DFACE
  5
11B0
330
113C
100
AcDbEntity
  8
1
  6
Continuous
 62
     7
100
AcDbFace
 10
15.00483089726958
 20
4.05830484212953
 30
12.121909
 11
15.01727589726958
 21
4.76210684212954
 31
12.121909
 12
15.02483089726958
 22
4.746450842129533
 32
12.121909
 13
15.01897289726958
 23
4.064162842129533
 33
12.121909
 70
     5
  0
LINE
  5
11B1
330
113C
100
AcDbEntity
  8
2
  6
Continuous
 62
     7
100
AcDbLine
 10
15.14311789726958
 20
4.02335684212953
 30
12.121909
 11
14.89806689726959
 21
3.778304842129529
 31
12.121909
  0
LINE
  5
11B2
330
113C
100
AcDbEntity
  8
2
  6
Continuous
 62
     7
100
AcDbLine
 10
15.17670889726958
 20
3.986237842129526
 30
12.121909
 11
14.96877589726958
 21
3.778304842129529
 31
12.121909
  0
LINE
  5
11B3
330
113C
100
AcDbEntity
  8
2
  6
Continuous
 62
     7
100
AcDbLine
 10
15.17670889726958
 20
3.915525842129525
 30
12.121909
 11
15.03948789726958
 21
3.778304842129529
 31
12.121909
  0
LINE
  5
11B4
330
113C
100
AcDbEntity
  8
2
  6
Continuous
 62
     7
100
AcDbLine
 10
15.17670889726958
 20
3.844816842129532
 30
12.121909
 11
15.11019689726958
 21
3.778304842129529
 31
12.121909
  0
LINE
  5
11B5
330
113C
100
AcDbEntity
  8
3
  6
Continuous
 62
     7
100
AcDbLine
 10
17.11733089726958
 20
4.778304842129529
 30
12.121909
 11
17.11733089726958
 21
7.11109259279123
 31
12.121909
  0
LINE
  5
11B6
330
113C
100
AcDbEntity
  8
3
  6
Continuous
 62
     7
100
AcDbLine
 10
16.86733089726958
 20
7.11109259279123
 30
12.121909
 11
16.86733089726958
 21
4.778304842129529
 31
12.121909
  0
3DFACE
  5
11B7
330
113C
100
AcDbEntity
  8
1
  6
Continuous
 62
     7
100
AcDbFace
 10
15.35827589726958
 20
4.80830484212953
 30
12.121909
 11
15.35376389726958
 21
4.847789842129529
 31
12.121909
 12
16.75531889726958
 22
5.172383842129534
 32
12.121909
 13
16.53912289726958
 23
4.80830484212953
 33
12.121909
 70
     5
  0
3DFACE
  5
11B8
330
113C
100
AcDbEntity
  8
1
  6
Continuous
 62
     7
100
AcDbFace
 10
16.55154689726958
 20
4.778304842129529
 30
12.121909
 11
15.17983089726958
 21
4.838304842129531
 31
12.121909
 12
16.78531889726958
 22
5.210127842129537
 32
12.121909
 13
16.55154689726958
 23
4.778304842129529
 33
12.121909
 70
     5
  0
3DFACE
  5
11B9
330
113C
100
AcDbEntity
  8
1
  6
Continuous
 62
     7
100
AcDbFace
 10
15.09144189726958
 20
4.741693842129535
 30
12.121909
 11
15.17983089726958
 21
4.838304842129531
 31
12.121909
 12
16.55154689726958
 22
4.778304842129529
 32
12.121909
 13
15.17983089726958
 23
4.778304842129529
 33
12.121909
 70
     3
  0
POLYLINE
  5
11BA
330
113C
100
AcDbEntity
  8
1
  6
Continuous
 62
     7
100
AcDbPolyFaceMesh
 66
     1
 10
0.0
 20
0.0
 30
0.0
 70
    64
 71
    21
 72
    12
  0
VERTEX
  5
11BB
330
11BA
100
AcDbEntity
  8
1
  6
Continuous
 62
     7
100
AcDbVertex
100
AcDbPolyFaceMeshVertex
 10
17.17245289726959
 20
4.879308842129532
 30
12.121909
 70
   192
  0
VERTEX
  5
11BC
330
11BA
100
AcDbEntity
  8
1
  6
Continuous
 62
     7
100
AcDbVertex
100
AcDbPolyFaceMeshVertex
 10
17.24042089726959
 20
4.92937584212953
 30
12.121909
 70
   192
  0
VERTEX
  5
11BD
330
11BA
100
AcDbEntity
  8
1
  6
Continuous
 62
     7
100
AcDbVertex
100
AcDbPolyFaceMeshVertex
 10
17.81733089726958
 20
4.528304842129529
 30
12.121909
 70
   192
  0
VERTEX
  5
11BE
330
11BA
100
AcDbEntity
  8
1
  6
Continuous
 62
     7
100
AcDbVertex
100
AcDbPolyFaceMeshVertex
 10
16.40483089726958
 20
4.653304842129529
 30
12.121909
 70
   192
  0
VERTEX
  5
11BF
330
11BA
100
AcDbEntity
  8
1
  6
Continuous
 62
     7
100
AcDbVertex
100
AcDbPolyFaceMeshVertex
 10
16.60483089726958
 20
4.653304842129529
 30
12.121909
 70
   192
  0
VERTEX
  5
11C0
330
11BA
100
AcDbEntity
  8
1
  6
Continuous
 62
     7
100
AcDbVertex
100
AcDbPolyFaceMeshVertex
 10
16.80483089726958
 20
4.715804842129529
 30
12.121909
 70
   192
  0
VERTEX
  5
11C1
330
11BA
100
AcDbEntity
  8
1
  6
Continuous
 62
     7
100
AcDbVertex
100
AcDbPolyFaceMeshVertex
 10
17.61152989726958
 20
4.66837384212954
 30
12.121909
 70
   192
  0
VERTEX
  5
11C2
330
11BA
100
AcDbEntity
  8
1
  6
Continuous
 62
     7
100
AcDbVertex
100
AcDbPolyFaceMeshVertex
 10
17.24233089726958
 20
4.715804842129529
 30
12.121909
 70
   192
  0
VERTEX
  5
11C3
330
11BA
100
AcDbEntity
  8
1
  6
Continuous
 62
     7
100
AcDbVertex
100
AcDbPolyFaceMeshVertex
 10
16.70483089726958
 20
4.653304842129529
 30
12.121909
 70
   192
  0
VERTEX
  5
11C4
330
11BA
100
AcDbEntity
  8
1
  6
Continuous
 62
     7
100
AcDbVertex
100
AcDbPolyFaceMeshVertex
 10
16.50483089726958
 20
4.653304842129529
 30
12.121909
 70
   192
  0
VERTEX
  5
11C5
330
11BA
100
AcDbEntity
  8
1
  6
Continuous
 62
     7
100
AcDbVertex
100
AcDbPolyFaceMeshVertex
 10
16.30483089726958
 20
4.653304842129529
 30
12.121909
 70
   192
  0
VERTEX
  5
11C6
330
11BA
100
AcDbEntity
  8
1
  6
Continuous
 62
     7
100
AcDbVertex
100
AcDbPolyFaceMeshVertex
 10
17.24140189726958
 20
4.927454842129534
 30
12.121909
 70
   192
  0
VERTEX
  5
11C7
330
11BA
100
AcDbEntity
  8
1
  6
Continuous
 62
     7
100
AcDbVertex
100
AcDbPolyFaceMeshVertex
 10
17.25739889726959
 20
5.022504842129535
 30
12.121909
 70
   192
  0
VERTEX
  5
11C8
330
11BA
100
AcDbEntity
  8
1
  6
Continuous
 62
     7
100
AcDbVertex
100
AcDbPolyFaceMeshVertex
 10
16.30483089726958
 20
4.528304842129529
 30
12.121909
 70
   192
  0
VERTEX
  5
11C9
330
11BA
100
AcDbEntity
  8
1
  6
Continuous
 62
     7
100
AcDbVertex
100
AcDbPolyFaceMeshVertex
 10
16.45483089726958
 20
4.778304842129529
 30
12.121909
 70
   192
  0
VERTEX
  5
11CA
330
11BA
100
AcDbEntity
  8
1
  6
Continuous
 62
     7
100
AcDbVertex
100
AcDbPolyFaceMeshVertex
 10
16.55483089726958
 20
4.778304842129529
 30
12.121909
 70
   192
  0
VERTEX
  5
11CB
330
11BA
100
AcDbEntity
  8
1
  6
Continuous
 62
     7
100
AcDbVertex
100
AcDbPolyFaceMeshVertex
 10
16.65483089726958
 20
4.778304842129529
 30
12.121909
 70
   192
  0
VERTEX
  5
11CC
330
11BA
100
AcDbEntity
  8
1
  6
Continuous
 62
     7
100
AcDbVertex
100
AcDbPolyFaceMeshVertex
 10
16.75483089726958
 20
4.778304842129529
 30
12.121909
 70
   192
  0
VERTEX
  5
11CD
330
11BA
100
AcDbEntity
  8
1
  6
Continuous
 62
     7
100
AcDbVertex
100
AcDbPolyFaceMeshVertex
 10
17.11737389726958
 20
5.04837184212954
 30
12.121909
 70
   192
  0
VERTEX
  5
11CE
330
11BA
100
AcDbEntity
  8
1
  6
Continuous
 62
     7
100
AcDbVertex
100
AcDbPolyFaceMeshVertex
 10
17.11733089726958
 20
5.228304842129531
 30
12.121909
 70
   192
  0
VERTEX
  5
11CF
330
11BA
100
AcDbEntity
  8
1
  6
Continuous
 62
     7
100
AcDbVertex
100
AcDbPolyFaceMeshVertex
 10
17.42333589726959
 20
4.834310842129539
 30
12.121909
 70
   192
  0
VERTEX
  5
11D0
330
11BA
100
AcDbEntity
  8
1
  6
Continuous
 62
     7
100
AcDbFaceRecord
 10
0.0
 20
0.0
 30
0.0
 70
   128
 71
    -1
 72
     2
 73
   -12
 74
     8
  0
VERTEX
  5
11D1
330
11BA
100
AcDbEntity
  8
1
  6
Continuous
 62
     7
100
AcDbFaceRecord
 10
0.0
 20
0.0
 30
0.0
 70
   128
 71
    -2
 72
     1
 73
    19
  0
VERTEX
  5
11D2
330
11BA
100
AcDbEntity
  8
1
  6
Continuous
 62
     7
100
AcDbFaceRecord
 10
0.0
 20
0.0
 30
0.0
 70
   128
 71
    -3
 72
    -4
 73
   -10
 74
    -5
  0
VERTEX
  5
11D3
330
11BA
100
AcDbEntity
  8
1
  6
Continuous
 62
     7
100
AcDbFaceRecord
 10
0.0
 20
0.0
 30
0.0
 70
   128
 71
    -4
 72
     3
 73
    14
 74
   -11
  0
VERTEX
  5
11D4
330
11BA
100
AcDbEntity
  8
1
  6
Continuous
 62
     7
100
AcDbFaceRecord
 10
0.0
 20
0.0
 30
0.0
 70
   128
 71
    -3
 72
    -5
 73
     9
 74
    -6
  0
VERTEX
  5
11D5
330
11BA
100
AcDbEntity
  8
1
  6
Continuous
 62
     7
100
AcDbFaceRecord
 10
0.0
 20
0.0
 30
0.0
 70
   128
 71
    -3
 72
     6
 73
    -8
 74
     7
  0
VERTEX
  5
11D6
330
11BA
100
AcDbEntity
  8
1
  6
Continuous
 62
     7
100
AcDbFaceRecord
 10
0.0
 20
0.0
 30
0.0
 70
   128
 71
    -7
 72
    -8
 73
    13
 74
    21
  0
VERTEX
  5
11D7
330
11BA
100
AcDbEntity
  8
1
  6
Continuous
 62
     7
100
AcDbFaceRecord
 10
0.0
 20
0.0
 30
0.0
 70
   128
 71
    -9
 72
     5
 73
    18
  0
VERTEX
  5
11D8
330
11BA
100
AcDbEntity
  8
1
  6
Continuous
 62
     7
100
AcDbFaceRecord
 10
0.0
 20
0.0
 30
0.0
 70
   128
 71
    -5
 72
    10
 73
    17
  0
VERTEX
  5
11D9
330
11BA
100
AcDbEntity
  8
1
  6
Continuous
 62
     7
100
AcDbFaceRecord
 10
0.0
 20
0.0
 30
0.0
 70
   128
 71
   -10
 72
     4
 73
    16
  0
VERTEX
  5
11DA
330
11BA
100
AcDbEntity
  8
1
  6
Continuous
 62
     7
100
AcDbFaceRecord
 10
0.0
 20
0.0
 30
0.0
 70
   128
 71
    -4
 72
    11
 73
    15
  0
VERTEX
  5
11DB
330
11BA
100
AcDbEntity
  8
1
  6
Continuous
 62
     7
100
AcDbFaceRecord
 10
0.0
 20
0.0
 30
0.0
 70
   128
 71
    -8
 72
    12
 73
    20
 74
   -13
  0
SEQEND
  5
11DC
330
11BA
100
AcDbEntity
  8
1
  6
Continuous
 62
     7
  0
3DFACE
  5
11DD
330
113C
100
AcDbEntity
  8
1
  6
Continuous
 62
     7
100
AcDbFace
 10
15.35376389726958
 20
4.847789842129529
 30
12.121909
 11
15.35827589726958
 21
4.80830484212953
 31
12.121909
 12
15.33840589726958
 22
4.826034842129544
 32
12.121909
 13
15.33840589726958
 23
4.826034842129544
 33
12.121909
 70
     1
  0
3DFACE
  5
11DE
330
113C
100
AcDbEntity
  8
1
  6
Continuous
 62
     7
100
AcDbFace
 10
16.77397289726959
 20
5.034872842129544
 30
12.121909
 11
16.77983089726958
 21
5.152899842129528
 31
12.121909
 12
16.77983089726958
 22
5.049013842129525
 32
12.121909
 13
16.77983089726958
 23
5.049013842129525
 33
12.121909
 70
     1
  0
3DFACE
  5
11DF
330
113C
100
AcDbEntity
  8
1
  6
Continuous
 62
     7
100
AcDbFace
 10
16.77397289726959
 20
5.034872842129544
 30
12.121909
 11
16.75531889726958
 21
5.172383842129534
 31
12.121909
 12
16.77227589726959
 22
5.168555842129535
 32
12.121909
 13
16.77983089726958
 23
5.152899842129528
 33
12.121909
 70
     9
  0
3DFACE
  5
11E0
330
113C
100
AcDbEntity
  8
1
  6
Continuous
 62
     7
100
AcDbFace
 10
16.53912289726958
 20
4.80830484212953
 30
12.121909
 11
16.75531889726958
 21
5.172383842129534
 31
12.121909
 12
16.77397289726959
 22
5.034872842129544
 32
12.121909
 13
16.55326389726958
 23
4.814159842129541
 33
12.121909
 70
     3
  0
3DFACE
  5
11E1
330
113C
100
AcDbEntity
  8
1
  6
Continuous
 62
     7
100
AcDbFace
 10
16.80397289726959
 20
5.022447842129537
 30
12.121909
 11
16.78531889726958
 21
5.210127842129537
 31
12.121909
 12
16.80983089726958
 22
5.190643842129532
 32
12.121909
 13
16.80983089726958
 23
5.036588842129532
 33
12.121909
 70
     1
  0
3DFACE
  5
11E2
330
113C
100
AcDbEntity
  8
1
  6
Continuous
 62
     7
100
AcDbFace
 10
16.55154689726958
 20
4.778304842129529
 30
12.121909
 11
16.78531889726958
 21
5.210127842129537
 31
12.121909
 12
16.80397289726959
 22
5.022447842129537
 32
12.121909
 13
16.56568889726958
 23
4.78416384212953
 33
12.121909
 70
     3
  0
LWPOLYLINE
  5
11E3
330
113C
100
AcDbEntity
  8
2
  6
Continuous
 62
     7
100
AcDbPolyline
 90
        4
 70
     1
 43
0.0
 38
12.121909
 10
16.87233089726958
 20
5.207363842129524
 10
16.87233089726958
 20
5.019863842129524
 10
16.80983089726958
 20
5.019863842129524
 10
16.80983089726958
 20
5.207363842129524
  0
LINE
  5
11E4
330
113C
100
AcDbEntity
  8
3
  6
Continuous
 62
     7
100
AcDbLine
 10
16.86733089726958
 20
4.778304842129529
 30
12.121909
 11
17.11733089726958
 21
4.778304842129529
 31
12.121909
  0
ARC
  5
11E5
330
113C
100
AcDbEntity
  8
1
  6
Continuous
 62
     7
100
AcDbCircle
 10
-16.69731389726958
 20
3.792863842129534
 30
-12.121909
 40
1.0
210
0.0
220
0.0
230
-1.0
100
AcDbArc
 50
82.43646800000004
 51
99.78876600000006
  0
LINE
  5
11E6
330
113C
100
AcDbEntity
  8
1
  6
Continuous
 62
     7
100
AcDbLine
 10
16.81381089726959
 20
5.019863842129524
 30
12.121909
 11
16.57960989726958
 21
4.785659842129533
 31
12.121909
  0
LINE
  5
11E7
330
113C
100
AcDbEntity
  8
1
  6
Continuous
 62
     7
100
AcDbLine
 10
16.86733089726958
 20
5.002671842129544
 30
12.121909
 11
16.65622389726959
 21
4.791564842129531
 31
12.121909
  0
LINE
  5
11E8
330
113C
100
AcDbEntity
  8
1
  6
Continuous
 62
     7
100
AcDbLine
 10
16.86733089726958
 20
4.931958842129532
 30
12.121909
 11
16.72743289726958
 21
4.792060842129544
 31
12.121909
  0
LINE
  5
11E9
330
113C
100
AcDbEntity
  8
1
  6
Continuous
 62
     7
100
AcDbLine
 10
16.86733089726958
 20
4.861249842129524
 30
12.121909
 11
16.79397589726958
 21
4.787895842129543
 31
12.121909
  0
LINE
  5
11EA
330
113C
100
AcDbEntity
  8
1
  6
Continuous
 62
     7
100
AcDbLine
 10
16.86733089726958
 20
4.790537842129523
 30
12.121909
 11
16.85659789726958
 21
4.77980884212954
 31
12.121909
  0
LINE
  5
11EB
330
113C
100
AcDbEntity
  8
DIM
100
AcDbLine
 10
16.86733089726958
 20
7.11109259279123
 30
12.121909
 11
17.11733089726958
 21
7.11109259279123
 31
12.121909
  0
3DFACE
  5
11EC
330
113C
100
AcDbEntity
  8
1
  6
Continuous
 62
     7
100
AcDbFace
 10
15.00483089726958
 20
18.40279584109204
 30
12.121909
 11
15.01727589726958
 21
17.69899384109203
 31
12.121909
 12
15.02483089726958
 22
17.71464984109204
 32
12.121909
 13
15.01897289726958
 23
18.39693784109204
 33
12.121909
 70
     5
  0
3DFACE
  5
11ED
330
113C
100
AcDbEntity
  8
1
  6
Continuous
 62
     7
100
AcDbFace
 10
15.01897289726958
 20
18.39693784109204
 30
12.121909
 11
15.02483089726958
 21
17.71464984109204
 31
12.121909
 12
15.02483089726958
 22
17.71464984109204
 32
12.121909
 13
15.02483089726958
 23
18.38279584109203
 33
12.121909
 70
     1
  0
LINE
  5
11EE
330
113C
100
AcDbEntity
  8
3
  6
Continuous
 62
     7
100
AcDbLine
 10
16.86733089726958
 20
15.35000809043034
 30
12.121909
 11
16.86733089726958
 21
17.68279584109204
 31
12.121909
  0
LINE
  5
11EF
330
113C
100
AcDbEntity
  8
3
  6
Continuous
 62
     7
100
AcDbLine
 10
17.11733089726958
 20
17.68279584109204
 30
12.121909
 11
17.11733089726958
 21
15.35000809043034
 31
12.121909
  0
LINE
  5
11F0
330
113C
100
AcDbEntity
  8
DIM
100
AcDbLine
 10
16.86733089726958
 20
15.35000809043034
 30
12.121909
 11
17.11733089726958
 21
15.35000809043034
 31
12.121909
  0
POLYLINE
  5
11F1
330
113C
100
AcDbEntity
  8
1
  6
Continuous
 62
     7
100
AcDbPolyFaceMesh
 66
     1
 10
0.0
 20
0.0
 30
0.0
 70
    64
 71
    21
 72
    12
  0
VERTEX
  5
11F2
330
11F1
100
AcDbEntity
  8
1
  6
Continuous
 62
     7
100
AcDbVertex
100
AcDbPolyFaceMeshVertex
 10
17.17245289726959
 20
17.58179184109204
 30
12.121909
 70
   192
  0
VERTEX
  5
11F3
330
11F1
100
AcDbEntity
  8
1
  6
Continuous
 62
     7
100
AcDbVertex
100
AcDbPolyFaceMeshVertex
 10
17.24042089726959
 20
17.53172484109204
 30
12.121909
 70
   192
  0
VERTEX
  5
11F4
330
11F1
100
AcDbEntity
  8
1
  6
Continuous
 62
     7
100
AcDbVertex
100
AcDbPolyFaceMeshVertex
 10
17.81733089726958
 20
17.93279584109204
 30
12.121909
 70
   192
  0
VERTEX
  5
11F5
330
11F1
100
AcDbEntity
  8
1
  6
Continuous
 62
     7
100
AcDbVertex
100
AcDbPolyFaceMeshVertex
 10
16.40483089726958
 20
17.80779584109204
 30
12.121909
 70
   192
  0
VERTEX
  5
11F6
330
11F1
100
AcDbEntity
  8
1
  6
Continuous
 62
     7
100
AcDbVertex
100
AcDbPolyFaceMeshVertex
 10
16.60483089726958
 20
17.80779584109204
 30
12.121909
 70
   192
  0
VERTEX
  5
11F7
330
11F1
100
AcDbEntity
  8
1
  6
Continuous
 62
     7
100
AcDbVertex
100
AcDbPolyFaceMeshVertex
 10
16.80483089726958
 20
17.74529584109204
 30
12.121909
 70
   192
  0
VERTEX
  5
11F8
330
11F1
100
AcDbEntity
  8
1
  6
Continuous
 62
     7
100
AcDbVertex
100
AcDbPolyFaceMeshVertex
 10
17.61152989726958
 20
17.79272684109203
 30
12.121909
 70
   192
  0
VERTEX
  5
11F9
330
11F1
100
AcDbEntity
  8
1
  6
Continuous
 62
     7
100
AcDbVertex
100
AcDbPolyFaceMeshVertex
 10
17.24233089726958
 20
17.74529584109204
 30
12.121909
 70
   192
  0
VERTEX
  5
11FA
330
11F1
100
AcDbEntity
  8
1
  6
Continuous
 62
     7
100
AcDbVertex
100
AcDbPolyFaceMeshVertex
 10
16.70483089726958
 20
17.80779584109204
 30
12.121909
 70
   192
  0
VERTEX
  5
11FB
330
11F1
100
AcDbEntity
  8
1
  6
Continuous
 62
     7
100
AcDbVertex
100
AcDbPolyFaceMeshVertex
 10
16.50483089726958
 20
17.80779584109204
 30
12.121909
 70
   192
  0
VERTEX
  5
11FC
330
11F1
100
AcDbEntity
  8
1
  6
Continuous
 62
     7
100
AcDbVertex
100
AcDbPolyFaceMeshVertex
 10
16.30483089726958
 20
17.80779584109204
 30
12.121909
 70
   192
  0
VERTEX
  5
11FD
330
11F1
100
AcDbEntity
  8
1
  6
Continuous
 62
     7
100
AcDbVertex
100
AcDbPolyFaceMeshVertex
 10
17.24140189726958
 20
17.53364584109204
 30
12.121909
 70
   192
  0
VERTEX
  5
11FE
330
11F1
100
AcDbEntity
  8
1
  6
Continuous
 62
     7
100
AcDbVertex
100
AcDbPolyFaceMeshVertex
 10
17.25739889726959
 20
17.43859584109204
 30
12.121909
 70
   192
  0
VERTEX
  5
11FF
330
11F1
100
AcDbEntity
  8
1
  6
Continuous
 62
     7
100
AcDbVertex
100
AcDbPolyFaceMeshVertex
 10
16.30483089726958
 20
17.93279584109204
 30
12.121909
 70
   192
  0
VERTEX
  5
1200
330
11F1
100
AcDbEntity
  8
1
  6
Continuous
 62
     7
100
AcDbVertex
100
AcDbPolyFaceMeshVertex
 10
16.45483089726958
 20
17.68279584109204
 30
12.121909
 70
   192
  0
VERTEX
  5
1201
330
11F1
100
AcDbEntity
  8
1
  6
Continuous
 62
     7
100
AcDbVertex
100
AcDbPolyFaceMeshVertex
 10
16.55483089726958
 20
17.68279584109204
 30
12.121909
 70
   192
  0
VERTEX
  5
1202
330
11F1
100
AcDbEntity
  8
1
  6
Continuous
 62
     7
100
AcDbVertex
100
AcDbPolyFaceMeshVertex
 10
16.65483089726958
 20
17.68279584109204
 30
12.121909
 70
   192
  0
VERTEX
  5
1203
330
11F1
100
AcDbEntity
  8
1
  6
Continuous
 62
     7
100
AcDbVertex
100
AcDbPolyFaceMeshVertex
 10
16.75483089726958
 20
17.68279584109204
 30
12.121909
 70
   192
  0
VERTEX
  5
1204
330
11F1
100
AcDbEntity
  8
1
  6
Continuous
 62
     7
100
AcDbVertex
100
AcDbPolyFaceMeshVertex
 10
17.11737389726958
 20
17.41272884109203
 30
12.121909
 70
   192
  0
VERTEX
  5
1205
330
11F1
100
AcDbEntity
  8
1
  6
Continuous
 62
     7
100
AcDbVertex
100
AcDbPolyFaceMeshVertex
 10
17.11733089726958
 20
17.23279584109204
 30
12.121909
 70
   192
  0
VERTEX
  5
1206
330
11F1
100
AcDbEntity
  8
1
  6
Continuous
 62
     7
100
AcDbVertex
100
AcDbPolyFaceMeshVertex
 10
17.42333589726959
 20
17.62678984109203
 30
12.121909
 70
   192
  0
VERTEX
  5
1207
330
11F1
100
AcDbEntity
  8
1
  6
Continuous
 62
     7
100
AcDbFaceRecord
 10
0.0
 20
0.0
 30
0.0
 70
   128
 71
    -1
 72
     2
 73
   -12
 74
     8
  0
VERTEX
  5
1208
330
11F1
100
AcDbEntity
  8
1
  6
Continuous
 62
     7
100
AcDbFaceRecord
 10
0.0
 20
0.0
 30
0.0
 70
   128
 71
    -2
 72
     1
 73
    19
  0
VERTEX
  5
1209
330
11F1
100
AcDbEntity
  8
1
  6
Continuous
 62
     7
100
AcDbFaceRecord
 10
0.0
 20
0.0
 30
0.0
 70
   128
 71
    -3
 72
    -4
 73
   -10
 74
    -5
  0
VERTEX
  5
120A
330
11F1
100
AcDbEntity
  8
1
  6
Continuous
 62
     7
100
AcDbFaceRecord
 10
0.0
 20
0.0
 30
0.0
 70
   128
 71
    -4
 72
     3
 73
    14
 74
   -11
  0
VERTEX
  5
120B
330
11F1
100
AcDbEntity
  8
1
  6
Continuous
 62
     7
100
AcDbFaceRecord
 10
0.0
 20
0.0
 30
0.0
 70
   128
 71
    -3
 72
    -5
 73
     9
 74
    -6
  0
VERTEX
  5
120C
330
11F1
100
AcDbEntity
  8
1
  6
Continuous
 62
     7
100
AcDbFaceRecord
 10
0.0
 20
0.0
 30
0.0
 70
   128
 71
    -3
 72
     6
 73
    -8
 74
     7
  0
VERTEX
  5
120D
330
11F1
100
AcDbEntity
  8
1
  6
Continuous
 62
     7
100
AcDbFaceRecord
 10
0.0
 20
0.0
 30
0.0
 70
   128
 71
    -7
 72
    -8
 73
    13
 74
    21
  0
VERTEX
  5
120E
330
11F1
100
AcDbEntity
  8
1
  6
Continuous
 62
     7
100
AcDbFaceRecord
 10
0.0
 20
0.0
 30
0.0
 70
   128
 71
    -9
 72
     5
 73
    18
  0
VERTEX
  5
120F
330
11F1
100
AcDbEntity
  8
1
  6
Continuous
 62
     7
100
AcDbFaceRecord
 10
0.0
 20
0.0
 30
0.0
 70
   128
 71
    -5
 72
    10
 73
    17
  0
VERTEX
  5
1210
330
11F1
100
AcDbEntity
  8
1
  6
Continuous
 62
     7
100
AcDbFaceRecord
 10
0.0
 20
0.0
 30
0.0
 70
   128
 71
   -10
 72
     4
 73
    16
  0
VERTEX
  5
1211
330
11F1
100
AcDbEntity
  8
1
  6
Continuous
 62
     7
100
AcDbFaceRecord
 10
0.0
 20
0.0
 30
0.0
 70
   128
 71
    -4
 72
    11
 73
    15
  0
VERTEX
  5
1212
330
11F1
100
AcDbEntity
  8
1
  6
Continuous
 62
     7
100
AcDbFaceRecord
 10
0.0
 20
0.0
 30
0.0
 70
   128
 71
    -8
 72
    12
 73
    20
 74
   -13
  0
SEQEND
  5
1213
330
11F1
100
AcDbEntity
  8
1
  6
Continuous
 62
     7
  0
3DFACE
  5
1214
330
113C
100
AcDbEntity
  8
1
  6
Continuous
 62
     7
100
AcDbFace
 10
15.09144189726958
 20
17.71940684109203
 30
12.121909
 11
15.17983089726958
 21
17.62279584109204
 31
12.121909
 12
16.55154689726958
 22
17.68279584109204
 32
12.121909
 13
15.17983089726958
 23
17.68279584109204
 33
12.121909
 70
     3
  0
3DFACE
  5
1215
330
113C
100
AcDbEntity
  8
1
  6
Continuous
 62
     7
100
AcDbFace
 10
16.55154689726958
 20
17.68279584109204
 30
12.121909
 11
15.17983089726958
 21
17.62279584109204
 31
12.121909
 12
16.78531889726958
 22
17.25097284109203
 32
12.121909
 13
16.55154689726958
 23
17.68279584109204
 33
12.121909
 70
     5
  0
3DFACE
  5
1216
330
113C
100
AcDbEntity
  8
1
  6
Continuous
 62
     7
100
AcDbFace
 10
15.35827589726958
 20
17.65279584109204
 30
12.121909
 11
15.35376389726958
 21
17.61331084109204
 31
12.121909
 12
16.75531889726958
 22
17.28871684109204
 32
12.121909
 13
16.53912289726958
 23
17.65279584109204
 33
12.121909
 70
     5
  0
3DFACE
  5
1217
330
113C
100
AcDbEntity
  8
1
  6
Continuous
 62
     7
100
AcDbFace
 10
15.35376389726958
 20
17.61331084109204
 30
12.121909
 11
15.35827589726958
 21
17.65279584109204
 31
12.121909
 12
15.33840589726958
 22
17.63506584109203
 32
12.121909
 13
15.33840589726958
 23
17.63506584109203
 33
12.121909
 70
     1
  0
LWPOLYLINE
  5
1218
330
113C
100
AcDbEntity
  8
2
  6
Continuous
 62
     7
100
AcDbPolyline
 90
        4
 70
     1
 43
0.0
 38
12.121909
 10
16.87233089726958
 20
17.25373684109205
 10
16.87233089726958
 20
17.44123684109205
 10
16.80983089726958
 20
17.44123684109205
 10
16.80983089726958
 20
17.25373684109205
  0
3DFACE
  5
1219
330
113C
100
AcDbEntity
  8
1
  6
Continuous
 62
     7
100
AcDbFace
 10
16.55154689726958
 20
17.68279584109204
 30
12.121909
 11
16.78531889726958
 21
17.25097284109203
 31
12.121909
 12
16.80397289726959
 22
17.43865284109203
 32
12.121909
 13
16.56568889726958
 23
17.67693684109204
 33
12.121909
 70
     3
  0
3DFACE
  5
121A
330
113C
100
AcDbEntity
  8
1
  6
Continuous
 62
     7
100
AcDbFace
 10
16.80397289726959
 20
17.43865284109203
 30
12.121909
 11
16.78531889726958
 21
17.25097284109203
 31
12.121909
 12
16.80983089726958
 22
17.27045684109204
 32
12.121909
 13
16.80983089726958
 23
17.42451184109204
 33
12.121909
 70
     1
  0
3DFACE
  5
121B
330
113C
100
AcDbEntity
  8
1
  6
Continuous
 62
     7
100
AcDbFace
 10
16.53912289726958
 20
17.65279584109204
 30
12.121909
 11
16.75531889726958
 21
17.28871684109204
 31
12.121909
 12
16.77397289726959
 22
17.42622784109203
 32
12.121909
 13
16.55326389726958
 23
17.64694084109203
 33
12.121909
 70
     3
  0
3DFACE
  5
121C
330
113C
100
AcDbEntity
  8
1
  6
Continuous
 62
     7
100
AcDbFace
 10
16.77397289726959
 20
17.42622784109203
 30
12.121909
 11
16.75531889726958
 21
17.28871684109204
 31
12.121909
 12
16.77227589726959
 22
17.29254484109204
 32
12.121909
 13
16.77983089726958
 23
17.30820084109204
 33
12.121909
 70
     9
  0
3DFACE
  5
121D
330
113C
100
AcDbEntity
  8
1
  6
Continuous
 62
     7
100
AcDbFace
 10
16.77397289726959
 20
17.42622784109203
 30
12.121909
 11
16.77983089726958
 21
17.30820084109204
 31
12.121909
 12
16.77983089726958
 22
17.41208684109205
 32
12.121909
 13
16.77983089726958
 23
17.41208684109205
 33
12.121909
 70
     1
  0
LINE
  5
121E
330
113C
100
AcDbEntity
  8
3
  6
Continuous
 62
     7
100
AcDbLine
 10
16.86733089726958
 20
17.68279584109204
 30
12.121909
 11
17.11733089726958
 21
17.68279584109204
 31
12.121909
  0
LINE
  5
121F
330
113C
100
AcDbEntity
  8
1
  6
Continuous
 62
     7
100
AcDbLine
 10
16.86733089726958
 20
17.45842884109203
 30
12.121909
 11
16.65622389726959
 21
17.66953584109204
 31
12.121909
  0
LINE
  5
1220
330
113C
100
AcDbEntity
  8
1
  6
Continuous
 62
     7
100
AcDbLine
 10
16.81381089726959
 20
17.44123684109205
 30
12.121909
 11
16.57960989726958
 21
17.67544084109204
 31
12.121909
  0
ARC
  5
1221
330
113C
100
AcDbEntity
  8
1
  6
Continuous
 62
     7
100
AcDbCircle
 10
-16.69731389726958
 20
18.66823684109204
 30
-12.121909
 40
1.0
210
0.0
220
0.0
230
-1.0
100
AcDbArc
 50
260.211234
 51
277.563532
  0
LINE
  5
1222
330
113C
100
AcDbEntity
  8
1
  6
Continuous
 62
     7
100
AcDbLine
 10
16.86733089726958
 20
17.67056284109205
 30
12.121909
 11
16.85659789726958
 21
17.68129184109203
 31
12.121909
  0
LINE
  5
1223
330
113C
100
AcDbEntity
  8
1
  6
Continuous
 62
     7
100
AcDbLine
 10
16.86733089726958
 20
17.59985084109205
 30
12.121909
 11
16.79397589726958
 21
17.67320484109203
 31
12.121909
  0
LINE
  5
1224
330
113C
100
AcDbEntity
  8
1
  6
Continuous
 62
     7
100
AcDbLine
 10
16.86733089726958
 20
17.52914184109204
 30
12.121909
 11
16.72743289726958
 21
17.66903984109203
 31
12.121909
  0
LINE
  5
1225
330
113C
100
AcDbEntity
  8
2
  6
Continuous
 62
     7
100
AcDbLine
 10
15.17670889726958
 20
18.61628384109204
 30
12.121909
 11
15.11019689726958
 21
18.68279584109204
 31
12.121909
  0
LINE
  5
1226
330
113C
100
AcDbEntity
  8
2
  6
Continuous
 62
     7
100
AcDbLine
 10
15.17670889726958
 20
18.54557484109205
 30
12.121909
 11
15.03948789726958
 21
18.68279584109204
 31
12.121909
  0
LINE
  5
1227
330
113C
100
AcDbEntity
  8
2
  6
Continuous
 62
     7
100
AcDbLine
 10
15.17670889726958
 20
18.47486284109205
 30
12.121909
 11
14.96877589726958
 21
18.68279584109204
 31
12.121909
  0
LINE
  5
1228
330
113C
100
AcDbEntity
  8
2
  6
Continuous
 62
     7
100
AcDbLine
 10
15.14311789726958
 20
18.43774384109204
 30
12.121909
 11
14.89806689726959
 21
18.68279584109204
 31
12.121909
  0
ENDBLK
  5
122A
330
113C
100
AcDbEntity
  8
0
100
AcDbBlockEnd
  0
BLOCK
  5
13EC
330
13EA
100
AcDbEntity
  8
0
100
AcDbBlockBegin
  2
A$C612D7DA8
 70
     0
 10
0.0
 20
0.0
 30
0.0
  3
A$C612D7DA8
  1

  0
TEXT
  5
13EB
330
13EA
100
AcDbEntity
  8
DIM
100
AcDbText
 10
0.0000000000580762
 20
0.0000000052588476
 30
0.0
 40
0.125
  1
TIM CORE
 41
0.8
  7
ADESK1
100
AcDbText
  0
ENDBLK
  5
13ED
330
13EA
100
AcDbEntity
  8
0
100
AcDbBlockEnd
  0
BLOCK
  5
1664
330
1663
100
AcDbEntity
  8
0
100
AcDbBlockBegin
  2
fordelte
 70
     0
 10
0.0
 20
0.0
 30
0.0
  3
fordelte
  1

  0
LINE
  5
1666
330
1663
100
AcDbEntity
  8
3
  6
Continuous
 62
     7
100
AcDbLine
 10
10.13510882018756
 20
11.73724802466661
 30
12.121909
 11
10.13510882018756
 21
9.393009062819469
 31
12.121909
  0
LINE
  5
1667
330
1663
100
AcDbEntity
  8
3
  6
Continuous
 62
     7
100
AcDbLine
 10
10.38510882018756
 20
9.393009062819469
 30
12.121909
 11
10.38510882018756
 21
11.73724802466661
 31
12.121909
  0
3DFACE
  5
1668
330
1663
100
AcDbEntity
  8
3
  6
Continuous
 62
     7
100
AcDbFace
 10
7.630967086336758
 20
8.630742687786874
 30
12.121909
 11
7.380967086336758
 21
11.13074268778687
 31
12.121909
 12
7.380967086336758
 22
11.75574268778687
 32
12.121909
 13
7.630967086336758
 23
11.12358168778688
 33
12.121909
 70
     5
  0
3DFACE
  5
1669
330
1663
100
AcDbEntity
  8
3
  6
Continuous
 62
     7
100
AcDbFace
 10
7.380967086336758
 20
11.13074268778687
 30
12.121909
 11
7.630967086336758
 21
8.630742687786874
 31
12.121909
 12
7.380967086336758
 22
8.630742687786874
 32
12.121909
 13
7.380967086336758
 23
8.630742687786874
 33
12.121909
 70
     1
  0
LINE
  5
166A
330
1663
100
AcDbEntity
  8
5
  6
HIDDEN
 62
     7
100
AcDbLine
 10
7.630967086336758
 20
9.685194235681652
 30
12.121909
 11
9.498980130786625
 21
9.685194235681652
 31
12.121909
  0
LINE
  5
166B
330
1663
100
AcDbEntity
  8
5
  6
Continuous
 62
     7
100
AcDbLine
 10
7.630967086336758
 20
9.935194235681652
 30
12.121909
 11
10.13510882018756
 21
9.935194235681651
 31
12.121909
  0
LINE
  5
166C
330
1663
100
AcDbEntity
  8
0
  6
Continuous
 62
     7
100
AcDbLine
 10
8.44609208633676
 20
9.441406562819391
 30
12.121909
 11
10.05719882630435
 21
9.814530976535241
 31
12.121909
  0
LINE
  5
166D
330
1663
100
AcDbEntity
  8
0
  6
Continuous
 62
     7
100
AcDbLine
 10
9.822608820187559
 20
9.381196562819393
 30
12.121909
 11
8.526372086336754
 21
9.381196562819393
 31
12.121909
  0
LINE
  5
166E
330
1663
100
AcDbEntity
  8
0
  6
Continuous
 62
     7
100
AcDbLine
 10
9.810147815887409
 20
9.411301649220742
 30
12.121909
 11
8.625162101432755
 21
9.411301649220742
 31
12.121909
  0
LINE
  5
166F
330
1663
100
AcDbEntity
  8
0
  6
Continuous
 62
     7
100
AcDbLine
 10
8.620633790422557
 20
9.450924581897091
 30
12.121909
 11
10.027094105177
 21
9.776653887901044
 31
12.121909
  0
LINE
  5
1670
330
1663
100
AcDbEntity
  8
5
  6
HIDDEN
 62
     7
100
AcDbLine
 10
7.630967086336758
 20
10.18519423568165
 30
12.121909
 11
10.13510882018756
 21
10.18519423568165
 31
12.121909
  0
LINE
  5
1671
330
1663
100
AcDbEntity
  8
5
  6
HIDDEN
 62
     7
100
AcDbLine
 10
7.630967086336758
 20
10.43519423568165
 30
12.121909
 11
10.13510882018756
 21
10.43519423568165
 31
12.121909
  0
LINE
  5
1672
330
1663
100
AcDbEntity
  8
5
  6
Continuous
 62
     7
100
AcDbLine
 10
7.630967086336758
 20
10.71353043844857
 30
12.121909
 11
10.13510882018756
 21
10.71353043844857
 31
12.121909
  0
LINE
  5
1673
330
1663
100
AcDbEntity
  8
5
  6
HIDDEN
 62
     7
100
AcDbLine
 10
7.630967086336758
 20
10.96353043844857
 30
12.121909
 11
10.13510882018756
 21
10.96353043844858
 31
12.121909
  0
LINE
  5
1674
330
1663
100
AcDbEntity
  8
0
  6
Continuous
 62
     7
100
AcDbLine
 10
8.353268336336759
 20
9.362525684264994
 30
12.121909
 11
8.353268336336759
 21
8.678746562819391
 31
12.121909
  0
LINE
  5
1675
330
1663
100
AcDbEntity
  8
0
  6
Continuous
 62
     7
100
AcDbLine
 10
7.70900881315851
 20
9.270701172099439
 30
12.121909
 11
8.44609208633676
 21
9.441406562819391
 31
12.121909
  0
LINE
  5
1676
330
1663
100
AcDbEntity
  8
0
  6
Continuous
 62
     7
100
AcDbLine
 10
7.739114519321459
 20
9.246769519355094
 30
12.121909
 11
8.327471838900654
 21
9.383030603774091
 31
12.121909
  0
ARC
  5
1677
330
1663
100
AcDbEntity
  8
0
  6
Continuous
 62
     7
100
AcDbCircle
 10
8.508804744489657
 20
9.256995295041143
 30
12.121909
 40
0.1254375
100
AcDbArc
 50
81.94934348029986
 51
180.5646799282999
  0
LWPOLYLINE
  5
1678
330
1663
100
AcDbEntity
  8
2
  6
Continuous
 62
     7
100
AcDbPolyline
 90
        4
 70
     1
 43
0.0
 38
12.121909
 10
7.693467086336758
 20
9.257589687786872
 10
7.693467086336758
 20
8.882589687786872
 10
7.630967086336758
 20
8.882589687786872
 10
7.630967086336758
 20
9.257589687786872
  0
LINE
  5
1679
330
1663
100
AcDbEntity
  8
1
  6
Continuous
 62
     7
100
AcDbLine
 10
7.77641208633676
 20
8.79779868778689
 30
12.121909
 11
7.630967086336758
 21
8.652353687786881
 31
12.121909
  0
LINE
  5
167A
330
1663
100
AcDbEntity
  8
1
  6
Continuous
 62
     7
100
AcDbLine
 10
7.741057086336757
 20
8.833152687786874
 30
12.121909
 11
7.630967086336758
 21
8.723065687786881
 31
12.121909
  0
LINE
  5
167B
330
1663
100
AcDbEntity
  8
1
  6
Continuous
 62
     7
100
AcDbLine
 10
7.705699086336755
 20
8.868510687786891
 30
12.121909
 11
7.630967086336758
 21
8.793774687786889
 31
12.121909
  0
ARC
  5
167C
330
1663
100
AcDbEntity
  8
1
  6
Continuous
 62
     7
100
AcDbCircle
 10
7.803163086336757
 20
7.645680687786875
 30
12.121909
 40
1.0
100
AcDbArc
 50
82.27343300000006
 51
99.91552700000005
  0
LINE
  5
167D
330
1663
100
AcDbEntity
  8
0
  6
Continuous
 62
     7
100
AcDbLine
 10
8.383373336336758
 20
9.255759062819389
 30
12.121909
 11
8.383373336336758
 21
8.648641562819392
 31
12.121909
  0
LINE
  5
167E
330
1663
100
AcDbEntity
  8
0
  6
Continuous
 62
     7
100
AcDbLine
 10
7.950931999788954
 20
8.664555334456345
 30
12.121909
 11
7.729450858074057
 21
8.886036476171241
 31
12.121909
  0
LINE
  5
167F
330
1663
100
AcDbEntity
  8
0
  6
Continuous
 62
     7
100
AcDbLine
 10
7.938463719511707
 20
8.634449929744793
 30
12.121909
 11
7.699345453262159
 21
8.873568195893994
 31
12.121909
  0
LINE
  5
1680
330
1663
100
AcDbEntity
  8
0
  6
Continuous
 62
     7
100
AcDbLine
 10
8.333198336336755
 20
8.65867656281939
 30
12.121909
 11
7.965124610071859
 21
8.65867656281939
 31
12.121909
  0
LINE
  5
1681
330
1663
100
AcDbEntity
  8
0
  6
Continuous
 62
     7
100
AcDbLine
 10
8.363303336336761
 20
8.628571562819391
 30
12.121909
 11
7.95265535258631
 21
8.628571562819391
 31
12.121909
  0
ARC
  5
1682
330
1663
100
AcDbEntity
  8
0
  6
Continuous
 62
     7
100
AcDbCircle
 10
7.965124610071859
 20
8.678747944739242
 30
12.121909
 40
0.02007138191985
100
AcDbArc
 50
225.0
 51
270.0
  0
ARC
  5
1683
330
1663
100
AcDbEntity
  8
0
  6
Continuous
 62
     7
100
AcDbCircle
 10
7.95265535258631
 20
8.648641562819392
 30
12.121909
 40
0.02007
100
AcDbArc
 50
225.0
 51
270.0
  0
LINE
  5
1684
330
1663
100
AcDbEntity
  8
1
  6
Continuous
 62
     7
100
AcDbLine
 10
7.811766086336765
 20
8.76244368778688
 30
12.121909
 11
7.688294086336759
 21
8.638971687786888
 31
12.121909
  0
LINE
  5
1685
330
1663
100
AcDbEntity
  8
1
  6
Continuous
 62
     7
100
AcDbLine
 10
7.84712408633676
 20
8.727085687786878
 30
12.121909
 11
7.76458908633676
 21
8.644553687786878
 31
12.121909
  0
LINE
  5
1686
330
1663
100
AcDbEntity
  8
1
  6
Continuous
 62
     7
100
AcDbLine
 10
7.882479086336763
 20
8.69173168778688
 30
12.121909
 11
7.835435086336763
 21
8.644687687786881
 31
12.121909
  0
ARC
  5
1687
330
1663
100
AcDbEntity
  8
0
  6
Continuous
 62
     7
100
AcDbCircle
 10
8.363303336336761
 20
8.648641562819392
 30
12.121909
 40
0.02007
100
AcDbArc
 50
270.0
 51
0.0
  0
ARC
  5
1688
330
1663
100
AcDbEntity
  8
0
  6
Continuous
 62
     7
100
AcDbCircle
 10
8.333198336336755
 20
8.678746562819391
 30
12.121909
 40
0.02007
100
AcDbArc
 50
270.0
 51
0.0
  0
ARC
  5
1689
330
1663
100
AcDbEntity
  8
0
  6
Continuous
 62
     7
100
AcDbCircle
 10
7.713537086336755
 20
8.887759828968594
 30
12.121909
 40
0.02007
100
AcDbArc
 50
179.9999999999
 51
225.0
  0
ARC
  5
168A
330
1663
100
AcDbEntity
  8
0
  6
Continuous
 62
     7
100
AcDbCircle
 10
7.743643468457305
 20
8.900229086554492
 30
12.121909
 40
0.02007138212055
100
AcDbArc
 50
180.0
 51
225.0
  0
ARC
  5
168B
330
1663
100
AcDbEntity
  8
0
  6
Continuous
 62
     7
100
AcDbCircle
 10
7.743642086336761
 20
9.227216871472041
 30
12.121909
 40
0.02007
100
AcDbArc
 50
103.0375036321999
 51
180.0016536357001
  0
ARC
  5
168C
330
1663
100
AcDbEntity
  8
0
  6
Continuous
 62
     7
100
AcDbCircle
 10
7.713537086336755
 20
9.251148687786891
 30
12.121909
 40
0.02007
100
AcDbArc
 50
103.0395730453999
 51
180.0
  0
LINE
  5
168D
330
1663
100
AcDbEntity
  8
0
  6
Continuous
 62
     7
100
AcDbLine
 10
7.693467086336758
 20
8.887759828968594
 30
12.121909
 11
7.693467086336758
 21
9.251148687786891
 31
12.121909
  0
LINE
  5
168E
330
1663
100
AcDbEntity
  8
0
  6
Continuous
 62
     7
100
AcDbLine
 10
7.723572086336757
 20
8.900229086554492
 30
12.121909
 11
7.723572086336757
 21
9.227216292251842
 31
12.121909
  0
LINE
  5
168F
330
1663
100
AcDbEntity
  8
5
  6
HIDDEN
 62
     7
100
AcDbLine
 10
7.630967086336758
 20
9.435194235681652
 30
12.121909
 11
8.443467086336758
 21
9.435194235681652
 31
12.121909
  0
ARC
  5
1690
330
1663
100
AcDbEntity
  8
0
  6
Continuous
 62
     7
100
AcDbCircle
 10
8.332220692116356
 20
9.362525684264994
 30
12.121909
 40
0.0210476442204
100
AcDbArc
 50
0.0
 51
103.0395730453999
  0
ARC
  5
1691
330
1663
100
AcDbEntity
  8
0
  6
Continuous
 62
     7
100
AcDbCircle
 10
8.625162101432755
 20
9.431371874807545
 30
12.121909
 40
0.0200702255868
100
AcDbArc
 50
103.0395345179999
 51
270.0
  0
ARC
  5
1692
330
1663
100
AcDbEntity
  8
1
  6
Continuous
 62
     7
100
AcDbCircle
 10
-9.965091820187565
 20
8.407568062819475
 30
-12.121909
 40
1.0
210
0.0
220
0.0
230
-1.0
100
AcDbArc
 50
83.43336211487102
 51
99.78876600000011
  0
LINE
  5
1693
330
1663
100
AcDbEntity
  8
0
  6
Continuous
 62
     7
100
AcDbLine
 10
10.07591871951171
 20
9.626193195893993
 30
12.121909
 11
9.836800453262155
 21
9.387074929744791
 31
12.121909
  0
LINE
  5
1694
330
1663
100
AcDbEntity
  8
0
  6
Continuous
 62
     7
100
AcDbLine
 10
10.0458143832266
 20
9.638660141817293
 30
12.121909
 11
9.824330586752457
 21
9.41717634524279
 31
12.121909
  0
ARC
  5
1695
330
1663
100
AcDbEntity
  8
0
  6
Continuous
 62
     7
100
AcDbCircle
 10
9.810147815887409
 20
9.431359116208192
 30
12.121909
 40
0.0200574668871
100
AcDbArc
 50
270.0
 51
314.9999999999999
  0
ARC
  5
1696
330
1663
100
AcDbEntity
  8
0
  6
Continuous
 62
     7
100
AcDbCircle
 10
9.822608820187559
 20
9.401266562819394
 30
12.121909
 40
0.02007
100
AcDbArc
 50
270.0
 51
314.9999999999999
  0
LINE
  5
1697
330
1663
100
AcDbEntity
  8
0
  6
Continuous
 62
     7
100
AcDbLine
 10
10.08179708633676
 20
9.794978489212194
 30
12.121909
 11
10.08179708633676
 21
9.640384828968592
 31
12.121909
  0
LINE
  5
1698
330
1663
100
AcDbEntity
  8
0
  6
Continuous
 62
     7
100
AcDbLine
 10
10.05169217775561
 20
9.757101549597742
 30
12.121909
 11
10.05169217775561
 21
9.652850393072391
 31
12.121909
  0
LWPOLYLINE
  5
1699
330
1663
100
AcDbEntity
  8
0
100
AcDbPolyline
 90
        4
 70
     1
 43
0.0
 38
12.121909
 10
10.08072384520028
 20
9.822068062819464
 10
10.13712075507076
 20
9.822068062819464
 10
10.13712075507076
 20
9.634560446423929
 10
10.08072384520028
 20
9.634560446423929
  0
LINE
  5
169A
330
1663
100
AcDbEntity
  8
3
  6
Continuous
 62
     7
100
AcDbLine
 10
10.13510882018756
 20
9.393009062819469
 30
12.121909
 11
10.38510882018756
 21
9.393009062819469
 31
12.121909
  0
LINE
  5
169B
330
1663
100
AcDbEntity
  8
1
  6
Continuous
 62
     7
100
AcDbLine
 10
10.13510882018756
 20
9.546663062819472
 30
12.121909
 11
9.995210820187564
 21
9.406765062819484
 31
12.121909
  0
LINE
  5
169C
330
1663
100
AcDbEntity
  8
1
  6
Continuous
 62
     7
100
AcDbLine
 10
10.13510882018756
 20
9.475954062819464
 30
12.121909
 11
10.06175382018756
 21
9.402600062819484
 31
12.121909
  0
ARC
  5
169D
330
1663
100
AcDbEntity
  8
0
  6
Continuous
 62
     7
100
AcDbCircle
 10
10.03162413197151
 20
9.652850393072391
 30
12.121909
 40
0.02006804588445
100
AcDbArc
 50
314.9999999999999
 51
0.0
  0
ARC
  5
169E
330
1663
100
AcDbEntity
  8
0
  6
Continuous
 62
     7
100
AcDbCircle
 10
10.06172708633676
 20
9.640384828968592
 30
12.121909
 40
0.02007
100
AcDbArc
 50
315.0000000001
 51
0.0
  0
LINE
  5
169F
330
1663
100
AcDbEntity
  8
1
  6
Continuous
 62
     7
100
AcDbLine
 10
10.13510882018756
 20
9.617376062819484
 30
12.121909
 11
9.924001820187561
 21
9.406269062819472
 31
12.121909
  0
ARC
  5
16A0
330
1663
100
AcDbEntity
  8
0
  6
Continuous
 62
     7
100
AcDbCircle
 10
10.03162233078936
 20
9.757101549597742
 30
12.121909
 40
0.02006984696625
100
AcDbArc
 50
0.0
 51
103.0395345177998
  0
ARC
  5
16A1
330
1663
100
AcDbEntity
  8
0
  6
Continuous
 62
     7
100
AcDbCircle
 10
10.06172708633676
 20
9.794978489212194
 30
12.121909
 40
0.02007
100
AcDbArc
 50
0.0
 51
103.0395345177998
  0
LINE
  5
16A2
330
1663
100
AcDbEntity
  8
0
 62
     7
100
AcDbLine
 10
9.12025518910041
 20
11.73724802466661
 30
12.121909
 11
9.250413581700447
 21
11.62891437890668
 31
12.121909
  0
LINE
  5
16A3
330
1663
100
AcDbEntity
  8
0
 62
     7
100
AcDbLine
 10
9.250413581700447
 20
11.62891437890668
 30
12.121909
 11
8.686393722312166
 21
11.86724819527849
 31
12.121909
  0
LINE
  5
16A4
330
1663
100
AcDbEntity
  8
0
 62
     7
100
AcDbLine
 10
9.12025518910041
 20
11.73724802466661
 30
12.121909
 11
10.86383259408237
 21
11.73724802466661
 31
12.121909
  0
LINE
  5
16A5
330
1663
100
AcDbEntity
  8
5
  6
Continuous
 62
     7
100
AcDbLine
 10
7.630967086336758
 20
11.46353043844857
 30
12.121909
 11
10.13510882018756
 21
11.46353043844857
 31
12.121909
  0
LINE
  5
16A6
330
1663
100
AcDbEntity
  8
5
  6
HIDDEN
 62
     7
100
AcDbLine
 10
7.630967086336758
 20
11.71353043844857
 30
12.121909
 11
10.13510882018756
 21
11.71353043844858
 31
12.121909
  0
LINE
  5
16A7
330
1663
100
AcDbEntity
  8
5
  6
HIDDEN
 62
     7
100
AcDbLine
 10
7.630967086336758
 20
11.21353043844857
 30
12.121909
 11
10.13510882018756
 21
11.21353043844858
 31
12.121909
  0
LINE
  5
16A8
330
1663
100
AcDbEntity
  8
0
 62
     7
100
AcDbLine
 10
6.893456013572396
 20
11.75891480489359
 30
12.121909
 11
8.794858970418138
 21
11.75891480489359
 31
12.121909
  0
3DFACE
  5
16A9
330
1663
100
AcDbEntity
  8
3
  6
Continuous
 62
     7
100
AcDbFace
 10
7.630967086336758
 20
11.12358168778688
 30
12.121909
 11
7.380967086336758
 21
11.75574268778687
 31
12.121909
 12
7.630967086336758
 22
11.75574268778687
 32
12.121909
 13
7.630967086336758
 23
11.13074268778687
 33
12.121909
 70
     1
  0
3DFACE
  5
16AA
330
1663
100
AcDbEntity
  8
3
  6
Continuous
 62
     7
100
AcDbFace
 10
7.630967086336754
 20
11.12358168778688
 30
12.121909
 11
7.380967086336758
 21
11.75574268778687
 31
12.121909
 12
7.630967086336758
 22
11.75574268778687
 32
12.121909
 13
7.630967086336754
 23
11.13074268778687
 33
12.121909
 70
     1
  0
LINE
  5
16AB
330
1663
100
AcDbEntity
  8
0
100
AcDbLine
 10
8.686393722312166
 20
11.86724819527849
 30
12.121909
 11
8.794858970418138
 21
11.75891480489359
 31
12.121909
  0
ENDBLK
  5
1665
330
1663
100
AcDbEntity
  8
0
100
AcDbBlockEnd
  0
BLOCK
  5
19A5
330
19A4
100
AcDbEntity
  8
0
100
AcDbBlockBegin
  2
tape.5
 70
     0
 10
0.0
 20
0.0
 30
0.0
  3
tape.5
  1

  0
LINE
  5
19A7
330
19A4
100
AcDbEntity
  8
DIM
100
AcDbLine
 10
6.670776496362574
 20
8.58818734448647
 30
0.0
 11
6.670776496362574
 21
9.08818734448647
 31
0.0
  0
LINE
  5
19A8
330
19A4
100
AcDbEntity
  8
DIM
100
AcDbLine
 10
6.670776496362574
 20
9.08818734448647
 30
0.0
 11
6.702026496362574
 21
9.08818734448647
 31
0.0
  0
LINE
  5
19A9
330
19A4
100
AcDbEntity
  8
DIM
100
AcDbLine
 10
6.702026496362574
 20
9.08818734448647
 30
0.0
 11
6.702026496362574
 21
8.58818734448647
 31
0.0
  0
LINE
  5
19AA
330
19A4
100
AcDbEntity
  8
DIM
100
AcDbLine
 10
6.702026496362574
 20
8.58818734448647
 30
0.0
 11
6.670776496362574
 21
8.58818734448647
 31
0.0
  0
ENDBLK
  5
19A6
330
19A4
100
AcDbEntity
  8
0
100
AcDbBlockEnd
  0
BLOCK
  5
19B1
330
19B0
100
AcDbEntity
  8
0
100
AcDbBlockBegin
  2
tape.1875
 70
     0
 10
0.0
 20
0.0
 30
0.0
  3
tape.1875
  1

  0
LINE
  5
19B3
330
19B0
100
AcDbEntity
  8
DIM
100
AcDbLine
 10
6.849050262297883
 20
8.841850765778652
 30
0.0
 11
6.849050262297883
 21
8.654350765778652
 31
0.0
  0
LINE
  5
19B4
330
19B0
100
AcDbEntity
  8
DIM
100
AcDbLine
 10
6.849050262297883
 20
8.654350765778652
 30
0.0
 11
6.911550262297883
 21
8.654350765778652
 31
0.0
  0
LINE
  5
19B5
330
19B0
100
AcDbEntity
  8
DIM
100
AcDbLine
 10
6.911550262297883
 20
8.654350765778652
 30
0.0
 11
6.911550262297883
 21
8.841850765778652
 31
0.0
  0
LINE
  5
19B6
330
19B0
100
AcDbEntity
  8
DIM
100
AcDbLine
 10
6.911550262297883
 20
8.841850765778652
 30
0.0
 11
6.849050262297883
 21
8.841850765778652
 31
0.0
  0
ENDBLK
  5
19B2
330
19B0
100
AcDbEntity
  8
0
100
AcDbBlockEnd
  0
BLOCK
  5
1A0C
330
1A0B
100
AcDbEntity
  8
0
100
AcDbBlockBegin
  2
rollformspacer
 70
     0
 10
0.0
 20
0.0
 30
0.0
  3
rollformspacer
  1

  0
LINE
  5
1A0E
330
1A0B
100
AcDbEntity
  8
0
  6
Continuous
 62
     7
370
    15
100
AcDbLine
 10
8.760617492797209
 20
9.644358976318983
 30
6.060954500000002
 11
8.781971089467385
 21
9.688140337603387
 31
6.060954500000002
  0
ARC
  5
1A0F
330
1A0B
100
AcDbEntity
  8
0
  6
Continuous
 62
     7
370
    15
100
AcDbCircle
 10
8.805339734671164
 20
9.676742687786873
 30
6.060954500000002
 40
0.0260000000000008
100
AcDbArc
 50
90.0
 51
154.0000000000036
  0
LINE
  5
1A10
330
1A0B
100
AcDbEntity
  8
0
  6
Continuous
 62
     7
370
    15
100
AcDbLine
 10
8.805339734671164
 20
9.702742687786873
 30
6.060954500000002
 11
8.816092086336798
 21
9.702742687786873
 31
6.060954500000002
  0
ARC
  5
1A11
330
1A0B
100
AcDbEntity
  8
0
  6
Continuous
 62
     7
370
    15
100
AcDbCircle
 10
8.816092086336798
 20
9.712742687786871
 30
6.060954500000002
 40
0.0100000000000007
100
AcDbArc
 50
270.0000000000008
 51
0.0
  0
LINE
  5
1A12
330
1A0B
100
AcDbEntity
  8
0
  6
Continuous
 62
     7
370
    15
100
AcDbLine
 10
8.826092086336799
 20
9.712742687786871
 30
6.060954500000002
 11
8.826092086336799
 21
9.916742687786872
 31
6.060954500000002
  0
ARC
  5
1A13
330
1A0B
100
AcDbEntity
  8
0
  6
Continuous
 62
     7
370
    15
100
AcDbCircle
 10
8.816092086336798
 20
9.916742687786872
 30
6.060954500000002
 40
0.0100000000000007
100
AcDbArc
 50
0.0
 51
90.0
  0
LINE
  5
1A14
330
1A0B
100
AcDbEntity
  8
0
  6
Continuous
 62
     7
370
    15
100
AcDbLine
 10
8.816092086336798
 20
9.926742687786873
 30
6.060954500000002
 11
7.602092086336792
 21
9.926742687786873
 31
6.060954500000002
  0
ARC
  5
1A15
330
1A0B
100
AcDbEntity
  8
0
  6
Continuous
 62
     7
370
    15
100
AcDbCircle
 10
7.602092086336792
 20
9.916742687786872
 30
6.060954500000002
 40
0.0100000000000007
100
AcDbArc
 50
90.0
 51
180.0
  0
LINE
  5
1A16
330
1A0B
100
AcDbEntity
  8
0
  6
Continuous
 62
     7
370
    15
100
AcDbLine
 10
7.592092086336792
 20
9.916742687786872
 30
6.060954500000002
 11
7.592092086336792
 21
9.712742687786871
 31
6.060954500000002
  0
ARC
  5
1A17
330
1A0B
100
AcDbEntity
  8
0
  6
Continuous
 62
     7
370
    15
100
AcDbCircle
 10
7.602092086336792
 20
9.712742687786871
 30
6.060954500000002
 40
0.0100000000000007
100
AcDbArc
 50
180.0
 51
270.0000000000008
  0
LINE
  5
1A18
330
1A0B
100
AcDbEntity
  8
0
  6
Continuous
 62
     7
370
    15
100
AcDbLine
 10
7.602092086336792
 20
9.702742687786873
 30
6.060954500000002
 11
7.612844438002428
 21
9.702742687786873
 31
6.060954500000002
  0
ARC
  5
1A19
330
1A0B
100
AcDbEntity
  8
0
  6
Continuous
 62
     7
370
    15
100
AcDbCircle
 10
7.612844438002426
 20
9.676742687786873
 30
6.060954500000002
 40
0.026000000000002
100
AcDbArc
 50
25.99999999999295
 51
89.9999999999941
  0
LINE
  5
1A1A
330
1A0B
100
AcDbEntity
  8
0
  6
Continuous
 62
     7
370
    15
100
AcDbLine
 10
7.636213083206207
 20
9.688140337603387
 30
6.060954500000002
 11
7.657566679876383
 21
9.644358976318983
 31
6.060954500000002
  0
ARC
  5
1A1B
330
1A0B
100
AcDbEntity
  8
0
  6
Continuous
 62
     7
370
    15
100
AcDbCircle
 10
7.666554620339375
 20
9.648742687786874
 30
6.060954500000002
 40
0.0100000000000007
100
AcDbArc
 50
206.0000000000009
 51
270.0000000000008
  0
LINE
  5
1A1C
330
1A0B
100
AcDbEntity
  8
0
  6
Continuous
 62
     7
370
    15
100
AcDbLine
 10
7.666554620339375
 20
9.638742687786873
 30
6.060954500000002
 11
8.751629552334216
 21
9.638742687786873
 31
6.060954500000002
  0
ARC
  5
1A1D
330
1A0B
100
AcDbEntity
  8
0
  6
Continuous
 62
     7
370
    15
100
AcDbCircle
 10
8.751629552334216
 20
9.648742687786874
 30
6.060954500000002
 40
0.0100000000000007
100
AcDbArc
 50
270.0000000000008
 51
333.9999999999962
  0
LINE
  5
1A1E
330
1A0B
100
AcDbEntity
  8
0
  6
Continuous
 62
     7
370
    15
100
AcDbLine
 10
8.805339734671164
 20
9.694742687786874
 30
6.060954500000002
 11
8.816092086336798
 21
9.694742687786874
 31
6.060954500000002
  0
ARC
  5
1A1F
330
1A0B
100
AcDbEntity
  8
0
  6
Continuous
 62
     7
370
    15
100
AcDbCircle
 10
8.805339734671168
 20
9.676742687786873
 30
6.060954500000002
 40
0.0180000000000019
100
AcDbArc
 50
90.00000000000843
 51
154.0000000000082
  0
LINE
  5
1A20
330
1A0B
100
AcDbEntity
  8
0
  6
Continuous
 62
     7
370
    15
100
AcDbLine
 10
8.767807845167602
 20
9.640852007144671
 30
6.060954500000002
 11
8.78916144183778
 21
9.684633368429075
 31
6.060954500000002
  0
ARC
  5
1A21
330
1A0B
100
AcDbEntity
  8
0
  6
Continuous
 62
     7
370
    15
100
AcDbCircle
 10
8.751629552334216
 20
9.648742687786874
 30
6.060954500000002
 40
0.0180000000000007
100
AcDbArc
 50
270.0000000000008
 51
334.0000000000027
  0
LINE
  5
1A22
330
1A0B
100
AcDbEntity
  8
0
  6
Continuous
 62
     7
370
    15
100
AcDbLine
 10
7.666554620339375
 20
9.630742687786874
 30
6.060954500000002
 11
8.751629552334216
 21
9.630742687786874
 31
6.060954500000002
  0
ARC
  5
1A23
330
1A0B
100
AcDbEntity
  8
0
  6
Continuous
 62
     7
370
    15
100
AcDbCircle
 10
7.666554620339375
 20
9.648742687786874
 30
6.060954500000002
 40
0.0180000000000007
100
AcDbArc
 50
205.9999999999988
 51
270.0000000000008
  0
LINE
  5
1A24
330
1A0B
100
AcDbEntity
  8
0
  6
Continuous
 62
     7
370
    15
100
AcDbLine
 10
7.62902273083581
 20
9.684633368429075
 30
6.060954500000002
 11
7.650376327505989
 21
9.640852007144671
 31
6.060954500000002
  0
ARC
  5
1A25
330
1A0B
100
AcDbEntity
  8
0
  6
Continuous
 62
     7
370
    15
100
AcDbCircle
 10
7.612844438002426
 20
9.676742687786873
 30
6.060954500000002
 40
0.0179999999999999
100
AcDbArc
 50
25.99999999999182
 51
89.99999999999429
  0
LINE
  5
1A26
330
1A0B
100
AcDbEntity
  8
0
  6
Continuous
 62
     7
370
    15
100
AcDbLine
 10
7.602092086336792
 20
9.694742687786872
 30
6.060954500000002
 11
7.612844438002426
 21
9.694742687786874
 31
6.060954500000002
  0
ARC
  5
1A27
330
1A0B
100
AcDbEntity
  8
0
  6
Continuous
 62
     7
370
    15
100
AcDbCircle
 10
7.602092086336792
 20
9.712742687786871
 30
6.060954500000002
 40
0.0180000000000007
100
AcDbArc
 50
180.0
 51
270.0000000000008
  0
LINE
  5
1A28
330
1A0B
100
AcDbEntity
  8
0
  6
Continuous
 62
     7
370
    15
100
AcDbLine
 10
7.584092086336791
 20
9.916742687786872
 30
6.060954500000002
 11
7.584092086336791
 21
9.712742687786871
 31
6.060954500000002
  0
ARC
  5
1A29
330
1A0B
100
AcDbEntity
  8
0
  6
Continuous
 62
     7
370
    15
100
AcDbCircle
 10
7.602092086336792
 20
9.916742687786872
 30
6.060954500000002
 40
0.0180000000000007
100
AcDbArc
 50
90.0
 51
180.0
  0
LINE
  5
1A2A
330
1A0B
100
AcDbEntity
  8
0
  6
Continuous
 62
     7
370
    15
100
AcDbLine
 10
8.816092086336798
 20
9.934742687786872
 30
6.060954500000002
 11
7.602092086336792
 21
9.934742687786872
 31
6.060954500000002
  0
ARC
  5
1A2B
330
1A0B
100
AcDbEntity
  8
0
  6
Continuous
 62
     7
370
    15
100
AcDbCircle
 10
8.816092086336798
 20
9.916742687786872
 30
6.060954500000002
 40
0.0179999999999998
100
AcDbArc
 50
0.0
 51
90.0
  0
LINE
  5
1A2C
330
1A0B
100
AcDbEntity
  8
0
  6
Continuous
 62
     7
370
    15
100
AcDbLine
 10
8.834092086336799
 20
9.712742687786871
 30
6.060954500000002
 11
8.834092086336799
 21
9.916742687786872
 31
6.060954500000002
  0
ARC
  5
1A2D
330
1A0B
100
AcDbEntity
  8
0
  6
Continuous
 62
     7
370
    15
100
AcDbCircle
 10
8.816092086336798
 20
9.712742687786871
 30
6.060954500000002
 40
0.0179999999999998
100
AcDbArc
 50
270.0000000000008
 51
0.0
  0
ENDBLK
  5
1A0D
330
1A0B
100
AcDbEntity
  8
0
100
AcDbBlockEnd
  0
BLOCK
  5
1D5F
330
1D5E
100
AcDbEntity
  8
0
100
AcDbBlockBegin
  2
tape
 70
     0
 10
0.0
 20
0.0
 30
0.0
  3
tape
  1

  0
LINE
  5
1D61
330
1D5E
100
AcDbEntity
  8
DIM
100
AcDbLine
 10
18.78038969947278
 20
9.440703987751135
 30
0.0
 11
18.78038969947278
 21
9.628203987751135
 31
0.0
  0
LINE
  5
1D62
330
1D5E
100
AcDbEntity
  8
DIM
100
AcDbLine
 10
18.78038969947278
 20
9.628203987751135
 30
0.0
 11
18.84288969947278
 21
9.628203987751135
 31
0.0
  0
LINE
  5
1D63
330
1D5E
100
AcDbEntity
  8
DIM
100
AcDbLine
 10
18.84288969947278
 20
9.628203987751135
 30
0.0
 11
18.84288969947278
 21
9.440703987751135
 31
0.0
  0
LINE
  5
1D64
330
1D5E
100
AcDbEntity
  8
DIM
100
AcDbLine
 10
18.84288969947278
 20
9.440703987751135
 30
0.0
 11
18.78038969947278
 21
9.440703987751135
 31
0.0
  0
ENDBLK
  5
1D60
330
1D5E
100
AcDbEntity
  8
0
100
AcDbBlockEnd
  0
BLOCK
  5
1E72
330
1E2A
100
AcDbEntity
  8
0
100
AcDbBlockBegin
  2
spacer
 70
     0
 10
0.0
 20
0.0
 30
0.0
  3
spacer
  1

  0
LINE
  5
1E2B
330
1E2A
100
AcDbEntity
  8
0
  6
Continuous
 62
     7
370
    15
100
AcDbLine
 10
6.222059772672793
 20
9.509036262044897
 30
0.0
 11
6.094496312432794
 21
9.509036262044897
 31
0.0
  0
LINE
  5
1E2C
330
1E2A
100
AcDbEntity
  8
0
  6
Continuous
 62
     7
370
    15
100
AcDbLine
 10
6.218028391312794
 20
9.539036262044898
 30
0.0
 11
6.091028112312795
 21
9.539036262044898
 31
0.0
  0
ARC
  5
1E2D
330
1E2A
100
AcDbEntity
  8
0
  6
Continuous
 62
     7
370
    15
100
AcDbCircle
 10
6.170715978912794
 20
9.099036262044897
 30
0.0
 40
0.0199999999999999
100
AcDbArc
 50
0.0
 51
90.0
  0
ARC
  5
1E2E
330
1E2A
100
AcDbEntity
  8
0
  6
Continuous
 62
     7
370
    15
100
AcDbCircle
 10
6.170715978912794
 20
9.169036262044897
 30
0.0
 40
0.0199999999999999
100
AcDbArc
 50
270.0
 51
0.0
  0
ARC
  5
1E2F
330
1E2A
100
AcDbEntity
  8
0
  6
Continuous
 62
     7
370
    15
100
AcDbCircle
 10
6.345715978912794
 20
9.209164570964897
 30
0.0
 40
0.1550000000000001
100
AcDbArc
 50
90.0
 51
180.0
  0
ARC
  5
1E30
330
1E2A
100
AcDbEntity
  8
0
  6
Continuous
 62
     7
370
    15
100
AcDbCircle
 10
6.170715978912794
 20
8.634164570964898
 30
0.0
 40
0.0199999999999999
100
AcDbArc
 50
270.0
 51
0.0
  0
LINE
  5
1E31
330
1E2A
100
AcDbEntity
  8
0
  6
Continuous
 62
     7
370
    15
100
AcDbLine
 10
5.771965978912794
 20
8.584164570964897
 30
0.0
 11
6.200715978912794
 21
8.584164570964897
 31
0.0
  0
LINE
  5
1E32
330
1E2A
100
AcDbEntity
  8
0
  6
Continuous
 62
     7
370
    15
100
AcDbLine
 10
5.751965978912794
 20
9.444265536724898
 30
0.0
 11
5.751965978912794
 21
8.604164570964899
 31
0.0
  0
LINE
  5
1E33
330
1E2A
100
AcDbEntity
  8
0
  6
Continuous
 62
     7
370
    15
100
AcDbLine
 10
5.781965978912793
 20
9.420483140484899
 30
0.0
 11
5.781965978912793
 21
8.634164570964898
 31
0.0
  0
LINE
  5
1E34
330
1E2A
100
AcDbEntity
  8
0
  6
Continuous
 62
     7
370
    15
100
AcDbLine
 10
5.801965978912794
 20
8.614164570964899
 30
0.0
 11
6.170715978912794
 21
8.614164570964899
 31
0.0
  0
ARC
  5
1E35
330
1E2A
100
AcDbEntity
  8
0
  6
Continuous
 62
     7
370
    15
100
AcDbCircle
 10
5.771965978912795
 20
8.604164570964899
 30
0.0
 40
0.0199999999999999
100
AcDbArc
 50
180.0
 51
270.0
  0
ARC
  5
1E36
330
1E2A
100
AcDbEntity
  8
0
  6
Continuous
 62
     7
370
    15
100
AcDbCircle
 10
5.801965978912794
 20
8.634164570964898
 30
0.0
 40
0.0200000000000003
100
AcDbArc
 50
180.0
 51
270.0
  0
LINE
  5
1E37
330
1E2A
100
AcDbEntity
  8
0
  6
Continuous
 62
     7
370
    15
100
AcDbLine
 10
6.170715978912794
 20
9.119036262044899
 30
0.0
 11
6.108715978912794
 21
9.119036262044899
 31
0.0
  0
LINE
  5
1E38
330
1E2A
100
AcDbEntity
  8
0
  6
Continuous
 62
     7
370
    15
100
AcDbLine
 10
6.138715978912794
 20
9.149036262044898
 30
0.0
 11
6.170715978912794
 21
9.149036262044898
 31
0.0
  0
ARC
  5
1E39
330
1E2A
100
AcDbEntity
  8
0
  6
Continuous
 62
     7
370
    15
100
AcDbCircle
 10
6.138715978912794
 20
9.169036262044897
 30
0.0
 40
0.0200000000000001
100
AcDbArc
 50
180.0
 51
270.0
  0
LINE
  5
1E3A
330
1E2A
100
AcDbEntity
  8
0
  6
Continuous
 62
     7
370
    15
100
AcDbLine
 10
6.088715978912794
 20
9.139036262044898
 30
0.0
 11
6.088715978912794
 21
9.234036262044899
 31
0.0
  0
ARC
  5
1E3B
330
1E2A
100
AcDbEntity
  8
0
  6
Continuous
 62
     7
370
    15
100
AcDbCircle
 10
6.108715978912794
 20
9.139036262044898
 30
0.0
 40
0.0199999999999999
100
AcDbArc
 50
180.0
 51
270.0
  0
LINE
  5
1E3C
330
1E2A
100
AcDbEntity
  8
0
  6
Continuous
 62
     7
370
    15
100
AcDbLine
 10
6.118715978912794
 20
9.234036262044899
 30
0.0
 11
6.118715978912794
 21
9.169036262044897
 31
0.0
  0
ARC
  5
1E3D
330
1E2A
100
AcDbEntity
  8
0
  6
Continuous
 62
     7
370
    15
100
AcDbCircle
 10
6.103715978912794
 20
9.234036262044899
 30
0.0
 40
0.0150000000000001
100
AcDbArc
 50
0.0
 51
90.0
  0
ARC
  5
1E3E
330
1E2A
100
AcDbEntity
  8
0
  6
Continuous
 62
     7
370
    15
100
AcDbCircle
 10
6.103715978912794
 20
9.234036262044899
 30
0.0
 40
0.0149999999999999
100
AcDbArc
 50
90.0
 51
180.0
  0
LINE
  5
1E3F
330
1E2A
100
AcDbEntity
  8
0
  6
Continuous
 62
     7
370
    15
100
AcDbLine
 10
6.086464833272794
 20
9.538508716524898
 30
0.0
 11
5.767402699872794
 21
9.463737991204899
 31
0.0
  0
LINE
  5
1E40
330
1E2A
100
AcDbEntity
  8
0
  6
Continuous
 62
     7
370
    15
100
AcDbLine
 10
6.089933033392794
 20
9.508508716524898
 30
0.0
 11
5.797402699872794
 21
9.439955594964899
 31
0.0
  0
ARC
  5
1E41
330
1E2A
100
AcDbEntity
  8
0
  6
Continuous
 62
     7
370
    15
100
AcDbCircle
 10
5.771965978912795
 20
9.444265536724898
 30
0.0
 40
0.0200000000000005
100
AcDbArc
 50
103.189
 51
180.0
  0
POINT
  5
1E42
330
1E2A
100
AcDbEntity
  8
0
  6
Continuous
 62
     7
370
     0
100
AcDbPoint
 10
5.751965978912794
 20
9.460120467524898
 30
0.0
  0
ARC
  5
1E43
330
1E2A
100
AcDbEntity
  8
0
  6
Continuous
 62
     7
370
    15
100
AcDbCircle
 10
5.801965978912795
 20
9.420483140484899
 30
0.0
 40
0.0199999999999999
100
AcDbArc
 50
103.189
 51
180.0
  0
ARC
  5
1E44
330
1E2A
100
AcDbEntity
  8
0
  6
Continuous
 62
     7
370
    15
100
AcDbCircle
 10
6.094496312432794
 20
9.489036262044898
 30
0.0
 40
0.0199999999999999
100
AcDbArc
 50
90.0
 51
103.189
  0
POINT
  5
1E45
330
1E2A
100
AcDbEntity
  8
0
  6
Continuous
 62
     7
370
     0
100
AcDbPoint
 10
6.088715978912794
 20
9.539036262044898
 30
0.0
  0
ARC
  5
1E46
330
1E2A
100
AcDbEntity
  8
0
  6
Continuous
 62
     7
370
    15
100
AcDbCircle
 10
6.091028112312795
 20
9.519036262044899
 30
0.0
 40
0.0199999999999999
100
AcDbArc
 50
90.0
 51
103.189
  0
ARC
  5
1E47
330
1E2A
100
AcDbEntity
  8
0
  6
Continuous
 62
     7
370
    15
100
AcDbCircle
 10
6.345715978912794
 20
9.209164570964897
 30
0.0
 40
0.125
100
AcDbArc
 50
90.0
 51
180.0
  0
LINE
  5
1E48
330
1E2A
100
AcDbEntity
  8
0
  6
Continuous
 62
     7
370
    15
100
AcDbLine
 10
6.220715978912794
 20
8.604164570964899
 30
0.0
 11
6.220715978912794
 21
9.209164570964897
 31
0.0
  0
LINE
  5
1E49
330
1E2A
100
AcDbEntity
  8
0
  6
Continuous
 62
     7
370
    15
100
AcDbLine
 10
6.190715978912794
 20
8.634164570964898
 30
0.0
 11
6.190715978912794
 21
9.099036262044899
 31
0.0
  0
ARC
  5
1E4A
330
1E2A
100
AcDbEntity
  8
0
  6
Continuous
 62
     7
370
    15
100
AcDbCircle
 10
6.200715978912795
 20
8.604164570964899
 30
0.0
 40
0.0200000000000001
100
AcDbArc
 50
270.0
 51
0.0
  0
LINE
  5
1E4B
330
1E2A
100
AcDbEntity
  8
0
  6
Continuous
 62
     7
370
    15
100
AcDbLine
 10
6.190715978912794
 20
9.169036262044897
 30
0.0
 11
6.190715978912794
 21
9.209164570964897
 31
0.0
  0
ARC
  5
1E4C
330
1E2A
100
AcDbEntity
  8
0
  6
Continuous
 62
     7
370
    15
100
AcDbCircle
 10
7.669465978912795
 20
9.887527469284897
 30
0.0
 40
0.0200000000000002
100
AcDbArc
 50
0.0
 51
106.1991793059
  0
ARC
  5
1E4D
330
1E2A
100
AcDbEntity
  8
0
  6
Continuous
 62
     7
370
    15
100
AcDbCircle
 10
7.669465978912795
 20
9.354164570964897
 30
0.0
 40
0.0200000000000007
100
AcDbArc
 50
270.0
 51
0.0
  0
LINE
  5
1E4E
330
1E2A
100
AcDbEntity
  8
0
  6
Continuous
 62
     7
370
    15
100
AcDbLine
 10
6.345715978912794
 20
9.364164570964899
 30
0.0
 11
6.986712921112794
 21
9.364164570964899
 31
0.0
  0
LINE
  5
1E4F
330
1E2A
100
AcDbEntity
  8
0
  6
Continuous
 62
     7
370
    15
100
AcDbLine
 10
7.004120675792794
 20
9.753455070324898
 30
0.0
 11
6.223308224192794
 21
9.539745762684898
 31
0.0
  0
LINE
  5
1E50
330
1E2A
100
AcDbEntity
  8
0
  6
Continuous
 62
     7
370
    15
100
AcDbLine
 10
7.008152057152794
 20
9.723455070324899
 30
0.0
 11
6.227339605552795
 21
9.509745762684898
 31
0.0
  0
LINE
  5
1E51
330
1E2A
100
AcDbEntity
  8
0
  6
Continuous
 62
     7
370
    15
100
AcDbLine
 10
6.345715978912794
 20
9.334164570964897
 30
0.0
 11
7.669465978912795
 21
9.334164570964897
 31
0.0
  0
POINT
  5
1E52
330
1E2A
100
AcDbEntity
  8
0
  6
Continuous
 62
     7
370
     0
100
AcDbPoint
 10
6.220715978912794
 20
9.539036262044898
 30
0.0
  0
ARC
  5
1E53
330
1E2A
100
AcDbEntity
  8
0
  6
Continuous
 62
     7
370
    15
100
AcDbCircle
 10
6.222059772672794
 20
9.529036262044899
 30
0.0
 40
0.0200000000000003
100
AcDbArc
 50
270.0
 51
285.3070447447
  0
ARC
  5
1E54
330
1E2A
100
AcDbEntity
  8
0
  6
Continuous
 62
     7
370
    15
100
AcDbCircle
 10
6.218028391312794
 20
9.559036262044898
 30
0.0
 40
0.02
100
AcDbArc
 50
270.0
 51
285.3070447447
  0
LINE
  5
1E55
330
1E2A
100
AcDbEntity
  8
0
  6
Continuous
 62
     7
370
    15
100
AcDbLine
 10
7.659465978912794
 20
9.384164570964898
 30
0.0
 11
7.659465978912794
 21
9.849684352404898
 31
0.0
  0
LINE
  5
1E56
330
1E2A
100
AcDbEntity
  8
0
  6
Continuous
 62
     7
370
    15
100
AcDbLine
 10
7.158712921112794
 20
9.364164570964899
 30
0.0
 11
7.639465978912794
 21
9.364164570964899
 31
0.0
  0
ARC
  5
1E57
330
1E2A
100
AcDbEntity
  8
0
  6
Continuous
 62
     7
370
    15
100
AcDbCircle
 10
7.123712921112794
 20
9.449164570964898
 30
0.0
 40
0.0149999999999999
100
AcDbArc
 50
0.0
 51
90.0
  0
ARC
  5
1E58
330
1E2A
100
AcDbEntity
  8
0
  6
Continuous
 62
     7
370
    15
100
AcDbCircle
 10
7.158712921112794
 20
9.384164570964898
 30
0.0
 40
0.0200000000000003
100
AcDbArc
 50
180.0
 51
270.0
  0
LINE
  5
1E59
330
1E2A
100
AcDbEntity
  8
0
  6
Continuous
 62
     7
370
    15
100
AcDbLine
 10
7.138712921112794
 20
9.449164570964899
 30
0.0
 11
7.138712921112794
 21
9.384164570964898
 31
0.0
  0
ARC
  5
1E5A
330
1E2A
100
AcDbEntity
  8
0
  6
Continuous
 62
     7
370
    15
100
AcDbCircle
 10
7.021712921112794
 20
9.449164570964898
 30
0.0
 40
0.0149999999999999
100
AcDbArc
 50
90.0
 51
180.0
  0
ARC
  5
1E5B
330
1E2A
100
AcDbEntity
  8
0
  6
Continuous
 62
     7
370
    15
100
AcDbCircle
 10
7.021712921112794
 20
9.449164570964898
 30
0.0
 40
0.0149999999999999
100
AcDbArc
 50
0.0
 51
90.0
  0
ARC
  5
1E5C
330
1E2A
100
AcDbEntity
  8
0
  6
Continuous
 62
     7
370
    15
100
AcDbCircle
 10
6.986712921112794
 20
9.384164570964898
 30
0.0
 40
0.0200000000000003
100
AcDbArc
 50
270.0
 51
0.0
  0
ARC
  5
1E5D
330
1E2A
100
AcDbEntity
  8
0
  6
Continuous
 62
     7
370
    15
100
AcDbCircle
 10
7.056712921112794
 20
9.384164570964898
 30
0.0
 40
0.0200000000000007
100
AcDbArc
 50
180.0
 51
270.0
  0
LINE
  5
1E5E
330
1E2A
100
AcDbEntity
  8
0
  6
Continuous
 62
     7
370
    15
100
AcDbLine
 10
7.056712921112794
 20
9.364164570964899
 30
0.0
 11
7.088712921112795
 21
9.364164570964899
 31
0.0
  0
LINE
  5
1E5F
330
1E2A
100
AcDbEntity
  8
0
  6
Continuous
 62
     7
370
    15
100
AcDbLine
 10
7.006712921112794
 20
9.384164570964898
 30
0.0
 11
7.006712921112794
 21
9.449164570964899
 31
0.0
  0
LINE
  5
1E60
330
1E2A
100
AcDbEntity
  8
0
  6
Continuous
 62
     7
370
    15
100
AcDbLine
 10
7.036712921112794
 20
9.449164570964899
 30
0.0
 11
7.036712921112794
 21
9.384164570964898
 31
0.0
  0
LINE
  5
1E61
330
1E2A
100
AcDbEntity
  8
0
  6
Continuous
 62
     7
370
    15
100
AcDbLine
 10
7.108712921112794
 20
9.384164570964898
 30
0.0
 11
7.108712921112794
 21
9.449164570964899
 31
0.0
  0
ARC
  5
1E62
330
1E2A
100
AcDbEntity
  8
0
  6
Continuous
 62
     7
370
    15
100
AcDbCircle
 10
7.088712921112795
 20
9.384164570964898
 30
0.0
 40
0.0199999999999999
100
AcDbArc
 50
270.0
 51
0.0
  0
ARC
  5
1E63
330
1E2A
100
AcDbEntity
  8
0
  6
Continuous
 62
     7
370
    15
100
AcDbCircle
 10
7.123712921112794
 20
9.449164570964898
 30
0.0
 40
0.0150000000000002
100
AcDbArc
 50
90.0
 51
180.0
  0
ARC
  5
1E64
330
1E2A
100
AcDbEntity
  8
0
  6
Continuous
 62
     7
370
    15
100
AcDbCircle
 10
7.639465978912794
 20
9.384164570964898
 30
0.0
 40
0.0200000000000003
100
AcDbArc
 50
270.0
 51
0.0
  0
LINE
  5
1E65
330
1E2A
100
AcDbEntity
  8
0
  6
Continuous
 62
     7
370
    15
100
AcDbLine
 10
7.663886431872795
 20
9.906733422924897
 30
0.0
 11
7.141446192752795
 21
9.754958617324898
 31
0.0
  0
LINE
  5
1E66
330
1E2A
100
AcDbEntity
  8
0
  6
Continuous
 62
     7
370
    15
100
AcDbLine
 10
7.633886431872794
 20
9.868890306044898
 30
0.0
 11
7.138443821472794
 21
9.724958617324897
 31
0.0
  0
ARC
  5
1E67
330
1E2A
100
AcDbEntity
  8
0
  6
Continuous
 62
     7
370
    15
100
AcDbCircle
 10
7.132864274432794
 20
9.744164570964898
 30
0.0
 40
0.0199999999999999
100
AcDbArc
 50
270.0
 51
286.1991793059
  0
POINT
  5
1E68
330
1E2A
100
AcDbEntity
  8
0
  6
Continuous
 62
     7
370
     0
100
AcDbPoint
 10
7.138712921112794
 20
9.754164570964899
 30
0.0
  0
ARC
  5
1E69
330
1E2A
100
AcDbEntity
  8
0
  6
Continuous
 62
     7
370
    15
100
AcDbCircle
 10
7.135866645712795
 20
9.774164570964899
 30
0.0
 40
0.0200000000000001
100
AcDbArc
 50
270.0
 51
286.1991793059
  0
ARC
  5
1E6A
330
1E2A
100
AcDbEntity
  8
0
  6
Continuous
 62
     7
370
    15
100
AcDbCircle
 10
7.009400508672793
 20
9.734164570964898
 30
0.0
 40
0.0200000000000003
100
AcDbArc
 50
90.0
 51
105.3070447447
  0
ARC
  5
1E6B
330
1E2A
100
AcDbEntity
  8
0
  6
Continuous
 62
     7
370
    15
100
AcDbCircle
 10
7.013431890032794
 20
9.704164570964898
 30
0.0
 40
0.0199999999999999
100
AcDbArc
 50
90.0
 51
105.3070447447
  0
POINT
  5
1E6C
330
1E2A
100
AcDbEntity
  8
0
  6
Continuous
 62
     7
370
     0
100
AcDbPoint
 10
7.006712921112794
 20
9.754164570964899
 30
0.0
  0
LINE
  5
1E6D
330
1E2A
100
AcDbEntity
  8
0
  6
Continuous
 62
     7
370
    15
100
AcDbLine
 10
7.135866645712795
 20
9.754164570964899
 30
0.0
 11
7.009400508672793
 21
9.754164570964899
 31
0.0
  0
LINE
  5
1E6E
330
1E2A
100
AcDbEntity
  8
0
  6
Continuous
 62
     7
370
    15
100
AcDbLine
 10
7.132864274432794
 20
9.724164570964898
 30
0.0
 11
7.013431890032794
 21
9.724164570964898
 31
0.0
  0
ARC
  5
1E6F
330
1E2A
100
AcDbEntity
  8
0
  6
Continuous
 62
     7
370
    15
100
AcDbCircle
 10
7.639465978912794
 20
9.849684352404898
 30
0.0
 40
0.0199999999999998
100
AcDbArc
 50
0.0
 51
106.1991793059
  0
LINE
  5
1E70
330
1E2A
100
AcDbEntity
  8
0
  6
Continuous
 62
     7
370
    15
100
AcDbLine
 10
7.689465978912794
 20
9.354164570964899
 30
0.0
 11
7.689465978912794
 21
9.887527469284897
 31
0.0
  0
POINT
  5
1E71
330
1E2A
100
AcDbEntity
  8
0
  6
Continuous
 62
     7
370
     0
100
AcDbPoint
 10
7.689465978912794
 20
9.914164570964898
 30
0.0
  0
ENDBLK
  5
1E73
330
1E2A
100
AcDbEntity
  8
0
100
AcDbBlockEnd
  0
BLOCK
  5
20D1
330
206C
100
AcDbEntity
  8
0
100
AcDbBlockBegin
  2
A$C53C2538B
 70
     0
 10
0.0
 20
0.0
 30
0.0
  3
A$C53C2538B
  1

  0
LINE
  5
206D
330
206C
100
AcDbEntity
  8
0
  6
Continuous
 62
     7
370
    15
100
AcDbLine
 10
-0.23294278965
 20
0.4030000162000001
 30
0.0
 11
0.33705722855
 21
0.4030000162000001
 31
0.0
  0
LINE
  5
206E
330
206C
100
AcDbEntity
  8
0
  6
Continuous
 62
     7
370
    15
100
AcDbLine
 10
0.33705722855
 20
0.0350000190000004
 30
0.0
 11
0.0293631868500004
 21
0.0350000190000004
 31
0.0
  0
LINE
  5
206F
330
206C
100
AcDbEntity
  8
0
  6
Continuous
 62
     7
370
    15
100
AcDbLine
 10
0.3720572292500002
 20
0.0
 30
0.0
 11
-0.3720572292500002
 21
0.0
 31
0.0
  0
LINE
  5
2070
330
206C
100
AcDbEntity
  8
0
  6
Continuous
 62
     7
370
    15
100
AcDbLine
 10
-0.23294278965
 20
0.4380000168000003
 30
0.0
 11
0.3720572292500002
 21
0.4380000168000003
 31
0.0
  0
LINE
  5
2071
330
206C
100
AcDbEntity
  8
0
  6
Continuous
 62
     7
370
    15
100
AcDbLine
 10
-0.35794277895
 20
2.9224999557
 30
0.0
 11
-0.35794277895
 21
0.5630000153000001
 31
0.0
  0
LINE
  5
2072
330
206C
100
AcDbEntity
  8
0
  6
Continuous
 62
     7
370
    15
100
AcDbLine
 10
-0.8579428096499999
 20
1.498410060199999
 30
0.0
 11
-0.8579428096499999
 21
2.338538554999999
 31
0.0
  0
LINE
  5
2073
330
206C
100
AcDbEntity
  8
0
  6
Continuous
 62
     7
370
    15
100
AcDbLine
 10
-0.3929427613499996
 20
2.3804999903
 30
0.0
 11
-0.3929427613499996
 21
1.4050000193
 31
0.0
  0
LINE
  5
2074
330
206C
100
AcDbEntity
  8
0
  6
Continuous
 62
     7
370
    15
100
AcDbLine
 10
-0.8229427539499996
 20
1.5037942047
 30
0.0
 11
-0.8229427539499996
 21
2.318331201799999
 31
0.0
  0
LINE
  5
2075
330
206C
100
AcDbEntity
  8
0
  6
Continuous
 62
     7
370
    15
100
AcDbLine
 10
0.0093631812500004
 20
0.0550000246000004
 30
0.0
 11
0.0093631812500004
 21
0.2350000203000002
 31
0.0
  0
ARC
  5
2076
330
206C
100
AcDbEntity
  8
0
  6
Continuous
 62
     7
370
    15
100
AcDbCircle
 10
-0.0456368242499998
 20
0.2000000168000002
 30
0.0
 40
0.02
100
AcDbArc
 50
0.0
 51
90.0
  0
LINE
  5
2077
330
206C
100
AcDbEntity
  8
0
  6
Continuous
 62
     7
370
    15
100
AcDbLine
 10
-0.3856367923499997
 20
0.1160767091000001
 30
0.0
 11
-0.3856367923499997
 21
0.2700000209000004
 31
0.0
  0
LINE
  5
2078
330
206C
100
AcDbEntity
  8
0
  6
Continuous
 62
     7
370
    15
100
AcDbLine
 10
-0.4206368480500001
 20
0.1106924913
 30
0.0
 11
-0.4206368480500001
 21
0.2350000203000002
 31
0.0
  0
ARC
  5
2079
330
206C
100
AcDbEntity
  8
0
  6
Continuous
 62
     7
370
    15
100
AcDbCircle
 10
-0.1056368242499994
 20
0.1280000168000002
 30
0.0
 40
0.0199999999999996
100
AcDbArc
 50
90.0
 51
172.8192442184999
  0
ARC
  5
207A
330
206C
100
AcDbEntity
  8
0
  6
Continuous
 62
     7
370
    15
100
AcDbCircle
 10
-0.1056368242499994
 20
0.1330000168000001
 30
0.0
 40
0.02
100
AcDbArc
 50
187.1807557815
 51
270.0
  0
LINE
  5
207B
330
206C
100
AcDbEntity
  8
0
  6
Continuous
 62
     7
370
    15
100
AcDbLine
 10
-0.0456368067500002
 20
0.0350000190000004
 30
0.0
 11
-0.3463899791499996
 21
0.0350000190000004
 31
0.0
  0
ARC
  5
207C
330
206C
100
AcDbEntity
  8
0
  6
Continuous
 62
     7
370
    15
100
AcDbCircle
 10
-0.3463899693499997
 20
0.0550000168000002
 30
0.0
 40
0.0200000000000005
100
AcDbArc
 50
197.4909973121999
 51
270.0
  0
LINE
  5
207D
330
206C
100
AcDbEntity
  8
0
  6
Continuous
 62
     7
370
    15
100
AcDbLine
 10
-0.3911325489499999
 20
0.0139889051000002
 30
0.0
 11
-0.4197121254499994
 21
0.1046813907000001
 31
0.0
  0
POINT
  5
207E
330
206C
100
AcDbEntity
  8
0
  6
Continuous
 62
    18
370
     0
100
AcDbPoint
 10
-0.3867242823499994
 20
0.0000000168000001
 30
0.0
  0
ARC
  5
207F
330
206C
100
AcDbEntity
  8
0
  6
Continuous
 62
     7
370
    15
100
AcDbCircle
 10
-0.37205725945
 20
0.0200000168000001
 30
0.0
 40
0.0200000000000001
100
AcDbArc
 50
197.4909973121999
 51
270.0
  0
LINE
  5
2080
330
206C
100
AcDbEntity
  8
0
  6
Continuous
 62
     7
370
    15
100
AcDbLine
 10
-0.3654652254499995
 20
0.0489888874000002
 30
0.0
 11
-0.3847121430499998
 21
0.1100655718000003
 31
0.0
  0
ARC
  5
2081
330
206C
100
AcDbEntity
  8
0
  6
Continuous
 62
     7
370
    15
100
AcDbCircle
 10
-0.3656368242500001
 20
0.1160767028
 30
0.0
 40
0.020000000000001
100
AcDbArc
 50
180.0
 51
197.4909973121999
  0
ARC
  5
2082
330
206C
100
AcDbEntity
  8
0
  6
Continuous
 62
     7
370
    15
100
AcDbCircle
 10
-0.4006368242499994
 20
0.1106925024000001
 30
0.0
 40
0.020000000000001
100
AcDbArc
 50
180.0
 51
197.4909973121999
  0
ARC
  5
2083
330
206C
100
AcDbEntity
  8
0
  6
Continuous
 62
     7
370
    15
100
AcDbCircle
 10
-0.0456368242499998
 20
0.0550000168000002
 30
0.0
 40
0.02
100
AcDbArc
 50
270.0
 51
0.0
  0
ARC
  5
2084
330
206C
100
AcDbEntity
  8
0
  6
Continuous
 62
     7
370
    15
100
AcDbCircle
 10
0.0293631757500004
 20
0.0550000168000002
 30
0.0
 40
0.0200000000000005
100
AcDbArc
 50
180.0
 51
270.0
  0
LINE
  5
2085
330
206C
100
AcDbEntity
  8
0
  6
Continuous
 62
     7
370
    15
100
AcDbLine
 10
-0.0256368378499996
 20
0.2000000196
 30
0.0
 11
-0.0256368378499996
 21
0.1680000142000004
 31
0.0
  0
ARC
  5
2086
330
206C
100
AcDbEntity
  8
0
  6
Continuous
 62
     7
370
    15
100
AcDbCircle
 10
-0.0456368242499998
 20
0.1680000168000002
 30
0.0
 40
0.0200000000000005
100
AcDbArc
 50
270.0
 51
0.0
  0
LINE
  5
2087
330
206C
100
AcDbEntity
  8
0
  6
Continuous
 62
     7
370
    15
100
AcDbLine
 10
-0.0456368067500002
 20
0.1480000086000004
 30
0.0
 11
-0.1056368236499994
 21
0.1480000086000004
 31
0.0
  0
LINE
  5
2088
330
206C
100
AcDbEntity
  8
0
  6
Continuous
 62
     7
370
    15
100
AcDbLine
 10
-0.1056368236499994
 20
0.1130000079000002
 30
0.0
 11
-0.0456368067500002
 21
0.1130000079000002
 31
0.0
  0
ARC
  5
2089
330
206C
100
AcDbEntity
  8
0
  6
Continuous
 62
     7
370
    15
100
AcDbCircle
 10
-0.0456368242499998
 20
0.0930000168000001
 30
0.0
 40
0.02
100
AcDbArc
 50
0.0
 51
90.0
  0
LINE
  5
208A
330
206C
100
AcDbEntity
  8
0
  6
Continuous
 62
     7
370
    15
100
AcDbLine
 10
-0.0256368378499996
 20
0.0930000023000002
 30
0.0
 11
-0.0256368378499996
 21
0.0550000246000004
 31
0.0
  0
LINE
  5
208B
330
206C
100
AcDbEntity
  8
0
  6
Continuous
 62
     7
370
    15
100
AcDbLine
 10
-0.4458223771499999
 20
0.3039888950000003
 30
0.0
 11
-0.7672509839499995
 21
1.3239888885
 31
0.0
  0
LINE
  5
208C
330
206C
100
AcDbEntity
  8
0
  6
Continuous
 62
     7
370
    15
100
AcDbLine
 10
-0.7481756643499998
 20
1.3499999947
 30
0.0
 11
-0.4129428036500001
 21
1.3499999947
 31
0.0
  0
LINE
  5
208D
330
206C
100
AcDbEntity
  8
0
  6
Continuous
 62
     7
370
    15
100
AcDbLine
 10
-0.4714897006499994
 20
0.2689888943000001
 30
0.0
 11
-0.8570180869500001
 21
1.492398923
 31
0.0
  0
LINE
  5
208E
330
206C
100
AcDbEntity
  8
0
  6
Continuous
 62
     7
370
    15
100
AcDbLine
 10
-0.4129428036500001
 20
1.385000050399999
 30
0.0
 11
-0.7718101379500002
 21
1.385000050399999
 31
0.0
  0
ARC
  5
208F
330
206C
100
AcDbEntity
  8
0
  6
Continuous
 62
     7
370
    15
100
AcDbCircle
 10
-0.7481756836499996
 20
1.3300000168
 30
0.0
 40
0.0200000000000003
100
AcDbArc
 50
90.0
 51
197.4909973121999
  0
POINT
  5
2090
330
206C
100
AcDbEntity
  8
0
  6
Continuous
 62
    18
370
     0
100
AcDbPoint
 10
-0.8579427697500001
 20
1.4953333502
 30
0.0
  0
ARC
  5
2091
330
206C
100
AcDbEntity
  8
0
  6
Continuous
 62
     7
370
    15
100
AcDbCircle
 10
-0.8379427697499997
 20
1.4984100361
 30
0.0
 40
0.0199999999999996
100
AcDbArc
 50
180.0
 51
197.4909973121999
  0
ARC
  5
2092
330
206C
100
AcDbEntity
  8
0
  6
Continuous
 62
     7
370
    15
100
AcDbCircle
 10
-0.7718101374500002
 20
1.4050000168
 30
0.0
 40
0.02
100
AcDbArc
 50
197.4909973121999
 51
270.0
  0
LINE
  5
2093
330
206C
100
AcDbEntity
  8
0
  6
Continuous
 62
     7
370
    15
100
AcDbLine
 10
-0.79088545755
 20
1.398988882099999
 30
0.0
 11
-0.8220180312499998
 21
1.4977831408
 31
0.0
  0
ARC
  5
2094
330
206C
100
AcDbEntity
  8
0
  6
Continuous
 62
     7
370
    15
100
AcDbCircle
 10
-0.8029427697499995
 20
1.5037942366
 30
0.0
 40
0.0199999999999996
100
AcDbArc
 50
180.0
 51
197.4909973121999
  0
LINE
  5
2095
330
206C
100
AcDbEntity
  8
0
  6
Continuous
 62
     7
370
    15
100
AcDbLine
 10
-0.3929427613499996
 20
1.330000025699999
 30
0.0
 11
-0.3929427613499996
 21
0.5630000153000001
 31
0.0
  0
ARC
  5
2096
330
206C
100
AcDbEntity
  8
0
  6
Continuous
 62
     7
370
    15
100
AcDbCircle
 10
-0.1056368242499994
 20
0.2350000168000004
 30
0.0
 40
0.02
100
AcDbArc
 50
90.0
 51
172.8192442184999
  0
ARC
  5
2097
330
206C
100
AcDbEntity
  8
0
  6
Continuous
 62
     7
370
    15
100
AcDbCircle
 10
-0.1056368242499994
 20
0.2400000168000003
 30
0.0
 40
0.0199999999999996
100
AcDbArc
 50
187.1807557815
 51
270.0
  0
ARC
  5
2098
330
206C
100
AcDbEntity
  8
0
  6
Continuous
 62
     7
370
    15
100
AcDbCircle
 10
-0.2329427697500002
 20
0.5630000168000003
 30
0.0
 40
0.1599999999999993
100
AcDbArc
 50
180.0
 51
270.0
  0
ARC
  5
2099
330
206C
100
AcDbEntity
  8
0
  6
Continuous
 62
     7
370
    15
100
AcDbCircle
 10
-0.2329427697500002
 20
0.5630000168000003
 30
0.0
 40
0.125
100
AcDbArc
 50
180.0
 51
270.0
  0
ARC
  5
209A
330
206C
100
AcDbEntity
  8
0
  6
Continuous
 62
     7
370
    15
100
AcDbCircle
 10
-0.4267471122500002
 20
0.3100000168000001
 30
0.0
 40
0.0200000000000009
100
AcDbArc
 50
197.4909973121999
 51
270.0
  0
ARC
  5
209B
330
206C
100
AcDbEntity
  8
0
  6
Continuous
 62
     7
370
    15
100
AcDbCircle
 10
-0.4406368242499994
 20
0.2350000168000004
 30
0.0
 40
0.02
100
AcDbArc
 50
0.0
 51
90.0
  0
ARC
  5
209C
330
206C
100
AcDbEntity
  8
0
  6
Continuous
 62
     7
370
    15
100
AcDbCircle
 10
-0.4524144022499997
 20
0.2750000168000004
 30
0.0
 40
0.020000000000001
100
AcDbArc
 50
197.4909973121999
 51
270.0
  0
LINE
  5
209D
330
206C
100
AcDbEntity
  8
0
  6
Continuous
 62
     7
370
    15
100
AcDbLine
 10
-0.4406368170499997
 20
0.2550000259000003
 30
0.0
 11
-0.4524143809499997
 21
0.2550000259000003
 31
0.0
  0
ARC
  5
209E
330
206C
100
AcDbEntity
  8
0
  6
Continuous
 62
     7
370
    15
100
AcDbCircle
 10
-0.4056368242500002
 20
0.2700000168000001
 30
0.0
 40
0.0199999999999996
100
AcDbArc
 50
0.0
 51
90.0
  0
LINE
  5
209F
330
206C
100
AcDbEntity
  8
0
  6
Continuous
 62
     7
370
    15
100
AcDbLine
 10
-0.4056368346500001
 20
0.2900000174000001
 30
0.0
 11
-0.42674713085
 21
0.2900000174000001
 31
0.0
  0
ARC
  5
20A0
330
206C
100
AcDbEntity
  8
0
  6
Continuous
 62
     7
370
    15
100
AcDbCircle
 10
-0.0106368242499997
 20
0.2350000168000004
 30
0.0
 40
0.0200000000000005
100
AcDbArc
 50
0.0
 51
90.0
  0
LINE
  5
20A1
330
206C
100
AcDbEntity
  8
0
  6
Continuous
 62
     7
370
    15
100
AcDbLine
 10
-0.0106368244499997
 20
0.2550000259000003
 30
0.0
 11
-0.1056368236499994
 21
0.2550000259000003
 31
0.0
  0
LINE
  5
20A2
330
206C
100
AcDbEntity
  8
0
  6
Continuous
 62
     7
370
    15
100
AcDbLine
 10
-0.1056368236499994
 20
0.2200000252000001
 30
0.0
 11
-0.0456368067500002
 21
0.2200000252000001
 31
0.0
  0
ARC
  5
20A3
330
206C
100
AcDbEntity
  8
0
  6
Continuous
 62
     7
370
    15
100
AcDbCircle
 10
-0.4129427697499999
 20
1.3300000168
 30
0.0
 40
0.0200000000000005
100
AcDbArc
 50
0.0
 51
90.0
  0
ARC
  5
20A4
330
206C
100
AcDbEntity
  8
0
  6
Continuous
 62
     7
370
    15
100
AcDbCircle
 10
-0.4129427697499999
 20
1.4050000168
 30
0.0
 40
0.0200000000000005
100
AcDbArc
 50
270.0
 51
0.0
  0
LINE
  5
20A5
330
206C
100
AcDbEntity
  8
0
  6
Continuous
 62
     7
370
    15
100
AcDbLine
 10
-0.8579428096499999
 20
2.6044615097
 30
0.0
 11
-0.8579428096499999
 21
2.9224999557
 31
0.0
  0
LINE
  5
20A6
330
206C
100
AcDbEntity
  8
0
  6
Continuous
 62
     7
370
    15
100
AcDbLine
 10
-0.8229427539499996
 20
2.6246688629
 30
0.0
 11
-0.8229427539499996
 21
2.8874999733
 31
0.0
  0
LINE
  5
20A7
330
206C
100
AcDbEntity
  8
0
  6
Continuous
 62
     7
370
    15
100
AcDbLine
 10
-0.3929427613499996
 20
2.8874999733
 30
0.0
 11
-0.3929427613499996
 21
2.5625000744
 31
0.0
  0
LINE
  5
20A8
330
206C
100
AcDbEntity
  8
0
  6
Continuous
 62
     7
370
    15
100
AcDbLine
 10
-0.7879427715500001
 20
2.4020469813
 30
0.0
 11
-0.7879427715500001
 21
2.5409530834
 31
0.0
  0
LINE
  5
20A9
330
206C
100
AcDbEntity
  8
0
  6
Continuous
 62
     7
370
    15
100
AcDbLine
 10
-0.7529427892499996
 20
2.381839774799999
 30
0.0
 11
-0.7529427892499996
 21
2.5611602899
 31
0.0
  0
ARC
  5
20AA
330
206C
100
AcDbEntity
  8
0
  6
Continuous
 62
     7
370
    15
100
AcDbCircle
 10
-0.7729427697500002
 20
2.381839762799999
 30
0.0
 40
0.0200000000000005
100
AcDbArc
 50
300.0
 51
0.0
  0
LINE
  5
20AB
330
206C
100
AcDbEntity
  8
0
  6
Continuous
 62
     7
370
    15
100
AcDbLine
 10
-0.8479427517499997
 20
2.355858954899999
 30
0.0
 11
-0.7979427560499995
 21
2.3847265814
 31
0.0
  0
LINE
  5
20AC
330
206C
100
AcDbEntity
  8
0
  6
Continuous
 62
     7
370
    15
100
AcDbLine
 10
-0.8129427694499993
 20
2.3356517483
 30
0.0
 11
-0.7629427737499999
 21
2.3645192282
 31
0.0
  0
ARC
  5
20AD
330
206C
100
AcDbEntity
  8
0
  6
Continuous
 62
     7
370
    15
100
AcDbCircle
 10
-0.8379427697499997
 20
2.3385384926
 30
0.0
 40
0.02
100
AcDbArc
 50
120.0
 51
180.0
  0
ARC
  5
20AE
330
206C
100
AcDbEntity
  8
0
  6
Continuous
 62
     7
370
    15
100
AcDbCircle
 10
-0.8029427697499995
 20
2.318331233199999
 30
0.0
 40
0.0200000000000007
100
AcDbArc
 50
120.0
 51
180.0
  0
POINT
  5
20AF
330
206C
100
AcDbEntity
  8
0
  6
Continuous
 62
    18
370
     0
100
AcDbPoint
 10
-0.7879427697499999
 20
2.3905000168
 30
0.0
  0
ARC
  5
20B0
330
206C
100
AcDbEntity
  8
0
  6
Continuous
 62
     7
370
    15
100
AcDbCircle
 10
-0.8079427697499994
 20
2.4020470222
 30
0.0
 40
0.0200000000000005
100
AcDbArc
 50
300.0
 51
0.0
  0
ARC
  5
20B1
330
206C
100
AcDbEntity
  8
0
  6
Continuous
 62
     7
370
    15
100
AcDbCircle
 10
-0.7729427697500002
 20
2.561160270899999
 30
0.0
 40
0.0200000000000003
100
AcDbArc
 50
0.0
 51
60.0
  0
POINT
  5
20B2
330
206C
100
AcDbEntity
  8
0
  6
Continuous
 62
    18
370
     0
100
AcDbPoint
 10
-0.7879427697499999
 20
2.5525000168
 30
0.0
  0
ARC
  5
20B3
330
206C
100
AcDbEntity
  8
0
  6
Continuous
 62
     7
370
    15
100
AcDbCircle
 10
-0.8379427697499997
 20
2.6044615411
 30
0.0
 40
0.0200000000000005
100
AcDbArc
 50
180.0
 51
239.9999999999999
  0
LINE
  5
20B4
330
206C
100
AcDbEntity
  8
0
  6
Continuous
 62
     7
370
    15
100
AcDbLine
 10
-0.7979427560499995
 20
2.5582734833
 30
0.0
 11
-0.8479427517499997
 21
2.587140963099999
 31
0.0
  0
ARC
  5
20B5
330
206C
100
AcDbEntity
  8
0
  6
Continuous
 62
     7
370
    15
100
AcDbCircle
 10
-0.8079427697499994
 20
2.5409530115
 30
0.0
 40
0.02
100
AcDbArc
 50
0.0
 51
60.0
  0
LINE
  5
20B6
330
206C
100
AcDbEntity
  8
0
  6
Continuous
 62
     7
370
    15
100
AcDbLine
 10
-0.7629427737499999
 20
2.5784808365
 30
0.0
 11
-0.8129427694499993
 21
2.607348316399999
 31
0.0
  0
ARC
  5
20B7
330
206C
100
AcDbEntity
  8
0
  6
Continuous
 62
     7
370
    15
100
AcDbCircle
 10
-0.8029427697499995
 20
2.624668800499999
 30
0.0
 40
0.0200000000000005
100
AcDbArc
 50
180.0
 51
239.9999999999999
  0
ARC
  5
20B8
330
206C
100
AcDbEntity
  8
0
  6
Continuous
 62
     7
370
    15
100
AcDbCircle
 10
-0.4729427697499995
 20
2.5225000168
 30
0.0
 40
0.0200000000000005
100
AcDbArc
 50
90.0
 51
172.8192442184999
  0
LINE
  5
20B9
330
206C
100
AcDbEntity
  8
0
  6
Continuous
 62
     7
370
    15
100
AcDbLine
 10
-0.4729427838499998
 20
2.5074999765
 30
0.0
 11
-0.4129428036500001
 21
2.5074999765
 31
0.0
  0
LINE
  5
20BA
330
206C
100
AcDbEntity
  8
0
  6
Continuous
 62
     7
370
    15
100
AcDbLine
 10
-0.4129428036500001
 20
2.435500088199999
 30
0.0
 11
-0.4729427838499998
 21
2.435500088199999
 31
0.0
  0
LINE
  5
20BB
330
206C
100
AcDbEntity
  8
0
  6
Continuous
 62
     7
370
    15
100
AcDbLine
 10
-0.4729427838499998
 20
2.400499959199999
 30
0.0
 11
-0.4129428036500001
 21
2.400499959199999
 31
0.0
  0
ARC
  5
20BC
330
206C
100
AcDbEntity
  8
0
  6
Continuous
 62
     7
370
    15
100
AcDbCircle
 10
-0.4729427697499995
 20
2.527500016799999
 30
0.0
 40
0.0200000000000005
100
AcDbArc
 50
187.1807557815
 51
270.0
  0
ARC
  5
20BD
330
206C
100
AcDbEntity
  8
0
  6
Continuous
 62
     7
370
    15
100
AcDbCircle
 10
-0.4729427697499995
 20
2.415500016799999
 30
0.0
 40
0.0200000000000005
100
AcDbArc
 50
90.0
 51
172.8192442184999
  0
ARC
  5
20BE
330
206C
100
AcDbEntity
  8
0
  6
Continuous
 62
     7
370
    15
100
AcDbCircle
 10
-0.4729427697499995
 20
2.4205000168
 30
0.0
 40
0.0200000000000005
100
AcDbArc
 50
187.1807557815
 51
270.0
  0
ARC
  5
20BF
330
206C
100
AcDbEntity
  8
0
  6
Continuous
 62
     7
370
    15
100
AcDbCircle
 10
-0.4129427697499999
 20
2.487500016799999
 30
0.0
 40
0.0200000000000005
100
AcDbArc
 50
0.0
 51
90.0
  0
LINE
  5
20C0
330
206C
100
AcDbEntity
  8
0
  6
Continuous
 62
     7
370
    15
100
AcDbLine
 10
-0.3929427613499996
 20
2.487500007499999
 30
0.0
 11
-0.3929427613499996
 21
2.4555000572
 31
0.0
  0
ARC
  5
20C1
330
206C
100
AcDbEntity
  8
0
  6
Continuous
 62
     7
370
    15
100
AcDbCircle
 10
-0.4129427697499999
 20
2.455500016799999
 30
0.0
 40
0.0200000000000005
100
AcDbArc
 50
270.0
 51
0.0
  0
ARC
  5
20C2
330
206C
100
AcDbEntity
  8
0
  6
Continuous
 62
     7
370
    15
100
AcDbCircle
 10
-0.4129427697499999
 20
2.3805000168
 30
0.0
 40
0.0200000000000005
100
AcDbArc
 50
0.0
 51
90.0
  0
LINE
  5
20C3
330
206C
100
AcDbEntity
  8
0
  6
Continuous
 62
     7
370
    15
100
AcDbLine
 10
-0.4129428036500001
 20
2.5424999588
 30
0.0
 11
-0.4729427838499998
 21
2.5424999588
 31
0.0
  0
ARC
  5
20C4
330
206C
100
AcDbEntity
  8
0
  6
Continuous
 62
     7
370
    15
100
AcDbCircle
 10
-0.4129427697499999
 20
2.5625000168
 30
0.0
 40
0.0200000000000005
100
AcDbArc
 50
270.0
 51
0.0
  0
LINE
  5
20C5
330
206C
100
AcDbEntity
  8
0
  6
Continuous
 62
     7
370
    15
100
AcDbLine
 10
-0.8379427673499995
 20
2.942500071299999
 30
0.0
 11
-0.3779427479499997
 21
2.942500071299999
 31
0.0
  0
LINE
  5
20C6
330
206C
100
AcDbEntity
  8
0
  6
Continuous
 62
     7
370
    15
100
AcDbLine
 10
-0.8029427849499999
 20
2.907499942299999
 30
0.0
 11
-0.4129428036500001
 21
2.907499942299999
 31
0.0
  0
ARC
  5
20C7
330
206C
100
AcDbEntity
  8
0
  6
Continuous
 62
     7
370
    15
100
AcDbCircle
 10
-0.8379427697499997
 20
2.9225000168
 30
0.0
 40
0.0200000000000005
100
AcDbArc
 50
90.0
 51
180.0
  0
ARC
  5
20C8
330
206C
100
AcDbEntity
  8
0
  6
Continuous
 62
     7
370
    15
100
AcDbCircle
 10
-0.8029427697499995
 20
2.8875000168
 30
0.0
 40
0.0200000000000005
100
AcDbArc
 50
90.0
 51
180.0
  0
ARC
  5
20C9
330
206C
100
AcDbEntity
  8
0
  6
Continuous
 62
     7
370
    15
100
AcDbCircle
 10
-0.3779427697499997
 20
2.9225000168
 30
0.0
 40
0.0200000000000005
100
AcDbArc
 50
0.0
 51
90.0
  0
ARC
  5
20CA
330
206C
100
AcDbEntity
  8
0
  6
Continuous
 62
     7
370
    15
100
AcDbCircle
 10
-0.4129427697499999
 20
2.8875000168
 30
0.0
 40
0.0200000000000005
100
AcDbArc
 50
0.0
 51
90.0
  0
LINE
  5
20CB
330
206C
100
AcDbEntity
  8
0
  6
Continuous
 62
     7
370
    15
100
AcDbLine
 10
0.3570572296500005
 20
0.3830000151000004
 30
0.0
 11
0.3570572296500005
 21
0.0550000246000004
 31
0.0
  0
LINE
  5
20CC
330
206C
100
AcDbEntity
  8
0
  6
Continuous
 62
     7
370
    15
100
AcDbLine
 10
0.3920572302499998
 20
0.4180000158000002
 30
0.0
 11
0.3920572302499998
 21
0.0200000056
 31
0.0
  0
ARC
  5
20CD
330
206C
100
AcDbEntity
  8
0
  6
Continuous
 62
     7
370
    15
100
AcDbCircle
 10
0.3370572302500001
 20
0.0550000168000002
 30
0.0
 40
0.02
100
AcDbArc
 50
270.0
 51
0.0
  0
ARC
  5
20CE
330
206C
100
AcDbEntity
  8
0
  6
Continuous
 62
     7
370
    15
100
AcDbCircle
 10
0.3720572302500003
 20
0.0200000168000001
 30
0.0
 40
0.0200000000000005
100
AcDbArc
 50
270.0
 51
0.0
  0
ARC
  5
20CF
330
206C
100
AcDbEntity
  8
0
  6
Continuous
 62
     7
370
    15
100
AcDbCircle
 10
0.3370572302500001
 20
0.3830000168000001
 30
0.0
 40
0.0200000000000005
100
AcDbArc
 50
0.0
 51
90.0
  0
ARC
  5
20D0
330
206C
100
AcDbEntity
  8
0
  6
Continuous
 62
     7
370
    15
100
AcDbCircle
 10
0.3720572302500003
 20
0.4180000168000002
 30
0.0
 40
0.0200000000000005
100
AcDbArc
 50
0.0
 51
90.0
  0
ENDBLK
  5
20D2
330
206C
100
AcDbEntity
  8
0
100
AcDbBlockEnd
  0
BLOCK
  5
2508
330
24FE
100
AcDbEntity
  8
0
370
     0
100
AcDbBlockBegin
  2
*D15
 70
     1
 10
0.0
 20
0.0
 30
0.0
  3
*D15
  1

  0
LINE
  5
284F
330
24FE
100
AcDbEntity
  8
0
 62
     0
370
    -2
100
AcDbLine
 10
2.374417767103906
 20
10.05699993040395
 30
0.0
 11
2.374417767103906
 21
10.36487187073344
 31
0.0
  0
LINE
  5
2850
330
24FE
100
AcDbEntity
  8
0
 62
     0
370
    -2
100
AcDbLine
 10
5.974417767103908
 20
10.05699993040395
 30
0.0
 11
5.974417767103908
 21
10.36487187073344
 31
0.0
  0
LINE
  5
2851
330
24FE
100
AcDbEntity
  8
0
 62
     0
370
    -2
100
AcDbLine
 10
2.454417767103906
 20
10.30237187073344
 30
0.0
 11
5.894417767103908
 21
10.30237187073344
 31
0.0
  0
SOLID
  5
2852
330
24FE
100
AcDbEntity
  8
0
 62
     0
370
     0
100
AcDbTrace
 10
2.454417767103906
 20
10.31570520406677
 30
0.0
 11
2.454417767103906
 21
10.2890385374001
 31
0.0
 12
2.374417767103906
 22
10.30237187073344
 32
0.0
 13
2.374417767103906
 23
10.30237187073344
 33
0.0
  0
SOLID
  5
2853
330
24FE
100
AcDbEntity
  8
0
 62
     0
370
     0
100
AcDbTrace
 10
5.894417767103908
 20
10.31570520406677
 30
0.0
 11
5.894417767103908
 21
10.2890385374001
 31
0.0
 12
5.974417767103908
 22
10.30237187073344
 32
0.0
 13
5.974417767103908
 23
10.30237187073344
 33
0.0
  0
MTEXT
  5
2854
330
24FE
100
AcDbEntity
  8
0
 62
     0
370
     0
100
AcDbMText
 10
4.174417767103907
 20
10.39832425168582
 30
0.0
 40
0.08
 41
0.0
 71
     5
 72
     1
  1
\A1;3.60" [91MM]
 73
     1
 44
1.0
1001
ACAD
1000
MTEXTBEGIN
1070
    73
1070
     1
1070
    44
1040
1.0
1070
    74
1070
     0
1000
MTEXTEND
  0
POINT
  5
2855
330
24FE
100
AcDbEntity
  8
Defpoints
 62
     0
370
     0
100
AcDbPoint
 10
2.374417767103906
 20
9.994499930403955
 30
0.0
  0
POINT
  5
2856
330
24FE
100
AcDbEntity
  8
Defpoints
 62
     0
370
     0
100
AcDbPoint
 10
5.974417767103908
 20
9.994499930403955
 30
0.0
  0
POINT
  5
2857
330
24FE
100
AcDbEntity
  8
Defpoints
 62
     0
370
     0
100
AcDbPoint
 10
5.974417767103908
 20
10.30237187073344
 30
0.0
  0
ENDBLK
  5
2509
330
24FE
100
AcDbEntity
  8
0
370
     0
100
AcDbBlockEnd
  0
BLOCK
  5
272B
330
2721
100
AcDbEntity
  8
0
 62
     1
370
     0
100
AcDbBlockBegin
  2
*D17
 70
     1
 10
0.0
 20
0.0
 30
0.0
  3
*D17
  1

  0
LINE
  5
2858
330
2721
100
AcDbEntity
  8
DIM
 62
     0
370
    -2
100
AcDbLine
 10
2.013417767103909
 20
6.791166710630925
 30
0.0
 11
1.378139338727123
 21
6.791166710630926
 31
0.0
  0
LINE
  5
2859
330
2721
100
AcDbEntity
  8
DIM
 62
     0
370
    -2
100
AcDbLine
 10
2.013417767103909
 20
7.541166710630925
 30
0.0
 11
1.378139338727123
 21
7.541166710630926
 31
0.0
  0
LINE
  5
285A
330
2721
100
AcDbEntity
  8
DIM
 62
     0
370
    -2
100
AcDbLine
 10
1.503139338727123
 20
6.791166710630926
 30
0.0
 11
1.503139338727123
 21
7.541166710630926
 31
0.0
  0
MTEXT
  5
285B
330
2721
100
AcDbEntity
  8
DIM
 62
     0
100
AcDbMText
 10
1.132906191388308
 20
7.207154235038352
 30
0.0
 40
0.125
 41
0.0
 71
     5
 72
     1
  1
\A1;{\H1.000000x;\S3/4;}" [19MM]
 11
0.0000000000000001
 21
1.0
 31
0.0
 73
     1
 44
1.0
1001
ACAD
1000
MTEXTBEGIN
1070
    73
1070
     1
1070
    44
1040
1.0
1070
    74
1070
     0
1000
MTEXTEND
  0
INSERT
  5
285C
330
2721
100
AcDbEntity
  8
DIM
 62
     0
370
    -2
100
AcDbBlockReference
  2
_ARCHTICK
 10
1.503139338727123
 20
6.791166710630926
 30
0.0
 41
0.125
 42
0.125
 43
0.125
 50
270.0
  0
INSERT
  5
285D
330
2721
100
AcDbEntity
  8
DIM
 62
     0
370
    -2
100
AcDbBlockReference
  2
_ARCHTICK
 10
1.503139338727123
 20
7.541166710630926
 30
0.0
 41
0.125
 42
0.125
 43
0.125
 50
90.0
  0
POINT
  5
285E
330
2721
100
AcDbEntity
  8
Defpoints
 62
     0
370
     0
100
AcDbPoint
 10
2.138417767103909
 20
6.791166710630925
 30
12.121909
  0
POINT
  5
285F
330
2721
100
AcDbEntity
  8
Defpoints
 62
     0
370
     0
100
AcDbPoint
 10
2.138417767103909
 20
7.541166710630925
 30
12.121909
  0
POINT
  5
2860
330
2721
100
AcDbEntity
  8
Defpoints
 62
     0
370
     0
100
AcDbPoint
 10
1.503139338727123
 20
7.541166710630926
 30
0.0
  0
ENDBLK
  5
272C
330
2721
100
AcDbEntity
  8
0
 62
     1
370
     0
100
AcDbBlockEnd
  0
BLOCK
  5
274B
330
274A
100
AcDbEntity
  8
0
100
AcDbBlockBegin
  2
*D18
 70
     1
 10
0.0
 20
0.0
 30
0.0
  3
*D18
  1

  0
LINE
  5
274C
330
274A
100
AcDbEntity
  8
DIM
 62
     0
370
    -2
100
AcDbLine
 10
-1.872202375249512
 20
8.630742687786876
 30
0.0
 11
-2.89275923200308
 21
8.630742687786876
 31
0.0
  0
LINE
  5
274D
330
274A
100
AcDbEntity
  8
DIM
 62
     0
370
    -2
100
AcDbLine
 10
-0.8097023752495109
 20
9.693242687786876
 30
0.0
 11
-2.892759232003079
 21
9.693242687786876
 31
0.0
  0
LINE
  5
274E
330
274A
100
AcDbEntity
  8
DIM
 62
     0
370
    -2
100
AcDbLine
 10
-2.76775923200308
 20
8.630742687786876
 30
0.0
 11
-2.767759232003079
 21
9.693242687786876
 31
0.0
  0
INSERT
  5
274F
330
274A
100
AcDbEntity
  8
DIM
 62
     0
370
    -2
100
AcDbBlockReference
  2
_ARCHTICK
 10
-2.76775923200308
 20
8.630742687786876
 30
0.0
 41
0.125
 42
0.125
 43
0.125
 50
270.0
  0
INSERT
  5
2750
330
274A
100
AcDbEntity
  8
DIM
 62
     0
370
    -2
100
AcDbBlockReference
  2
_ARCHTICK
 10
-2.767759232003079
 20
9.693242687786876
 30
0.0
 41
0.125
 42
0.125
 43
0.125
 50
90.0
  0
MTEXT
  5
2751
330
274A
100
AcDbEntity
  8
DIM
 62
     0
100
AcDbMText
 10
-2.976092565336415
 20
9.161992687786876
 30
0.0
 40
0.125
 41
0.0
 71
     5
 72
     1
  1
\A1;1{\H1.000000x;\S1/16;}"
 11
0.0000000000000001
 21
1.0
 31
0.0
 73
     1
 44
1.0
1001
ACAD
1000
MTEXTBEGIN
1070
    73
1070
     1
1070
    44
1040
1.0
1070
    74
1070
     0
1000
MTEXTEND
  0
POINT
  5
2752
330
274A
100
AcDbEntity
  8
Defpoints
 62
     0
100
AcDbPoint
 10
-1.747202375249512
 20
8.630742687786876
 30
12.121909
  0
POINT
  5
2753
330
274A
100
AcDbEntity
  8
Defpoints
 62
     0
100
AcDbPoint
 10
-0.6847023752495111
 20
9.693242687786876
 30
12.121909
  0
POINT
  5
2754
330
274A
100
AcDbEntity
  8
Defpoints
 62
     0
100
AcDbPoint
 10
-2.767759232003079
 20
9.693242687786876
 30
0.0
  0
ENDBLK
  5
2755
330
274A
100
AcDbEntity
  8
0
100
AcDbBlockEnd
  0
BLOCK
  5
275C
330
2756
100
AcDbEntity
  8
0
 62
     1
370
     0
100
AcDbBlockBegin
  2
A$C07F6356F
 70
     0
 10
0.0
 20
0.0
 30
0.0
  3
A$C07F6356F
  1

  0
DIMENSION
  5
2757
330
2756
100
AcDbEntity
  8
DIM
100
AcDbDimension
  2
*D18
 10
-1.02055685675357
 20
1.0625
 30
-12.121909
 11
-1.228890190086905
 21
0.53125
 31
-12.121909
 12
1.747202375249509
 22
-8.630742687786876
 32
-12.121909
 71
     5
 42
1.0625
  3
STANDARD
100
AcDbAlignedDimension
 13
-0.0000000000000036
 23
0.0
 33
0.0
 14
1.062499999999998
 24
1.0625
 34
0.0
 50
90.0
100
AcDbRotatedDimension
1001
ACAD
1000
DSTYLE
1002
{
1070
    73
1070
     0
1070
    74
1070
     0
1070
    77
1070
     1
1070
   271
1070
     4
1070
   272
1070
     3
1070
   341
1005
0
1002
}
  0
LEADER
  5
2758
330
2756
100
AcDbEntity
  8
DIM
100
AcDbLeader
  3
STANDARD
 72
     1
 73
     0
 74
     0
 40
0.3333333333333333
 41
0.6964285714285713
 76
     5
 10
-1.325460369679104
 20
0.1888598274271249
 30
-12.121909
 10
-1.56575538232291
 20
-0.1113289014062797
 30
-12.121909
 10
-1.56575538232291
 20
-0.3875025198974189
 30
-12.121909
 10
-1.433593137633343
 20
-0.6276534979493125
 30
-12.121909
 10
-1.289416113694363
 20
-0.7717440847804494
 30
-12.121909
340
2759
213
0.0
223
-0.0625
233
0.0
1001
ACAD
1000
DSTYLE
1002
{
1070
   147
1040
0.0625
1070
    73
1070
     0
1070
    74
1070
     0
1070
    77
1070
     0
1070
   271
1070
     3
1070
   272
1070
     3
1070
   341
1005
0
1002
}
  0
MTEXT
  5
2759
102
{ACAD_REACTORS
330
2758
102
}
330
2756
100
AcDbEntity
  8
DIM
100
AcDbMText
 10
-1.226916113694363
 20
-0.7092440847804494
 30
-12.121909
 40
0.125
 41
0.25
 71
     1
 72
     1
  1
\A1;SPACER OFFSET
 73
     1
 44
1.0
1001
ACAD
1000
MTEXTBEGIN
1070
    73
1070
     1
1070
    44
1040
1.0
1070
    74
1070
     0
1000
MTEXTEND
  0
LINE
  5
275A
330
2756
100
AcDbEntity
  8
DIM
100
AcDbLine
 10
1.43480190736753
 20
1.0625
 30
0.0
 11
-0.5719977693499825
 21
1.0625
 31
0.0
  0
ENDBLK
  5
275D
330
2756
100
AcDbEntity
  8
0
 62
     1
370
     0
100
AcDbBlockEnd
  0
ENDSEC
  0
SECTION
  2
ENTITIES
  0
TEXT
  5
19D
330
2
100
AcDbEntity
  8
DIM
  6
Continuous
100
AcDbText
 10
-114.0759806286337
 20
120.8126026985917
 30
0.0
 40
0.1
  1
 
  7
ROMANS
 11
-114.0759806286337
 21
120.8626026985917
 31
0.0
100
AcDbText
 73
     2
  0
TEXT
  5
1A0
330
2
100
AcDbEntity
  8
DIM
  6
Continuous
100
AcDbText
 10
-110.1672806286337
 20
120.8375026985917
 30
0.0
 40
0.1
  1
 
  7
ROMANS
 11
-110.1672806286337
 21
120.8875026985917
 31
0.0
100
AcDbText
 73
     2
  0
TEXT
  5
1A1
330
2
100
AcDbEntity
  8
DIM
  6
Continuous
100
AcDbText
 10
-109.2372806286337
 20
118.0338026985917
 30
0.0
 40
0.125
  1
 
  7
ROMANS
 11
-109.2372806286337
 21
118.0963026985917
 31
0.0
100
AcDbText
 73
     2
  0
TEXT
  5
1A2
330
2
100
AcDbEntity
  8
DIM
  6
Continuous
100
AcDbText
 10
-109.2372806286337
 20
117.8463026985917
 30
0.0
 40
0.125
  1
 
  7
ROMANS
 11
-109.2372806286337
 21
117.9088026985917
 31
0.0
100
AcDbText
 73
     2
  0
TEXT
  5
1A3
330
2
100
AcDbEntity
  8
DIM
  6
Continuous
100
AcDbText
 10
-109.2372806286337
 20
117.6588026985917
 30
0.0
 40
0.125
  1
 
  7
ROMANS
 11
-109.2372806286337
 21
117.7213026985917
 31
0.0
100
AcDbText
 73
     2
  0
TEXT
  5
1A4
330
2
100
AcDbEntity
  8
DIM
  6
Continuous
100
AcDbText
 10
-109.2372806286337
 20
117.4713026985917
 30
0.0
 40
0.125
  1
 
  7
ROMANS
 11
-109.2372806286337
 21
117.5338026985917
 31
0.0
100
AcDbText
 73
     2
  0
TEXT
  5
1A5
330
2
100
AcDbEntity
  8
DIM
  6
Continuous
100
AcDbText
 10
-109.2372806286337
 20
117.2838026985917
 30
0.0
 40
0.125
  1
 
  7
ROMANS
 11
-109.2372806286337
 21
117.3463026985917
 31
0.0
100
AcDbText
 73
     2
  0
MTEXT
  5
13D8
330
2
100
AcDbEntity
  8
DIM
100
AcDbMText
 10
3.040951818970434
 20
3.684153266969023
 30
0.0
 40
0.25
 41
0.28125
 71
     1
 72
     5
  1

  7
style1
 73
     1
 44
1.0
1001
ACAD
1000
MTEXTBEGIN
1070
    73
1070
     1
1070
    44
1040
1.0
1070
    74
1070
     0
1000
MTEXTEND
  0
LWPOLYLINE
  5
2417
330
2
100
AcDbEntity
  8
0
100
AcDbPolyline
 90
        4
 70
     1
 43
0.0375
 10
9.049999999999997
 20
0.0
 10
9.049999999999997
 20
12.53125
 10
0.0
 20
12.53125
 10
0.0
 20
0.0
  0
LWPOLYLINE
  5
2418
330
2
100
AcDbEntity
  8
0
100
AcDbPolyline
 90
        2
 70
     0
 43
0.0375
 10
0.0
 20
2.1875
 10
9.049999999999997
 20
2.1875
  0
LINE
  5
2419
330
2
100
AcDbEntity
  8
0
100
AcDbLine
 10
4.208806600904509
 20
0.7875000000000015
 30
0.0
 11
9.049999999999997
 21
0.7875000000000015
 31
0.0
  0
TEXT
  5
241A
330
2
100
AcDbEntity
  8
DIM
100
AcDbText
 10
8.675625000000003
 20
0.6448750000000003
 30
0.0
 40
0.08125
  1
REV
  7
ADESK1
100
AcDbText
  0
LINE
  5
241B
330
2
100
AcDbEntity
  8
0
100
AcDbLine
 10
4.206250000000004
 20
1.5625
 30
0.0
 11
9.049999999999997
 21
1.5625
 31
0.0
  0
LINE
  5
241C
330
2
100
AcDbEntity
  8
0
100
AcDbLine
 10
4.206250000000004
 20
0.3125
 30
0.0
 11
9.049999999999997
 21
0.3125
 31
0.0
  0
TEXT
  5
241D
330
2
100
AcDbEntity
  8
DIM
 62
     7
100
AcDbText
 10
4.863773919086405
 20
1.753101106818246
 30
5.836624999999999
 40
0.1953125
  1
SOLERA R25-T
 41
0.8
 11
4.863773919086405
 21
1.850757356818246
 31
5.836624999999999
100
AcDbText
 73
     2
  0
LWPOLYLINE
  5
241E
330
2
100
AcDbEntity
  8
0
100
AcDbPolyline
 90
        2
 70
     0
 43
0.0375
 10
4.206250000000004
 20
0.0
 10
4.206250000000004
 20
2.169887285791539
  0
LINE
  5
241F
330
2
100
AcDbEntity
  8
0
100
AcDbLine
 10
0.0
 20
0.6304118971593176
 30
0.0
 11
4.208806600904509
 21
0.6304118971593176
 31
0.0
  0
TEXT
  5
2420
330
2
100
AcDbEntity
  8
DIM
100
AcDbText
 10
5.03018206435982
 20
0.6448750000000003
 30
0.0
 40
0.08125
  1
DATE:
 41
0.8
100
AcDbText
  0
LINE
  5
2421
330
2
100
AcDbEntity
  8
0
100
AcDbLine
 10
4.944057064359817
 20
0.3125
 30
0.0
 11
4.944057064359817
 21
0.7875000000000015
 31
0.0
  0
TEXT
  5
2422
330
2
100
AcDbEntity
  8
DIM
100
AcDbText
 10
4.271625
 20
0.1156249999999992
 30
0.0
 40
0.08125
  1
Scale
 41
0.8
100
AcDbText
  0
TEXT
  5
2424
330
2
100
AcDbEntity
  8
DIM
100
AcDbText
 10
4.316124999999999
 20
0.6448750000000003
 30
0.0
 40
0.08125
  1
DRWN.
 41
0.8
100
AcDbText
  0
LINE
  5
2425
330
2
100
AcDbEntity
  8
0
100
AcDbLine
 10
5.456250000000004
 20
0.0
 30
0.0
 11
5.456250000000004
 21
0.3125
 31
0.0
  0
LINE
  5
2426
330
2
100
AcDbEntity
  8
0
100
AcDbLine
 10
6.409758830449774
 20
0.3125
 30
0.0
 11
6.409758830449774
 21
0.7875000000000015
 31
0.0
  0
TEXT
  5
2427
330
2
100
AcDbEntity
  8
DIM
100
AcDbText
 10
6.498508830449772
 20
0.6448750000000003
 30
0.0
 40
0.08125
  1
DWG NO.
 41
0.8
100
AcDbText
  0
LINE
  5
2428
330
2
100
AcDbEntity
  8
0
100
AcDbLine
 10
7.331250000000004
 20
0.0
 30
0.0
 11
7.331250000000004
 21
0.3125
 31
0.0
  0
LINE
  5
242A
330
2
100
AcDbEntity
  8
0
100
AcDbLine
 10
8.574999999999995
 20
0.3125
 30
0.0
 11
8.574999999999995
 21
0.7875000000000015
 31
0.0
  0
TEXT
  5
242B
330
2
100
AcDbEntity
  8
DIM
100
AcDbText
 10
0.179269951114243
 20
0.9168754289536035
 30
7.295812499999999
 40
0.121875
  1
SOLERA IS A REGISTERED TRADEMARK
  7
style1
 11
0.179269951114243
 21
1.038750428953603
 31
7.295812499999999
100
AcDbText
 73
     3
  0
TEXT
  5
242C
330
2
100
AcDbEntity
  8
DIM
100
AcDbText
 10
0.179269951114243
 20
0.7286170774049012
 30
7.295812499999999
 40
0.121875
  1
ADVANCED GLAZINGS LTD.
  7
style1
 11
0.179269951114243
 21
0.8504920774049011
 31
7.295812499999999
100
AcDbText
 73
     3
  0
TEXT
  5
242D
330
2
100
AcDbEntity
  8
DIM
100
AcDbText
 10
0.1501321257111812
 20
1.235528035044113
 30
0.0
 40
0.15625
  1
ADVANCED GLAZINGS Ltd.
  7
style1
100
AcDbText
  0
TEXT
  5
242E
330
2
100
AcDbEntity
  8
DIM
100
AcDbText
 10
0.1594148520891352
 20
1.711852394697535
 30
0.0
 40
0.3125
  1
SOLERA
  7
style1
100
AcDbText
  0
LINE
  5
242F
330
2
100
AcDbEntity
  8
0
100
AcDbLine
 10
0.0
 20
1.15777912473624
 30
0.0
 11
4.208806600904509
 21
1.15777912473624
 31
0.0
  0
TEXT
  5
2430
330
2
100
AcDbEntity
  8
DIM
100
AcDbText
 10
4.316124999999999
 20
1.410543931610755
 30
0.0
 40
0.08125
  1
TITLE:
 41
0.8
100
AcDbText
  0
TEXT
  5
2431
330
2
100
AcDbEntity
  8
DIM
100
AcDbText
 10
4.316124999999999
 20
2.036258007526116
 30
0.0
 40
0.08125
  1
PROJECT:
 41
0.8
100
AcDbText
  0
TEXT
  5
2433
330
2
100
AcDbEntity
  8
DIM
100
AcDbText
 10
5.856900837599049
 20
5.368704773341848
 30
0.0
 40
0.1125
  1
NOTE '1'
 41
0.8
  7
ADESK1
100
AcDbText
  0
TEXT
  5
2434
330
2
100
AcDbEntity
  8
DIM
100
AcDbText
 10
5.856900837599049
 20
5.186561916198991
 30
0.0
 40
0.1125
  1
MAXIMUM CLAMPING FORCE
 41
0.8
  7
ADESK1
100
AcDbText
  0
TEXT
  5
2435
330
2
100
AcDbEntity
  8
DIM
100
AcDbText
 10
5.856900837599049
 20
5.004419059056132
 30
0.0
 40
0.1125
  1
OF 10 LBS / LINEAR INCH [18 N/CM]
 41
0.8
  7
ADESK1
100
AcDbText
  0
TEXT
  5
2436
330
2
100
AcDbEntity
  8
DIM
100
AcDbText
 10
5.829777413553401
 20
4.36348122192807
 30
0.0
 40
0.1125
  1
NOTE '2'
 41
0.8
  7
ADESK1
100
AcDbText
  0
TEXT
  5
2437
330
2
100
AcDbEntity
  8
DIM
100
AcDbText
 10
5.829777413553401
 20
4.181338364785213
 30
0.0
 40
0.1125
  1
OVERALL UNIT THICKNESS =
 41
0.8
  7
ADESK1
100
AcDbText
  0
TEXT
  5
2438
330
2
100
AcDbEntity
  8
DIM
100
AcDbText
 10
5.829777413553401
 20
3.999195507642356
 30
0.0
 40
0.1125
  1
OUTBOARD LITE THICKNESS PLUS
 41
0.8
  7
ADESK1
100
AcDbText
  0
TEXT
  5
2439
330
2
100
AcDbEntity
  8
DIM
100
AcDbText
 10
5.829777413553401
 20
3.817052650499499
 30
0.0
 40
0.1125
  1
3.57"[91MM] PLUS INBOARD LITE THICKNESS
 41
0.8
  7
ADESK1
100
AcDbText
  0
TEXT
  5
243A
330
2
100
AcDbEntity
  8
DIM
100
AcDbText
 10
5.856900837599049
 20
3.202972224300731
 30
0.0
 40
0.1125
  1
CLAMPED THCKNESS = 
 41
0.8
  7
ADESK1
100
AcDbText
  0
TEXT
  5
243B
330
2
100
AcDbEntity
  8
DIM
100
AcDbText
 10
5.856900837599049
 20
3.385115081443587
 30
0.0
 40
0.1125
  1
NOTE '3'
 41
0.8
  7
ADESK1
100
AcDbText
  0
TEXT
  5
243C
330
2
100
AcDbEntity
  8
DIM
100
AcDbText
 10
5.8425885902056
 20
4.721995934702057
 30
0.0
 40
0.1125
  1
1/2"[13MM] INSTALLATION BITE
 41
0.8
  7
ADESK1
100
AcDbText
  0
TEXT
  5
2444
330
2
100
AcDbEntity
  8
DIM
100
AcDbText
 10
0.6639938489049726
 20
2.371164983772812
 30
0.0
 40
0.125
  1
* PLUS / MINUS .020"[0.5MM]
 41
0.8
  7
ADESK1
100
AcDbText
  0
LINE
  5
244E
330
2
100
AcDbEntity
  8
DIM
100
AcDbLine
 10
2.138417767103909
 20
10.08105235393675
 30
0.0
 11
2.138417767103909
 21
11.0153830404293
 31
0.0
  0
LINE
  5
244F
330
2
100
AcDbEntity
  8
DIM
100
AcDbLine
 10
6.208144676974306
 20
10.08105235393674
 30
0.0000000000000036
 11
6.208144676974306
 21
11.0153830404293
 31
0.0000000000000036
  0
LINE
  5
2450
330
2
100
AcDbEntity
  8
DIM
100
AcDbLine
 10
2.138417767103909
 20
10.89038304042929
 30
0.0
 11
5.897917782500002
 21
10.89038304042929
 31
12.121909
  0
INSERT
  5
2451
330
2
100
AcDbEntity
  8
DIM
100
AcDbBlockReference
  2
_ARCHTICK
 10
2.138417767103909
 20
10.89038304042929
 30
0.0
 41
0.125
 42
0.125
 43
0.125
 50
180.0
  0
INSERT
  5
2452
330
2
100
AcDbEntity
  8
DIM
100
AcDbBlockReference
  2
_ARCHTICK
 10
6.208144676974306
 20
10.89038304042929
 30
0.0000000000000036
 41
0.125
 42
0.125
 43
0.125
  0
MTEXT
  5
2453
330
2
100
AcDbEntity
  8
DIM
100
AcDbMText
 10
4.186662815130468
 20
11.0153830404293
 30
-10.44964677286065
 40
0.125
 41
0.0
 71
     5
 72
     1
  1
\A1;SEE NOTE 2
 73
     1
 44
1.0
1001
ACAD
1000
MTEXTBEGIN
1070
    73
1070
     1
1070
    44
1040
1.0
1070
    74
1070
     0
1000
MTEXTEND
  0
LINE
  5
2454
330
2
100
AcDbEntity
  8
DIM
100
AcDbLine
 10
5.897917782500002
 20
10.89038304042929
 30
12.121909
 11
6.208144676974306
 21
10.89038304042929
 31
0.0000000000000036
  0
TEXT
  5
2455
330
2
100
AcDbEntity
  8
DIM
100
AcDbText
 10
4.618440250096043
 20
10.38747162761359
 30
-12.121909
 40
0.125
  1
*
  7
style1
100
AcDbText
  0
DIMENSION
  5
24FD
330
2
100
AcDbEntity
  8
0
370
     0
100
AcDbDimension
  2
*D15
 10
5.974417767103908
 20
10.30237187073344
 30
0.0
 11
4.174417767103907
 21
10.39832425168582
 31
0.0
 70
    33
 71
     5
 42
3.600000000000001
  3
STANDARD$0
100
AcDbAlignedDimension
 13
2.374417767103906
 23
9.994499930403955
 33
0.0
 14
5.974417767103908
 24
9.994499930403955
 34
0.0
1001
ACAD
1000
DSTYLE
1002
{
1070
   271
1070
     2
1070
     3
1000
"
1070
     4
1000
MM
1070
    45
1040
0.01
1070
   148
1040
0.1
1070
   170
1070
     1
1070
   171
1070
     0
1070
   274
1070
     0
1070
   277
1070
     2
1002
}
  0
LINE
  5
25FB
330
2
100
AcDbEntity
  8
glass
 62
     7
100
AcDbLine
 10
2.138417767103909
 20
6.791166710630925
 30
0.0
 11
2.374417767103906
 21
6.791166710630925
 31
0.0
  0
LINE
  5
25FC
330
2
100
AcDbEntity
  8
glass
 62
     7
100
AcDbLine
 10
2.374417767103906
 20
6.791166710630925
 30
0.0
 11
2.374417767103906
 21
10.01616671063093
 31
0.0
  0
LINE
  5
25FE
330
2
100
AcDbEntity
  8
glass
 62
     7
100
AcDbLine
 10
5.974417767103901
 20
7.541166710630925
 30
0.0
 11
5.974417767103908
 21
9.994499930403955
 31
0.0
  0
ARC
  5
2600
330
2
100
AcDbEntity
  8
spacer1
 62
     7
100
AcDbCircle
 10
3.249417767103906
 20
7.416166710630925
 30
0.0
 40
0.125
100
AcDbArc
 50
90.0
 51
180.0
  0
ARC
  5
2601
330
2
100
AcDbEntity
  8
spacer1
 62
     7
100
AcDbCircle
 10
3.249417767103906
 20
7.416166710630925
 30
0.0
 40
0.165
100
AcDbArc
 50
90.0
 51
180.0
  0
LINE
  5
2602
330
2
100
AcDbEntity
  8
spacer1
 62
     7
100
AcDbLine
 10
3.124417767103906
 20
7.416166710630925
 30
0.0
 11
3.124417767103906
 21
6.811166710630914
 31
0.0
  0
LINE
  5
2603
330
2
100
AcDbEntity
  8
spacer1
 62
     7
100
AcDbLine
 10
3.0844177671039
 20
7.416166710630925
 30
0.0
 11
3.0844177671039
 21
6.851166710630927
 31
0.0
  0
LINE
  5
2604
330
2
100
AcDbEntity
  8
spacer1
 62
     7
100
AcDbLine
 10
3.104417767103903
 20
6.791166710630925
 30
0.0
 11
2.706917767103902
 21
6.791166710630925
 31
0.0
  0
ARC
  5
2605
330
2
100
AcDbEntity
  8
spacer1
 62
     7
100
AcDbCircle
 10
3.104417767103903
 20
6.811166710630914
 30
0.0
 40
0.02
100
AcDbArc
 50
270.0
 51
0.0
  0
LINE
  5
2606
330
2
100
AcDbEntity
  8
spacer1
 62
     7
100
AcDbLine
 10
3.249417767103906
 20
7.541166710630925
 30
0.0
 11
3.311917767103906
 21
7.541166710630925
 31
0.0
  0
LINE
  5
2607
330
2
100
AcDbEntity
  8
glass
 62
     7
100
AcDbLine
 10
5.974417767103901
 20
7.541166710630925
 30
0.0
 11
6.210417767103898
 21
7.541166710630925
 31
0.0
  0
LINE
  5
2608
330
2
100
AcDbEntity
  8
spacer1
 62
     7
100
AcDbLine
 10
3.311917767103906
 20
7.541166710630925
 30
0.0
 11
5.641917767103905
 21
7.541166710630925
 31
0.0
  0
LINE
  5
2609
330
2
100
AcDbEntity
  8
spacer1
 62
     7
100
AcDbLine
 10
4.959849269948591
 20
8.041166710630925
 30
0.0
 11
5.145633495856444
 21
8.041166710630925
 31
0.0
  0
ARC
  5
260A
330
2
100
AcDbEntity
  8
spacer1
 62
     7
100
AcDbCircle
 10
5.145633495856444
 20
8.021166710630922
 30
0.0
 40
0.02
100
AcDbArc
 50
45.00000000000003
 51
90.0
  0
LINE
  5
260B
330
2
100
AcDbEntity
  8
spacer1
 62
     7
100
AcDbLine
 10
4.964099290854449
 20
8.001166710630926
 30
0.0
 11
5.12906495336152
 21
8.001166710630926
 31
0.0
  0
ARC
  5
260C
330
2
100
AcDbEntity
  8
spacer1
 62
     7
100
AcDbCircle
 10
5.12906495336152
 20
7.981166710630922
 30
0.0
 40
0.02
100
AcDbArc
 50
45.00000000000003
 51
90.0
  0
ARC
  5
260D
330
2
100
AcDbEntity
  8
spacer1
 62
     7
100
AcDbCircle
 10
4.964099290854449
 20
7.981166710630922
 30
0.0
 40
0.02
100
AcDbArc
 50
90.0
 51
102.1299041131878
  0
LINE
  5
260E
330
2
100
AcDbEntity
  8
spacer1
 62
     7
100
AcDbLine
 10
5.450770580846295
 20
8.001166710630926
 30
0.0
 11
5.601917767103905
 21
8.001166710630926
 31
0.0
  0
ARC
  5
260F
330
2
100
AcDbEntity
  8
spacer1
 62
     7
100
AcDbCircle
 10
5.601917767103905
 20
7.981166710630922
 30
0.0
 40
0.02
100
AcDbArc
 50
0.0
 51
90.0
  0
ARC
  5
2610
330
2
100
AcDbEntity
  8
spacer1
 62
     7
100
AcDbCircle
 10
5.450770580846295
 20
7.981166710630922
 30
0.0
 40
0.02
100
AcDbArc
 50
90.0
 51
134.9999999999999
  0
LINE
  5
2611
330
2
100
AcDbEntity
  8
spacer1
 62
     7
100
AcDbLine
 10
3.249417767103906
 20
7.581166710630924
 30
0.0
 11
3.549417767103903
 21
7.581166710630938
 31
0.0
  0
ARC
  5
2612
330
2
100
AcDbEntity
  8
spacer1
 62
     7
100
AcDbCircle
 10
3.549417767103903
 20
7.601166710630934
 30
0.0
 40
0.02
100
AcDbArc
 50
270.0000000000012
 51
359.9999999999976
  0
LINE
  5
2613
330
2
100
AcDbEntity
  8
spacer1
 62
     7
100
AcDbLine
 10
3.037667767103926
 20
7.706166710630917
 30
0.0
 11
3.549417767103918
 21
7.706166710630924
 31
0.0
  0
LINE
  5
2614
330
2
100
AcDbEntity
  8
spacer1
 62
     7
100
AcDbLine
 10
2.666917767103903
 20
7.646166710630922
 30
0.0
 11
2.666917767103903
 21
7.646166710630922
 31
0.0
  0
ARC
  5
2615
330
2
100
AcDbEntity
  8
spacer1
 62
     7
100
AcDbCircle
 10
2.666917767103903
 20
7.626166710630926
 30
0.0
 40
0.02
100
AcDbArc
 50
0.0
 51
89.99999999999877
  0
LINE
  5
2616
330
2
100
AcDbEntity
  8
spacer1
 62
     7
100
AcDbLine
 10
2.746917767103909
 20
7.286166710630915
 30
0.0
 11
2.805667767103926
 21
7.286166710630915
 31
0.0
  0
ARC
  5
2617
330
2
100
AcDbEntity
  8
spacer1
 62
     7
100
AcDbCircle
 10
2.805667767103926
 20
7.306166710630918
 30
0.0
 40
0.02
100
AcDbArc
 50
270.0
 51
0.0
  0
LINE
  5
2618
330
2
100
AcDbEntity
  8
spacer1
 62
     7
100
AcDbLine
 10
2.746917767103909
 20
7.246166710630916
 30
0.0
 11
2.957667767103927
 21
7.246166710630923
 31
0.0
  0
LINE
  5
2619
330
2
100
AcDbEntity
  8
spacer1
 62
     7
100
AcDbLine
 10
2.746917767103909
 20
7.246166710630923
 30
0.0
 11
2.957667767103927
 21
7.246166710630923
 31
0.0
  0
ARC
  5
261A
330
2
100
AcDbEntity
  8
spacer1
 62
     7
100
AcDbCircle
 10
2.746917767103909
 20
7.226166710630927
 30
0.0
 40
0.02
100
AcDbArc
 50
90.0
 51
180.0000000000004
  0
LINE
  5
261B
330
2
100
AcDbEntity
  8
spacer1
 62
     7
100
AcDbLine
 10
2.997667767103919
 20
7.746166710630923
 30
0.0
 11
3.583042735745124
 21
7.746166710630923
 31
0.0
  0
LINE
  5
261C
330
2
100
AcDbEntity
  8
spacer1
 62
     7
100
AcDbLine
 10
3.629417767103902
 20
7.581166710630924
 30
0.0
 11
5.193917767103911
 21
7.581166710630924
 31
0.0
  0
ARC
  5
261D
330
2
100
AcDbEntity
  8
spacer1
 62
     7
100
AcDbCircle
 10
3.629417767103902
 20
7.601166710630927
 30
0.0
 40
0.02
100
AcDbArc
 50
180.0000000000024
 51
270.0
  0
ARC
  5
261E
330
2
100
AcDbEntity
  8
spacer1
 62
     7
100
AcDbCircle
 10
5.193917767103911
 20
7.601166710630927
 30
0.0
 40
0.02
100
AcDbArc
 50
270.0
 51
0.0
  0
LINE
  5
261F
330
2
100
AcDbEntity
  8
spacer1
 62
     7
100
AcDbLine
 10
5.273917767103903
 20
7.581166710630938
 30
0.0
 11
5.305917767103906
 21
7.581166710630938
 31
0.0
  0
LINE
  5
2620
330
2
100
AcDbEntity
  8
spacer1
 62
     7
100
AcDbLine
 10
5.385917767103904
 20
7.581166710630924
 30
0.0
 11
5.601917767103905
 21
7.581166710630938
 31
0.0
  0
LINE
  5
2621
330
2
100
AcDbEntity
  8
spacer1
 62
     7
100
AcDbLine
 10
5.273917767103903
 20
7.581166710630924
 30
0.0
 11
5.305917767103906
 21
7.581166710630924
 31
0.0
  0
LINE
  5
2622
330
2
100
AcDbEntity
  8
spacer1
 62
     7
100
AcDbLine
 10
5.385917767103904
 20
7.581166710630924
 30
0.0
 11
5.601917767103905
 21
7.581166710630924
 31
0.0
  0
ARC
  5
2623
330
2
100
AcDbEntity
  8
spacer1
 62
     7
100
AcDbCircle
 10
5.385917767103904
 20
7.601166710630927
 30
0.0
 40
0.02
100
AcDbArc
 50
180.0
 51
270.0
  0
ARC
  5
2624
330
2
100
AcDbEntity
  8
spacer1
 62
     7
100
AcDbCircle
 10
5.601917767103905
 20
7.601166710630927
 30
0.0
 40
0.02
100
AcDbArc
 50
270.0
 51
0.0
  0
LINE
  5
2625
330
2
100
AcDbEntity
  8
spacer1
 62
     7
100
AcDbLine
 10
5.305917767103906
 20
7.581166710630924
 30
0.0
 11
5.273917767103903
 21
7.581166710630924
 31
0.0
  0
ARC
  5
2626
330
2
100
AcDbEntity
  8
spacer1
 62
     7
100
AcDbCircle
 10
5.273917767103903
 20
7.601166710630927
 30
0.0
 40
0.02
100
AcDbArc
 50
180.0
 51
270.0
  0
LINE
  5
2627
330
2
100
AcDbEntity
  8
spacer1
 62
     7
100
AcDbLine
 10
5.374202038351363
 20
7.941166710630923
 30
0.0
 11
5.205633495856446
 21
7.941166710630923
 31
0.0
  0
ARC
  5
2628
330
2
100
AcDbEntity
  8
spacer1
 62
     7
100
AcDbCircle
 10
5.374202038351363
 20
7.961166710630926
 30
0.0
 40
0.02
100
AcDbArc
 50
270.0
 51
314.9999999999999
  0
LINE
  5
2629
330
2
100
AcDbEntity
  8
spacer1
 62
     7
100
AcDbLine
 10
5.35763349585644
 20
7.981166710630922
 30
0.0
 11
5.222202038351369
 21
7.981166710630922
 31
0.0
  0
ARC
  5
262A
330
2
100
AcDbEntity
  8
spacer1
 62
     7
100
AcDbCircle
 10
5.35763349585644
 20
8.001166710630918
 30
0.0
 40
0.02
100
AcDbArc
 50
270.0
 51
314.9999999999999
  0
LINE
  5
262B
330
2
100
AcDbEntity
  8
spacer1
 62
     7
100
AcDbLine
 10
5.233917767103918
 20
7.681166710630925
 30
0.0
 11
5.233917767103918
 21
7.681166710630925
 31
0.0
  0
ARC
  5
262C
330
2
100
AcDbEntity
  8
spacer1
 62
     7
100
AcDbCircle
 10
5.233917767103918
 20
7.661166710630922
 30
0.0
 40
0.02
100
AcDbArc
 50
0.0
 51
90.0
  0
ARC
  5
262D
330
2
100
AcDbEntity
  8
spacer1
 62
     7
100
AcDbCircle
 10
5.233917767103918
 20
7.661166710630922
 30
0.0
 40
0.02
100
AcDbArc
 50
90.0
 51
180.0
  0
LINE
  5
262E
330
2
100
AcDbEntity
  8
spacer1
 62
     7
100
AcDbLine
 10
3.5694177671039
 20
7.601166710630934
 30
0.0
 11
3.569417767103914
 21
7.686166710630928
 31
0.0
  0
ARC
  5
262F
330
2
100
AcDbEntity
  8
spacer1
 62
     7
100
AcDbCircle
 10
3.549417767103918
 20
7.686166710630928
 30
0.0
 40
0.02
100
AcDbArc
 50
359.9999999999976
 51
90.00000000000161
  0
LINE
  5
2630
330
2
100
AcDbEntity
  8
spacer1
 62
     7
100
AcDbLine
 10
3.609417767103906
 20
7.601166710630927
 30
0.0
 11
3.609417767103906
 21
7.694307083583254
 31
0.0
  0
LINE
  5
2631
330
2
100
AcDbEntity
  8
spacer1
 62
     7
100
AcDbLine
 10
5.325917767103902
 20
7.601166710630927
 30
0.0
 11
5.325917767103902
 21
7.661166710630922
 31
0.0
  0
ARC
  5
2632
330
2
100
AcDbEntity
  8
spacer1
 62
     7
100
AcDbCircle
 10
5.305917767103906
 20
7.601166710630927
 30
0.0
 40
0.02
100
AcDbArc
 50
270.0
 51
0.0
  0
LINE
  5
2633
330
2
100
AcDbEntity
  8
spacer1
 62
     7
100
AcDbLine
 10
5.365917767103908
 20
7.601166710630927
 30
0.0
 11
5.365917767103908
 21
7.661166710630922
 31
0.0
  0
ARC
  5
2634
330
2
100
AcDbEntity
  8
spacer1
 62
     7
100
AcDbCircle
 10
5.345917767103905
 20
7.661166710630922
 30
0.0
 40
0.02
100
AcDbArc
 50
0.0
 51
90.0
  0
LINE
  5
2635
330
2
100
AcDbEntity
  8
spacer1
 62
     7
100
AcDbLine
 10
5.253917767103914
 20
7.601166710630927
 30
0.0
 11
5.253917767103914
 21
7.661166710630922
 31
0.0
  0
LINE
  5
2636
330
2
100
AcDbEntity
  8
spacer1
 62
     7
100
AcDbLine
 10
5.213917767103914
 20
7.601166710630927
 30
0.0
 11
5.213917767103914
 21
7.661166710630922
 31
0.0
  0
LINE
  5
2637
330
2
100
AcDbEntity
  8
spacer1
 62
     7
100
AcDbLine
 10
5.345917767103905
 20
7.681166710630925
 30
0.0
 11
5.345917767103905
 21
7.681166710630925
 31
0.0
  0
ARC
  5
2638
330
2
100
AcDbEntity
  8
spacer1
 62
     7
100
AcDbCircle
 10
5.345917767103905
 20
7.661166710630922
 30
0.0
 40
0.02
100
AcDbArc
 50
90.0
 51
180.0
  0
LINE
  5
2639
330
2
100
AcDbEntity
  8
spacer1
 62
     7
100
AcDbLine
 10
2.6469177671039
 20
7.666166710630925
 30
0.0
 11
2.6469177671039
 21
7.666166710630925
 31
0.0
  0
ARC
  5
263A
330
2
100
AcDbEntity
  8
spacer1
 62
     7
100
AcDbCircle
 10
2.666917767103903
 20
7.666166710630925
 30
0.0
 40
0.02
100
AcDbArc
 50
89.99999999999836
 51
180.0
  0
ARC
  5
263B
330
2
100
AcDbEntity
  8
spacer1
 62
     7
100
AcDbCircle
 10
2.666917767103903
 20
7.666166710630925
 30
0.0
 40
0.02
100
AcDbArc
 50
180.0
 51
270.0
  0
ARC
  5
263C
330
2
100
AcDbEntity
  8
spacer1
 62
     7
100
AcDbCircle
 10
2.706917767103902
 20
6.811166710630914
 30
0.0
 40
0.02
100
AcDbArc
 50
180.0
 51
270.0
  0
LINE
  5
263D
330
2
100
AcDbEntity
  8
spacer1
 62
     7
100
AcDbLine
 10
2.726917767103913
 20
7.226166710630927
 30
0.0
 11
2.726917767103913
 21
6.851166710630927
 31
0.0
  0
ARC
  5
263E
330
2
100
AcDbEntity
  8
spacer1
 62
     7
100
AcDbCircle
 10
2.746917767103909
 20
7.306166710630918
 30
0.0
 40
0.02
100
AcDbArc
 50
180.0
 51
270.0
  0
ARC
  5
263F
330
2
100
AcDbEntity
  8
spacer1
 62
     7
100
AcDbCircle
 10
2.746917767103909
 20
6.851166710630927
 30
0.0
 40
0.02
100
AcDbArc
 50
180.0000000000004
 51
270.0
  0
LINE
  5
2640
330
2
100
AcDbEntity
  8
spacer1
 62
     7
100
AcDbLine
 10
5.661917767103901
 20
8.021166710630922
 30
0.0
 11
5.661917767103901
 21
7.791166710630925
 31
0.0
  0
ARC
  5
2641
330
2
100
AcDbEntity
  8
silicone
 62
     7
100
AcDbCircle
 10
5.681917767103904
 20
7.791166710630925
 30
0.0
 40
0.02
100
AcDbArc
 50
180.0
 51
270.0
  0
LINE
  5
2642
330
2
100
AcDbEntity
  8
spacer1
 62
     7
100
AcDbLine
 10
5.701917767103907
 20
7.751166710630918
 30
0.0
 11
5.701917767103907
 21
7.751166710630926
 31
0.0
  0
ARC
  5
2643
330
2
100
AcDbEntity
  8
spacer1
 62
     7
100
AcDbCircle
 10
5.641917767103905
 20
7.561166710630928
 30
0.0
 40
0.02
100
AcDbArc
 50
270.0
 51
0.0
  0
LINE
  5
2644
330
2
100
AcDbEntity
  8
spacer1
 62
     7
100
AcDbLine
 10
5.621917767103909
 20
7.981166710630922
 30
0.0
 11
5.621917767103909
 21
7.601166710630927
 31
0.0
  0
LINE
  5
2645
330
2
100
AcDbEntity
  8
spacer1
 62
     7
100
AcDbLine
 10
2.845667767103918
 20
7.386166710630917
 30
0.0
 11
2.845667767103918
 21
7.386166710630917
 31
0.0
  0
ARC
  5
2646
330
2
100
AcDbEntity
  8
spacer1
 62
     7
100
AcDbCircle
 10
2.845667767103918
 20
7.366166710630913
 30
0.0
 40
0.02
100
AcDbArc
 50
90.0
 51
180.0
  0
ARC
  5
2647
330
2
100
AcDbEntity
  8
spacer1
 62
     7
100
AcDbCircle
 10
2.845667767103918
 20
7.366166710630913
 30
0.0
 40
0.02
100
AcDbArc
 50
0.0
 51
90.0
  0
LINE
  5
2648
330
2
100
AcDbEntity
  8
spacer1
 62
     7
100
AcDbLine
 10
2.977667767103923
 20
7.266166710630926
 30
0.0
 11
2.977667767103923
 21
7.366166710630913
 31
0.0
  0
LINE
  5
2649
330
2
100
AcDbEntity
  8
spacer1
 62
     7
100
AcDbLine
 10
2.937667767103924
 20
7.306166710630918
 30
0.0
 11
2.937667767103924
 21
7.366166710630913
 31
0.0
  0
ARC
  5
264A
330
2
100
AcDbEntity
  8
spacer1
 62
     7
100
AcDbCircle
 10
2.917667767103921
 20
7.306166710630918
 30
0.0
 40
0.02
100
AcDbArc
 50
270.0
 51
0.0
  0
LINE
  5
264B
330
2
100
AcDbEntity
  8
spacer1
 62
     7
100
AcDbLine
 10
2.865667767103921
 20
7.306166710630918
 30
0.0
 11
2.865667767103921
 21
7.366166710630913
 31
0.0
  0
LINE
  5
264C
330
2
100
AcDbEntity
  8
spacer1
 62
     7
100
AcDbLine
 10
2.825667767103922
 20
7.306166710630918
 30
0.0
 11
2.825667767103922
 21
7.366166710630913
 31
0.0
  0
ARC
  5
264D
330
2
100
AcDbEntity
  8
spacer1
 62
     7
100
AcDbCircle
 10
2.957667767103927
 20
7.266166710630926
 30
0.0
 40
0.02
100
AcDbArc
 50
270.0000000000008
 51
0.0
  0
LINE
  5
264E
330
2
100
AcDbEntity
  8
spacer1
 62
     7
100
AcDbLine
 10
2.957667767103927
 20
7.386166710630917
 30
0.0
 11
2.957667767103927
 21
7.386166710630917
 31
0.0
  0
ARC
  5
264F
330
2
100
AcDbEntity
  8
spacer1
 62
     7
100
AcDbCircle
 10
2.957667767103927
 20
7.366166710630913
 30
0.0
 40
0.02
100
AcDbArc
 50
90.0
 51
180.0
  0
ARC
  5
2650
330
2
100
AcDbEntity
  8
spacer1
 62
     7
100
AcDbCircle
 10
2.957667767103927
 20
7.366166710630913
 30
0.0
 40
0.02
100
AcDbArc
 50
0.0
 51
90.0
  0
LINE
  5
2651
330
2
100
AcDbEntity
  8
spacer1
 62
     7
100
AcDbLine
 10
2.746917767103909
 20
6.831166710630924
 30
0.0
 11
3.064417767103904
 21
6.831166710630924
 31
0.0
  0
ARC
  5
2652
330
2
100
AcDbEntity
  8
spacer1
 62
     7
100
AcDbCircle
 10
3.064417767103904
 20
6.851166710630927
 30
0.0
 40
0.02
100
AcDbArc
 50
270.0
 51
0.0
  0
LINE
  5
2653
330
2
100
AcDbEntity
  8
tape
 62
     7
100
AcDbLine
 10
2.374417767103913
 20
7.416166710630925
 30
0.0
 11
2.374417767103906
 21
7.916166710630925
 31
0.0
  0
LINE
  5
2654
330
2
100
AcDbEntity
  8
tape
 62
     7
100
AcDbLine
 10
2.436917767103906
 20
7.916166710630925
 30
0.0
 11
2.436917767103913
 21
7.416166710630925
 31
0.0
  0
LINE
  5
2655
330
2
100
AcDbEntity
  8
tape
 62
     7
100
AcDbLine
 10
2.436917767103906
 20
7.916166710630925
 30
0.0
 11
2.374417767103906
 21
7.916166710630925
 31
0.0
  0
LINE
  5
2656
330
2
100
AcDbEntity
  8
tape
 62
     7
100
AcDbLine
 10
2.436917767103913
 20
7.416166710630925
 30
0.0
 11
2.374417767103913
 21
7.416166710630925
 31
0.0
  0
LINE
  5
2657
330
2
100
AcDbEntity
  8
silicone
 62
     7
100
AcDbLine
 10
2.374417767103906
 20
6.791166710630925
 30
0.0
 11
2.686917767103906
 21
6.791166710630925
 31
0.0
  0
LINE
  5
2658
330
2
100
AcDbEntity
  8
structural tape
 62
     7
100
AcDbLine
 10
2.436917767103906
 20
7.251166710630918
 30
0.0
 11
2.436917767103906
 21
7.626166710630926
 31
0.0
  0
LINE
  5
2659
330
2
100
AcDbEntity
  8
structural tape
 62
     7
100
AcDbLine
 10
2.686917767103906
 20
7.251166710630918
 30
0.0
 11
2.686917767103906
 21
7.626166710630926
 31
0.0
  0
LINE
  5
265A
330
2
100
AcDbEntity
  8
silicone
 62
     7
100
AcDbLine
 10
2.374417767103906
 20
6.791166710630925
 30
0.0
 11
2.374417767103906
 21
7.416166710630925
 31
0.0
  0
LINE
  5
265B
330
2
100
AcDbEntity
  8
silicone
 62
     7
100
AcDbLine
 10
2.686917767103906
 20
7.171166710630913
 30
0.0
 11
2.686917767103906
 21
6.791166710630925
 31
0.0
  0
LINE
  5
265C
330
2
100
AcDbEntity
  8
tape
 62
     7
100
AcDbLine
 10
5.974417767103901
 20
7.853666710630925
 30
0.0
 11
5.974417767103901
 21
8.353666710630925
 31
0.0
  0
LINE
  5
265D
330
2
100
AcDbEntity
  8
tape
 62
     7
100
AcDbLine
 10
5.911917767103901
 20
8.353666710630925
 30
0.0
 11
5.911917767103901
 21
7.853666710630925
 31
0.0
  0
LINE
  5
265E
330
2
100
AcDbEntity
  8
tape
 62
     7
100
AcDbLine
 10
5.911917767103901
 20
7.853666710630925
 30
0.0
 11
5.974417767103901
 21
7.853666710630925
 31
0.0
  0
LINE
  5
265F
330
2
100
AcDbEntity
  8
tape
 62
     7
100
AcDbLine
 10
5.911917767103901
 20
8.353666710630925
 30
0.0
 11
5.974417767103901
 21
8.353666710630925
 31
0.0
  0
LINE
  5
2660
330
2
100
AcDbEntity
  8
silicone
 62
     7
100
AcDbLine
 10
5.974417767103901
 20
7.541166710630925
 30
0.0
 11
5.661917767103901
 21
7.541166710630925
 31
0.0
  0
LINE
  5
2661
330
2
100
AcDbEntity
  8
silicone
 62
     7
100
AcDbLine
 10
5.974417767103901
 20
7.791166710630925
 30
0.0
 11
5.661917767103901
 21
7.791166710630925
 31
0.0
  0
LINE
  5
2662
330
2
100
AcDbEntity
  8
structural tape
 62
     7
100
AcDbLine
 10
5.911917767103901
 20
7.791166710630925
 30
0.0
 11
5.661917767103901
 21
7.791166710630925
 31
0.0
  0
LINE
  5
2663
330
2
100
AcDbEntity
  8
structural tape
 62
     7
100
AcDbLine
 10
5.911917767103901
 20
8.041166710630925
 30
0.0
 11
5.661917767103901
 21
8.041166710630925
 31
0.0
  0
LINE
  5
2664
330
2
100
AcDbEntity
  8
structural tape
 62
     7
100
AcDbLine
 10
5.911917767103901
 20
7.791166710630925
 30
0.0
 11
5.911917767103901
 21
8.041166710630925
 31
0.0
  0
LINE
  5
2665
330
2
100
AcDbEntity
  8
structural tape
 62
     7
100
AcDbLine
 10
5.661917767103901
 20
7.791166710630925
 30
0.0
 11
5.661917767103901
 21
8.041166710630925
 31
0.0
  0
LINE
  5
2666
330
2
100
AcDbEntity
  8
silicone
 62
     7
100
AcDbLine
 10
5.974417767103901
 20
7.541166710630925
 30
0.0
 11
5.974417767103901
 21
7.853666710630925
 31
0.0
  0
LINE
  5
2667
330
2
100
AcDbEntity
  8
silicone
 62
     7
100
AcDbLine
 10
5.661917767103901
 20
7.711166710630912
 30
0.0
 11
5.661917767103901
 21
7.541166710630925
 31
0.0
  0
LINE
  5
2668
330
2
100
AcDbEntity
  8
spacer1
 62
     7
100
AcDbLine
 10
5.434202038351372
 20
8.041166710630925
 30
0.0
 11
5.641917767103905
 21
8.041166710630925
 31
0.0
  0
ARC
  5
2669
330
2
100
AcDbEntity
  8
spacer1
 62
     7
100
AcDbCircle
 10
5.641917767103905
 20
8.021166710630922
 30
0.0
 40
0.02
100
AcDbArc
 50
0.0
 51
90.0
  0
ARC
  5
266A
330
2
100
AcDbEntity
  8
spacer1
 62
     7
100
AcDbCircle
 10
5.434202038351372
 20
8.021166710630922
 30
0.0
 40
0.02
100
AcDbArc
 50
90.0
 51
134.9999999999999
  0
LINE
  5
266B
330
2
100
AcDbEntity
  8
spacer1
 62
     7
100
AcDbLine
 10
5.159775631480172
 20
8.035308846254665
 30
0.0
 11
5.20805990272764
 21
7.987024575007197
 31
0.0
  0
ARC
  5
266C
330
2
100
AcDbEntity
  8
spacer1
 62
     7
100
AcDbCircle
 10
5.222202038351369
 20
8.001166710630918
 30
0.0
 40
0.02
100
AcDbArc
 50
225.0
 51
270.0
  0
LINE
  5
266D
330
2
100
AcDbEntity
  8
spacer1
 62
     7
100
AcDbLine
 10
5.143207088985256
 20
7.995308846254658
 30
0.0
 11
5.191491360232724
 21
7.947024575007198
 31
0.0
  0
ARC
  5
266E
330
2
100
AcDbEntity
  8
spacer1
 62
     7
100
AcDbCircle
 10
5.205633495856446
 20
7.961166710630926
 30
0.0
 40
0.02
100
AcDbArc
 50
225.0
 51
270.0
  0
LINE
  5
266F
330
2
100
AcDbEntity
  8
spacer1
 62
     7
100
AcDbLine
 10
5.420059902727643
 20
8.035308846254665
 30
0.0
 11
5.371775631480176
 21
7.987024575007197
 31
0.0
  0
LINE
  5
2670
330
2
100
AcDbEntity
  8
spacer1
 62
     7
100
AcDbLine
 10
5.436628445222567
 20
7.995308846254658
 30
0.0
 11
5.388344173975099
 21
7.947024575007198
 31
0.0
  0
LINE
  5
2671
330
2
100
AcDbEntity
  8
spacer1
 62
     7
100
AcDbLine
 10
4.959896713572931
 20
8.000720184598307
 30
0.0
 11
3.625215189822398
 21
7.713860557550638
 31
0.0
  0
ARC
  5
2672
330
2
100
AcDbEntity
  8
spacer1
 62
     7
100
AcDbCircle
 10
3.629417767103902
 20
7.694307083583254
 30
0.0
 40
0.02
100
AcDbArc
 50
102.1299041131873
 51
180.0000000000024
  0
ARC
  5
2673
330
2
100
AcDbEntity
  8
spacer1
 62
     7
100
AcDbCircle
 10
4.964099290854449
 20
7.981166710630922
 30
0.0
 40
0.02
100
AcDbArc
 50
90.0
 51
102.1299041131878
  0
LINE
  5
2674
330
2
100
AcDbEntity
  8
spacer1
 62
     7
100
AcDbLine
 10
4.95564669266708
 20
8.040720184598306
 30
0.0
 11
3.587245313026627
 21
7.746613236663542
 31
0.0
  0
ARC
  5
2675
330
2
100
AcDbEntity
  8
spacer1
 62
     7
100
AcDbCircle
 10
4.959849269948591
 20
8.021166710630922
 30
0.0
 40
0.02
100
AcDbArc
 50
90.0
 51
102.1299041131878
  0
ARC
  5
2676
330
2
100
AcDbEntity
  8
spacer1
 62
     7
100
AcDbCircle
 10
3.583042735745124
 20
7.766166710630926
 30
0.0
 40
0.02
100
AcDbArc
 50
270.0000000000004
 51
282.1299041131878
  0
LINE
  5
2677
330
2
100
AcDbEntity
  8
silicone
 62
     7
100
AcDbLine
 10
2.436917767103913
 20
7.416166710630925
 30
0.0
 11
2.436917767103913
 21
7.251166710630918
 31
0.0
  0
LINE
  5
2678
330
2
100
AcDbEntity
  8
silicone
 62
     7
100
AcDbLine
 10
2.436917767103906
 20
7.416166710630925
 30
0.0
 11
2.374417767103906
 21
7.416166710630925
 31
0.0
  0
LINE
  5
2679
330
2
100
AcDbEntity
  8
hc1
 62
     7
100
AcDbLine
 10
3.549417767103903
 20
7.766166710630933
 30
0.0
 11
2.436917767103913
 21
7.766166710630933
 31
0.0
  0
LINE
  5
267A
330
2
100
AcDbEntity
  8
hc1
  6
HIDDEN
 62
     7
 48
3.0
100
AcDbLine
 10
3.549417767103903
 20
8.016166710630933
 30
0.0
 11
2.374417767103906
 21
8.016166710630926
 31
0.0
  0
LINE
  5
267B
330
2
100
AcDbEntity
  8
hc1
  6
HIDDEN
 62
     7
 48
3.0
100
AcDbLine
 10
3.549417767103903
 20
8.266166710630933
 30
0.0
 11
2.374417767103906
 21
8.266166710630926
 31
0.0
  0
LINE
  5
267C
330
2
100
AcDbEntity
  8
hc1
 62
     7
100
AcDbLine
 10
3.549417767103903
 20
8.516166710630933
 30
0.0
 11
2.374417767103906
 21
8.516166710630933
 31
0.0
  0
LINE
  5
267D
330
2
100
AcDbEntity
  8
hc1
  6
HIDDEN
 62
     7
 48
3.0
100
AcDbLine
 10
3.549417767103903
 20
8.766166710630933
 30
0.0
 11
2.374417767103906
 21
8.766166710630933
 31
0.0
  0
LINE
  5
267E
330
2
100
AcDbEntity
  8
hc1
  6
HIDDEN
 62
     7
 48
3.0
100
AcDbLine
 10
3.549417767103903
 20
9.016166710630933
 30
0.0
 11
2.374417767103906
 21
9.016166710630933
 31
0.0
  0
LINE
  5
267F
330
2
100
AcDbEntity
  8
hc1
 62
     7
100
AcDbLine
 10
3.549417767103903
 20
9.266166710630933
 30
0.0
 11
2.374417767103906
 21
9.266166710630933
 31
0.0
  0
LINE
  5
2680
330
2
100
AcDbEntity
  8
hc1
  6
HIDDEN
 62
     7
 48
3.0
100
AcDbLine
 10
3.549417767103903
 20
9.516166710630933
 30
0.0
 11
2.374417767103906
 21
9.516166710630933
 31
0.0
  0
LINE
  5
2681
330
2
100
AcDbEntity
  8
hc1
  6
HIDDEN
 62
     7
 48
3.0
100
AcDbLine
 10
3.549417767103903
 20
9.766166710630933
 30
0.0
 11
2.374417767103906
 21
9.766166710630933
 31
0.0
  0
LINE
  5
2683
330
2
100
AcDbEntity
  8
spacer1
 62
     7
100
AcDbLine
 10
2.885667767103925
 20
7.286166710630915
 30
0.0
 11
2.917667767103921
 21
7.286166710630915
 31
0.0
  0
ARC
  5
2684
330
2
100
AcDbEntity
  8
spacer1
 62
     7
100
AcDbCircle
 10
2.885667767103925
 20
7.306166710630918
 30
0.0
 40
0.02
100
AcDbArc
 50
180.0
 51
270.0
  0
LINE
  5
2685
330
2
100
AcDbEntity
  8
spacer1
 62
     7
100
AcDbLine
 10
2.977667767103923
 20
7.706166710630917
 30
0.0
 11
2.977667767103923
 21
7.706166710630917
 31
0.0
  0
ARC
  5
2686
330
2
100
AcDbEntity
  8
spacer1
 62
     7
100
AcDbCircle
 10
2.957667767103927
 20
7.706166710630917
 30
0.0
 40
0.02
100
AcDbArc
 50
270.0
 51
0.0
  0
LINE
  5
2687
330
2
100
AcDbEntity
  8
spacer1
 62
     7
100
AcDbLine
 10
3.017667767103922
 20
7.666166710630918
 30
0.0
 11
3.017667767103922
 21
7.666166710630918
 31
0.0
  0
ARC
  5
2688
330
2
100
AcDbEntity
  8
spacer1
 62
     7
100
AcDbCircle
 10
2.997667767103919
 20
7.666166710630918
 30
0.0
 40
0.02
100
AcDbArc
 50
270.0000000000008
 51
0.0
  0
LINE
  5
2689
330
2
100
AcDbEntity
  8
spacer1
 62
     7
100
AcDbLine
 10
2.957667767103927
 20
7.686166710630914
 30
0.0
 11
2.666917767103903
 21
7.686166710630928
 31
0.0
  0
LINE
  5
268A
330
2
100
AcDbEntity
  8
spacer1
 62
     7
100
AcDbLine
 10
2.666917767103903
 20
7.231166710630922
 30
0.0
 11
2.666917767103903
 21
7.231166710630922
 31
0.0
  0
ARC
  5
268B
330
2
100
AcDbEntity
  8
spacer1
 62
     7
100
AcDbCircle
 10
2.666917767103903
 20
7.251166710630926
 30
0.0
 40
0.02
100
AcDbArc
 50
269.9999999999984
 51
359.9999999999996
  0
LINE
  5
268C
330
2
100
AcDbEntity
  8
spacer1
 62
     7
100
AcDbLine
 10
2.666917767103903
 20
7.191166710630923
 30
0.0
 11
2.666917767103903
 21
7.191166710630923
 31
0.0
  0
LINE
  5
268D
330
2
100
AcDbEntity
  8
spacer1
 62
     7
100
AcDbLine
 10
2.793667767103926
 20
7.686166710630928
 30
0.0
 11
2.793667767103926
 21
7.686166710630928
 31
0.0
  0
LINE
  5
268E
330
2
100
AcDbEntity
  8
spacer1
 62
     7
100
AcDbLine
 10
3.017667767103922
 20
7.666166710630918
 30
0.0
 11
3.017667767103922
 21
7.686166710630928
 31
0.0
  0
ARC
  5
268F
330
2
100
AcDbEntity
  8
spacer1
 62
     7
100
AcDbCircle
 10
3.037667767103926
 20
7.686166710630928
 30
0.0
 40
0.02
100
AcDbArc
 50
90.00000000000081
 51
180.0
  0
LINE
  5
2690
330
2
100
AcDbEntity
  8
spacer1
 62
     7
100
AcDbLine
 10
2.977667767103923
 20
7.706166710630917
 30
0.0
 11
2.977667767103923
 21
7.726166710630913
 31
0.0
  0
ARC
  5
2691
330
2
100
AcDbEntity
  8
spacer1
 62
     7
100
AcDbCircle
 10
2.997667767103919
 20
7.726166710630913
 30
0.0
 40
0.02
100
AcDbArc
 50
90.0000000000004
 51
180.0
  0
LINE
  5
2692
330
2
100
AcDbEntity
  8
hc1
 62
     7
100
AcDbLine
 10
3.549417767103918
 20
10.01616671063093
 30
0.0
 11
3.549417767103903
 21
7.766166710630933
 31
0.0
  0
LINE
  5
2694
330
2
100
AcDbEntity
  8
hc1
 62
     7
100
AcDbLine
 10
5.911917767103901
 20
8.061166710630928
 30
0.0
 11
3.549417767103918
 21
8.061166710630935
 31
0.0
  0
LINE
  5
2695
330
2
100
AcDbEntity
  8
hc1
  6
HIDDEN
 62
     7
 48
3.0
100
AcDbLine
 10
5.911917767103901
 20
8.311166710630928
 30
0.0
 11
3.549417767103918
 21
8.311166710630935
 31
0.0
  0
LINE
  5
2696
330
2
100
AcDbEntity
  8
hc1
  6
HIDDEN
 62
     7
 48
3.0
100
AcDbLine
 10
5.974417767103901
 20
8.561166710630928
 30
0.0
 11
3.549417767103918
 21
8.561166710630935
 31
0.0
  0
LINE
  5
2697
330
2
100
AcDbEntity
  8
hc1
 62
     7
100
AcDbLine
 10
5.974417767103901
 20
8.811166710630928
 30
0.0
 11
3.549417767103918
 21
8.811166710630935
 31
0.0
  0
LINE
  5
2698
330
2
100
AcDbEntity
  8
hc1
  6
HIDDEN
 62
     7
 48
3.0
100
AcDbLine
 10
5.974417767103901
 20
9.061166710630928
 30
0.0
 11
3.549417767103918
 21
9.061166710630935
 31
0.0
  0
LINE
  5
2699
330
2
100
AcDbEntity
  8
hc1
  6
HIDDEN
 62
     7
 48
3.0
100
AcDbLine
 10
5.974417767103901
 20
9.311166710630914
 30
0.0
 11
3.549417767103918
 21
9.311166710630935
 31
0.0
  0
LINE
  5
269A
330
2
100
AcDbEntity
  8
hc1
 62
     7
100
AcDbLine
 10
5.974417767103901
 20
9.561166710630928
 30
0.0
 11
3.549417767103918
 21
9.561166710630935
 31
0.0
  0
LINE
  5
269B
330
2
100
AcDbEntity
  8
hc1
  6
HIDDEN
 62
     7
 48
3.0
100
AcDbLine
 10
5.974417767103901
 20
9.811166710630935
 30
0.0
 11
3.549417767103918
 21
9.811166710630935
 31
0.0
  0
LINE
  5
269E
330
2
100
AcDbEntity
  8
structural tape
 62
     7
100
AcDbLine
 10
2.686917767103906
 20
7.626166710630926
 30
0.0
 11
2.436917767103906
 21
7.626166710630926
 31
0.0
  0
LINE
  5
269F
330
2
100
AcDbEntity
  8
structural tape
 62
     7
100
AcDbLine
 10
2.686917767103906
 20
7.251166710630918
 30
0.0
 11
2.436917767103906
 21
7.251166710630918
 31
0.0
  0
LINE
  5
26A0
330
2
100
AcDbEntity
  8
spacer1
 62
     7
100
AcDbLine
 10
2.746917767103909
 20
7.646166710630915
 30
0.0
 11
2.997667767103919
 21
7.646166710630915
 31
0.0
  0
ARC
  5
26A1
330
2
100
AcDbEntity
  8
spacer1
 62
     7
100
AcDbCircle
 10
2.746917767103909
 20
7.626166710630926
 30
0.0
 40
0.02
100
AcDbArc
 50
90.0
 51
180.0
  0
LINE
  5
26A2
330
2
100
AcDbEntity
  8
spacer1
 62
     7
100
AcDbLine
 10
2.686917767103906
 20
7.171166710630913
 30
0.0
 11
2.686917767103906
 21
6.811166710630914
 31
0.0
  0
ARC
  5
26A3
330
2
100
AcDbEntity
  8
spacer1
 62
     7
100
AcDbCircle
 10
2.666917767103903
 20
7.171166710630913
 30
0.0
 40
0.02
100
AcDbArc
 50
0.0
 51
89.99999999999836
  0
LINE
  5
26A4
330
2
100
AcDbEntity
  8
spacer1
 62
     7
100
AcDbLine
 10
2.6469177671039
 20
7.211166710630912
 30
0.0
 11
2.6469177671039
 21
7.211166710630926
 31
0.0
  0
ARC
  5
26A5
330
2
100
AcDbEntity
  8
spacer1
 62
     7
100
AcDbCircle
 10
2.666917767103903
 20
7.211166710630912
 30
0.0
 40
0.02
100
AcDbArc
 50
89.99999999999836
 51
179.9999999999996
  0
ARC
  5
26A6
330
2
100
AcDbEntity
  8
spacer1
 62
     7
100
AcDbCircle
 10
2.666917767103903
 20
7.211166710630926
 30
0.0
 40
0.02
100
AcDbArc
 50
179.9999999999996
 51
269.9999999999984
  0
LINE
  5
26A7
330
2
100
AcDbEntity
  8
spacer1
 62
     7
100
AcDbLine
 10
2.686917767103906
 20
7.626166710630926
 30
0.0
 11
2.686917767103906
 21
7.251166710630926
 31
0.0
  0
LINE
  5
26A8
330
2
100
AcDbEntity
  8
spacer1
 62
     7
100
AcDbLine
 10
2.726917767103905
 20
7.306166710630918
 30
0.0
 11
2.726917767103905
 21
7.626166710630926
 31
0.0
  0
LINE
  5
26A9
330
2
100
AcDbEntity
  8
spacer1
 62
     7
100
AcDbLine
 10
5.681917767103904
 20
7.771166710630922
 30
0.0
 11
5.681917767103904
 21
7.771166710630922
 31
0.0
  0
ARC
  5
26AA
330
2
100
AcDbEntity
  8
spacer1
 62
     7
100
AcDbCircle
 10
5.681917767103904
 20
7.751166710630918
 30
0.0
 40
0.02
100
AcDbArc
 50
0.0
 51
90.0
  0
LINE
  5
26AB
330
2
100
AcDbEntity
  8
spacer1
 62
     7
100
AcDbLine
 10
5.681917767103904
 20
7.731166710630922
 30
0.0
 11
5.681917767103904
 21
7.731166710630922
 31
0.0
  0
ARC
  5
26AC
330
2
100
AcDbEntity
  8
spacer1
 62
     7
100
AcDbCircle
 10
5.681917767103904
 20
7.751166710630926
 30
0.0
 40
0.02
100
AcDbArc
 50
270.0
 51
0.0
  0
LINE
  5
26AD
330
2
100
AcDbEntity
  8
spacer1
 62
     7
100
AcDbLine
 10
5.661917767103901
 20
7.561166710630928
 30
0.0
 11
5.661917767103901
 21
7.711166710630912
 31
0.0
  0
ARC
  5
26AE
330
2
100
AcDbEntity
  8
spacer1
 62
     7
100
AcDbCircle
 10
5.681917767103904
 20
7.711166710630912
 30
0.0
 40
0.02
100
AcDbArc
 50
90.0
 51
180.0
  0
ARC
  5
26AF
330
2
100
AcDbEntity
  8
silicone
 62
     7
100
AcDbCircle
 10
2.666917767103903
 20
7.251166710630926
 30
0.0
 40
0.02
100
AcDbArc
 50
269.9999999999984
 51
359.9999999999996
  0
ARC
  5
26B0
330
2
100
AcDbEntity
  8
silicone
 62
     7
100
AcDbCircle
 10
2.666917767103903
 20
7.171166710630913
 30
0.0
 40
0.02
100
AcDbArc
 50
0.0
 51
89.99999999999836
  0
ARC
  5
26B1
330
2
100
AcDbEntity
  8
silicone
 62
     7
100
AcDbCircle
 10
2.666917767103903
 20
7.211166710630912
 30
0.0
 40
0.02
100
AcDbArc
 50
89.99999999999836
 51
179.9999999999996
  0
ARC
  5
26B2
330
2
100
AcDbEntity
  8
silicone
 62
     7
100
AcDbCircle
 10
2.666917767103903
 20
7.211166710630926
 30
0.0
 40
0.02
100
AcDbArc
 50
179.9999999999996
 51
269.9999999999984
  0
LINE
  5
26B3
330
2
100
AcDbEntity
  8
silicone
 62
     7
100
AcDbLine
 10
2.686917767103906
 20
7.251166710630926
 30
0.0
 11
2.436917767103913
 21
7.251166710630918
 31
0.0
  0
ARC
  5
26B4
330
2
100
AcDbEntity
  8
spacer1
 62
     7
100
AcDbCircle
 10
5.681917767103904
 20
7.791166710630925
 30
0.0
 40
0.02
100
AcDbArc
 50
180.0
 51
270.0
  0
ARC
  5
26B5
330
2
100
AcDbEntity
  8
silicone
 62
     7
100
AcDbCircle
 10
5.681917767103904
 20
7.751166710630918
 30
0.0
 40
0.02
100
AcDbArc
 50
0.0
 51
90.0
  0
ARC
  5
26B6
330
2
100
AcDbEntity
  8
silicone
 62
     7
100
AcDbCircle
 10
5.681917767103904
 20
7.751166710630926
 30
0.0
 40
0.02
100
AcDbArc
 50
270.0
 51
0.0
  0
ARC
  5
26B7
330
2
100
AcDbEntity
  8
silicone
 62
     7
100
AcDbCircle
 10
5.681917767103904
 20
7.711166710630912
 30
0.0
 40
0.02
100
AcDbArc
 50
90.0
 51
180.0
  0
LINE
  5
26C6
330
2
100
AcDbEntity
  8
0
 62
     7
100
AcDbLine
 10
1.0778542335036
 20
10.01616671063093
 30
0.0
 11
4.213840058559625
 21
10.01616671063093
 31
0.0
  0
LINE
  5
26C7
330
2
100
AcDbEntity
  8
0
 62
     7
100
AcDbLine
 10
4.539236277241897
 20
9.994499930403955
 30
0.0
 11
7.168109312362275
 21
9.994499930403955
 31
0.0
  0
LINE
  5
26C8
330
2
100
AcDbEntity
  8
0
 62
     7
100
AcDbLine
 10
4.105374810453653
 20
10.12450010101583
 30
0.0
 11
4.213840058559625
 21
10.01616671063093
 31
0.0
  0
LINE
  5
26C9
330
2
100
AcDbEntity
  8
0
 62
     7
100
AcDbLine
 10
4.669394669841935
 20
9.88616628464403
 30
0.0
 11
4.105374810453653
 21
10.12450010101583
 31
0.0
  0
LINE
  5
26CA
330
2
100
AcDbEntity
  8
0
 62
     7
100
AcDbLine
 10
4.539236277241897
 20
9.994499930403955
 30
0.0
 11
4.669394669841935
 21
9.88616628464403
 31
0.0
  0
TEXT
  5
26D4
330
2
100
AcDbEntity
  8
DIM
100
AcDbText
 10
5.856900837599049
 20
2.973041916444318
 30
0.0
 40
0.1125
  1
3/4"[19MM] PLUS GLASS THICKNESS
 41
0.8
  7
ADESK1
100
AcDbText
  0
LINE
  5
26D5
330
2
100
AcDbEntity
  8
DIM
100
AcDbLine
 10
2.13866254140391
 20
6.666633631818747
 30
-12.121909
 11
2.13866254140391
 21
5.826690079456692
 31
-12.121909
  0
LINE
  5
26D6
330
2
100
AcDbEntity
  8
DIM
100
AcDbLine
 10
3.124417767103906
 20
6.666633631818747
 30
0.0
 11
3.124417767103906
 21
5.826690079456692
 31
0.0
  0
LINE
  5
26D7
330
2
100
AcDbEntity
  8
DIM
100
AcDbLine
 10
2.13866254140391
 20
5.951690079456692
 30
-12.121909
 11
3.124417767103906
 21
5.951690079456692
 31
0.0
  0
INSERT
  5
26D8
330
2
100
AcDbEntity
  8
DIM
100
AcDbBlockReference
  2
_ARCHTICK
 10
2.13866254140391
 20
5.951690079456692
 30
-12.121909
 41
0.125
 42
0.125
 43
0.125
 50
180.0
  0
INSERT
  5
26D9
330
2
100
AcDbEntity
  8
DIM
100
AcDbBlockReference
  2
_ARCHTICK
 10
3.124417767103906
 20
5.951690079456692
 30
0.0
 41
0.125
 42
0.125
 43
0.125
  0
MTEXT
  5
26DA
330
2
100
AcDbEntity
  8
DIM
100
AcDbMText
 10
2.654548458582048
 20
5.689938292539025
 30
-12.121909
 40
0.125
 41
0.0
 71
     5
 72
     1
  1
SEE NOTE 3
 73
     1
 44
1.0
1001
ACAD
1000
MTEXTBEGIN
1070
    73
1070
     1
1070
    44
1040
1.0
1070
    74
1070
     0
1000
MTEXTEND
  0
LINE
  5
26DC
330
2
100
AcDbEntity
  8
glass
 62
     7
100
AcDbLine
 10
2.138417767103909
 20
6.791166710630925
 30
0.0
 11
2.138417767103909
 21
10.01616671063093
 31
0.0
  0
LINE
  5
26DD
330
2
100
AcDbEntity
  8
glass
 62
     7
100
AcDbLine
 10
6.210417767103898
 20
7.541166710630925
 30
0.0
 11
6.210417767103905
 21
9.994499930403955
 31
0.0
  0
HATCH
  5
26E8
330
2
100
AcDbEntity
  8
0
370
     0
100
AcDbHatch
 10
0.0
 20
0.0
 30
0.0
210
0.0
220
0.0
230
1.0
  2
ANSI31
 70
     0
 71
     0
 91
        1
 92
        7
 72
     1
 73
     1
 93
        9
 10
5.974417767103901
 20
7.541166710630927
 42
0.0
 10
5.974417767103901
 20
7.791166710630925
 42
0.0
 10
5.661917767103901
 20
7.791166710630925
 42
0.4142135623731473
 10
5.681917767103904
 20
7.771166710630922
 42
-0.4142135623731473
 10
5.701917767103907
 20
7.751166710630918
 42
-0.4142135623729911
 10
5.681917767103904
 20
7.731166710630926
 42
0.4142135623733032
 10
5.661917767103901
 20
7.711166710630912
 42
0.0
 10
5.661917767103901
 20
7.561166710630928
 42
0.0
 10
5.661917767103901
 20
7.541166710630925
 42
0.0
 97
        0
 75
     0
 76
     1
 52
0.0
 41
0.25
 77
     0
 78
     1
 53
45.0
 43
-32.76330499198516
 44
-2.390235171231061
 45
-0.0220970869120796
 46
0.0220970869120796
 79
     0
 47
0.0033700792653586
 98
        1
 10
5.81597426602476
 20
7.649934395989703
1001
ACAD
1010
0.0
1020
0.0
1030
0.0
  0
HATCH
  5
26F3
330
2
100
AcDbEntity
  8
0
370
     0
100
AcDbHatch
 10
0.0
 20
0.0
 30
0.0
210
0.0
220
0.0
230
1.0
  2
ANSI31
 70
     0
 71
     0
 91
        1
 92
        7
 72
     1
 73
     1
 93
       10
 10
2.374417767103906
 20
6.791166710630925
 42
0.0
 10
2.686917767103906
 20
6.791166710630925
 42
0.0
 10
2.686917767103906
 20
7.171166710630913
 42
0.4142135623731907
 10
2.666917767103903
 20
7.19116671063092
 42
-0.4142135623731928
 10
2.6469177671039
 20
7.211166710630926
 42
-0.4142135623728932
 10
2.666917767103903
 20
7.231166710630912
 42
0.4142135623734135
 10
2.686917767103913
 20
7.251166710630926
 42
0.0
 10
2.436917767103913
 20
7.251166710630918
 42
0.0
 10
2.436917767103913
 20
7.416166710630925
 42
0.0
 10
2.374417767103906
 20
7.416166710630923
 42
0.0
 97
        0
 75
     0
 76
     1
 52
0.0
 41
0.25
 77
     0
 78
     1
 53
45.0
 43
-32.76330499198516
 44
-2.390235171231061
 45
-0.0220970869120796
 46
0.0220970869120796
 79
     0
 47
0.0033700792653586
 98
        1
 10
2.520396830848191
 20
7.002879200980537
1001
ACAD
1010
0.0
1020
0.0
1030
0.0
  0
LEADER
  5
26F4
330
2
100
AcDbEntity
  8
DIM
100
AcDbLeader
  3
STANDARD
 72
     1
 76
     2
 10
5.830013639112543
 20
7.598352690042695
 30
0.0000000000000036
 10
6.515261814147798
 20
6.994487382450317
 30
0.0000000000000036
1001
ACAD
1000
DSTYLE
1002
{
1070
   147
1040
0.0625
1070
    73
1070
     0
1070
    74
1070
     0
1070
    77
1070
     0
1070
   271
1070
     3
1070
   272
1070
     3
1070
   341
1005
0
1002
}
  0
TEXT
  5
26F5
330
2
100
AcDbEntity
  8
DIM
100
AcDbText
 10
6.539885206214606
 20
6.920211165554658
 30
-12.12190899999999
 40
0.125
  1
STRUCTURAL SILICONE
 41
0.8
  7
ADESK1
100
AcDbText
  0
DIMENSION
  5
271D
330
2
100
AcDbEntity
  8
DIM
100
AcDbDimension
  2
*D17
 10
1.503139338727123
 20
7.541166710630926
 30
-12.121909
 11
1.132906191388308
 21
7.207154235038352
 31
-12.121909
 70
   160
 71
     5
 42
0.75
  3
STANDARD
100
AcDbAlignedDimension
 13
2.138417767103909
 23
6.791166710630925
 33
0.0
 14
2.138417767103909
 24
7.541166710630925
 34
0.0
 50
90.0
100
AcDbRotatedDimension
1001
ACAD
1000
DSTYLE
1002
{
1070
   280
1070
     0
1070
   289
1070
     1
1070
     4
1000
MM
1070
   171
1070
     0
1070
   170
1070
     1
1070
    73
1070
     0
1070
    74
1070
     0
1070
    77
1070
     1
1070
   271
1070
     4
1070
   272
1070
     3
1070
   341
1005
0
1002
}
  0
LEADER
  5
271E
330
2
100
AcDbEntity
  8
DIM
100
AcDbLeader
  3
STANDARD
 72
     1
 73
     0
 74
     0
 40
0.3333333333333333
 41
0.6964285714285713
 76
     5
 10
0.8129573974248032
 20
6.98002653805805
 30
-12.121909
 10
0.5726623847809976
 20
6.679837809224645
 30
-12.121909
 10
0.5726623847809976
 20
6.403664190733506
 30
-12.121909
 10
0.7048246294705649
 20
6.163513212681612
 30
-12.121909
 10
0.8490016534095445
 20
6.019422625850475
 30
-12.121909
340
271F
213
0.0
223
-0.0625
233
0.0
1001
ACAD
1000
DSTYLE
1002
{
1070
   147
1040
0.0625
1070
    73
1070
     0
1070
    74
1070
     0
1070
    77
1070
     0
1070
   271
1070
     3
1070
   272
1070
     3
1070
   341
1005
0
1002
}
  0
MTEXT
  5
271F
102
{ACAD_REACTORS
330
271E
102
}
330
2
100
AcDbEntity
  8
DIM
100
AcDbMText
 10
0.9115016534095445
 20
6.081922625850475
 30
-12.121909
 40
0.125
 41
0.25
 71
     1
 72
     1
  1
\A1;SPACER OFFSET
 73
     1
 44
1.0
1001
ACAD
1000
MTEXTBEGIN
1070
    73
1070
     1
1070
    44
1040
1.0
1070
    74
1070
     0
1000
MTEXTEND
  0
LEADER
  5
27D4
330
2
100
AcDbEntity
  8
DIM
100
AcDbLeader
  3
STANDARD
 72
     1
 76
     2
 10
5.830013639112543
 20
7.916166710630925
 30
0.0000000000000036
 10
6.515261814147798
 20
8.053935149580283
 30
0.0000000000000036
1001
ACAD
1000
DSTYLE
1002
{
1070
   147
1040
0.0625
1070
    73
1070
     0
1070
    74
1070
     0
1070
    77
1070
     0
1070
   271
1070
     3
1070
   272
1070
     3
1070
   341
1005
0
1002
}
  0
TEXT
  5
27D5
330
2
100
AcDbEntity
  8
DIM
100
AcDbText
 10
6.539885206214606
 20
8.053935149580283
 30
-12.12190899999999
 40
0.125
  1
THERMAL BREAK
 41
0.8
  7
ADESK1
100
AcDbText
  0
LEADER
  5
27D6
330
2
100
AcDbEntity
  8
DIM
100
AcDbLeader
  3
STANDARD
 72
     1
 76
     2
 10
2.561917767103913
 20
7.499228260271124
 30
0.0000000000000036
 10
1.84917733664232
 20
8.319103471161156
 30
0.0000000000000036
1001
ACAD
1000
DSTYLE
1002
{
1070
   147
1040
0.0625
1070
    73
1070
     0
1070
    74
1070
     0
1070
    77
1070
     0
1070
   271
1070
     3
1070
   272
1070
     3
1070
   341
1005
0
1002
}
  0
TEXT
  5
27D7
330
2
100
AcDbEntity
  8
DIM
100
AcDbText
 10
0.5595391594507433
 20
8.319103471161156
 30
-12.12190899999999
 40
0.125
  1
THERMAL BREAK
 41
0.8
  7
ADESK1
100
AcDbText
  0
LEADER
  5
27D8
330
2
100
AcDbEntity
  8
DIM
100
AcDbLeader
  3
STANDARD
 72
     1
 76
     2
 10
2.530230001897244
 20
6.873070792315999
 30
0.0
 10
6.515261814147798
 20
6.994487382450317
 30
0.0
1001
ACAD
1000
DSTYLE
1002
{
1070
   147
1040
0.0625
1070
    73
1070
     0
1070
    74
1070
     0
1070
    77
1070
     0
1070
   271
1070
     3
1070
   272
1070
     3
1070
   341
1005
0
1002
}
  0
TEXT
  5
27DA
330
2
100
AcDbEntity
  8
DIM
 62
     7
100
AcDbText
 10
4.863773919086405
 20
1.145713821026707
 30
5.836624999999999
 40
0.1953125
  1
SOLERA R25-T
 41
0.8
 11
4.863773919086405
 21
1.243370071026707
 31
5.836624999999999
100
AcDbText
 73
     2
  0
TEXT
  5
280D
330
2
100
AcDbEntity
  8
DIM
 62
     7
100
AcDbText
 10
4.321450803669669
 20
0.3586320748728911
 30
5.836624999999999
 40
0.1953125
  1
AMM
 41
0.8
 11
4.321450803669669
 21
0.4562883248728911
 31
5.836624999999999
100
AcDbText
 73
     2
  0
TEXT
  5
280E
330
2
100
AcDbEntity
  8
DIM
 62
     7
100
AcDbText
 10
8.690200803669661
 20
0.3586320748728911
 30
5.836624999999999
 40
0.1953125
  1
00
 41
0.8
 11
8.690200803669661
 21
0.4562883248728911
 31
5.836624999999999
100
AcDbText
 73
     2
  0
LINE
  5
284C
330
2
100
AcDbEntity
  8
0
 62
     1
370
     0
100
AcDbLine
 10
0.0
 20
0.0
 30
0.0
 11
0.0
 21
0.0
 31
0.0
  0
LINE
  5
284D
330
2
100
AcDbEntity
  8
0
 62
     1
370
     0
100
AcDbLine
 10
0.0
 20
0.0
 30
0.0
 11
0.0
 21
0.0
 31
0.0
  0
VIEWPORT
  5
286D
102
{ACAD_XDICTIONARY
360
28BA
102
}
330
2861
100
AcDbEntity
 67
     1
  8
0
 62
     1
370
     0
100
AcDbViewport
 10
4.916311577731576
 20
4.564400595294548
 30
0.0
 40
53.67357772740816
 41
20.14233713616471
 68
     1
 69
     1
 12
4.916311577731576
 22
4.564400595294548
 13
0.0
 23
0.0
 14
0.5
 24
0.5
 15
0.5
 25
0.5
 16
0.0
 26
0.0
 36
1.0
 17
0.0
 27
0.0
 37
0.0
 42
50.0
 43
0.0
 44
0.0
 45
20.14233713616471
 50
0.0
 51
0.0
 72
   100
 90
   819232
  1

281
     0
 71
     1
 74
     0
110
0.0
120
0.0
130
0.0
111
1.0
121
0.0
131
0.0
112
0.0
122
1.0
132
0.0
 79
     0
146
0.0
  0
VIEWPORT
  5
2870
102
{ACAD_XDICTIONARY
360
28BC
102
}
330
2861
100
AcDbEntity
 67
     1
  8
0
370
     0
100
AcDbViewport
 10
4.014195193825905
 20
5.299557258073832
 30
0.0
 40
8.36470440080626
 41
10.84190377699974
 68
     2
 69
     2
 12
4.581190868560842
 22
6.344953371988307
 13
0.0
 23
0.0
 14
1.0
 24
1.0
 15
0.0
 25
0.0
 16
0.0
 26
0.0
 36
1.0
 17
0.0
 27
0.0
 37
0.0
 42
50.0
 43
0.0
 44
0.0
 45
13.24441964714393
 50
0.0
 51
0.0
 72
 10000
 90
   819200
  1

281
     0
 71
     1
 74
     0
110
0.0
120
0.0
130
0.0
111
1.0
121
0.0
131
0.0
112
0.0
122
1.0
132
0.0
 79
     0
146
0.0
  0
ENDSEC
  0
SECTION
  2
OBJECTS
  0
DICTIONARY
  5
7
330
0
100
AcDbDictionary
281
     1
  3
ACAD_BGPLOT_KEY
350
24AD
  3
ACAD_COLOR
350
2300
  3
ACAD_GROUP
350
4C9
  3
ACAD_IMAGE_VARS
350
21CF
  3
ACAD_LAYOUT
350
47F
  3
ACAD_MATERIAL
350
22EB
  3
ACAD_MLINESTYLE
350
4CA
  3
ACAD_PLOTSETTINGS
350
4CB
  3
ACAD_PLOTSTYLENAME
350
6
  3
ACAD_SCALELIST
350
21AC
  3
ACAD_TABLESTYLE
350
2301
  3
ACAD_VISUALSTYLE
350
22EF
  3
AcadDim
350
13CE
  3
AcDbVariableDictionary
350
859
  3
APPDATA
350
21CE
  3
ASE_INDEX_DICTIONARY
350
28A8
  3
DRAD_DICT
350
18DD
  3
DWGPROPS
350
28AA
  0
DICTIONARY
  5
2534
330
4BC
100
AcDbDictionary
280
     1
281
     1
  3
ACAD_LAYERSTATES
360
2535
  0
DICTIONARY
  5
47A
330
2
100
AcDbDictionary
280
     1
281
     1
  3
ACAD_SORTENTS
360
1A6F
  0
DICTIONARY
  5
275B
330
2756
100
AcDbDictionary
280
     1
281
     1
  0
DICTIONARY
  5
28BA
330
286D
100
AcDbDictionary
280
     1
281
     1
  3
ACAD_XREC_ROUNDTRIP
360
28BB
  0
DICTIONARY
  5
28BC
330
2870
100
AcDbDictionary
280
     1
281
     1
  3
ACAD_XREC_ROUNDTRIP
360
28BD
  0
DICTIONARY
  5
24AD
102
{ACAD_REACTORS
330
7
102
}
330
7
100
AcDbDictionary
280
     1
281
     1
  0
DICTIONARY
  5
2300
102
{ACAD_REACTORS
330
7
102
}
330
7
100
AcDbDictionary
281
     1
  0
DICTIONARY
  5
4C9
102
{ACAD_REACTORS
330
7
102
}
330
7
100
AcDbDictionary
281
     1
  0
RASTERVARIABLES
  5
21CF
102
{ACAD_REACTORS
330
7
102
}
330
7
100
AcDbRasterVariables
 90
        0
 70
     1
 71
     1
 72
     0
  0
DICTIONARY
  5
47F
102
{ACAD_REACTORS
330
7
102
}
330
7
100
AcDbDictionary
281
     1
  3
Layout2
350
2862
  3
Model
350
47E
  0
DICTIONARY
  5
22EB
102
{ACAD_REACTORS
330
7
102
}
330
7
100
AcDbDictionary
281
     1
  3
ByBlock
350
22ED
  3
ByLayer
350
22EC
  3
Global
350
22EE
  0
DICTIONARY
  5
4CA
102
{ACAD_REACTORS
330
7
102
}
330
7
100
AcDbDictionary
281
     1
  3
STANDARD
350
4CC
  0
DICTIONARY
  5
4CB
102
{ACAD_REACTORS
330
7
102
}
330
7
100
AcDbDictionary
281
     1
  3
8.5X11
350
670
  3
8X10
350
675
  0
ACDBDICTIONARYWDFLT
  5
6
102
{ACAD_REACTORS
330
7
102
}
330
7
100
AcDbDictionary
281
     1
  3
Normal
350
5
100
AcDbDictionaryWithDefault
340
5
  0
DICTIONARY
  5
21AC
102
{ACAD_REACTORS
330
7
102
}
330
7
100
AcDbDictionary
281
     1
  3
A0
350
21AD
  3
A1
350
21AE
  3
A2
350
21AF
  3
A3
350
21B0
  3
A4
350
21B1
  3
A5
350
21B2
  3
A6
350
21B3
  3
A7
350
21B4
  3
A8
350
21B5
  3
A9
350
21B6
  3
B0
350
21B7
  3
B1
350
21B8
  3
B2
350
21B9
  3
B3
350
21BA
  3
B4
350
21BB
  3
B5
350
21BC
  3
B6
350
21BD
  3
B7
350
21BE
  3
B8
350
21BF
  3
B9
350
21C0
  3
C0
350
21C1
  3
C1
350
21C2
  3
C2
350
21C3
  3
C3
350
21C4
  3
C4
350
21C5
  3
C5
350
21C6
  3
C6
350
21C7
  3
C7
350
21C8
  3
C8
350
21C9
  3
C9
350
21CA
  3
D0
350
21CB
  3
D1
350
21CC
  3
D2
350
21CD
  0
DICTIONARY
  5
2301
102
{ACAD_REACTORS
330
7
102
}
330
7
100
AcDbDictionary
281
     1
  3
Standard
350
2302
  0
DICTIONARY
  5
22EF
102
{ACAD_REACTORS
330
7
102
}
330
7
100
AcDbDictionary
281
     1
  3
2dWireframe
350
22F5
  3
3D Hidden
350
22F7
  3
3dWireframe
350
22F6
  3
Basic
350
22F4
  3
Brighten
350
22FB
  3
ColorChange
350
22FF
  3
Conceptual
350
22F8
  3
Dim
350
22FA
  3
Facepattern
350
22FE
  3
Flat
350
22F0
  3
FlatWithEdges
350
22F1
  3
Gouraud
350
22F2
  3
GouraudWithEdges
350
22F3
  3
Linepattern
350
22FD
  3
Realistic
350
22F9
  3
Thicken
350
22FC
  0
XRECORD
  5
13CE
102
{ACAD_REACTORS
330
7
102
}
330
7
100
AcDbXrecord
280
     1
 90
   990106
  3

 60
     0
 61
     0
 62
     1
 63
     3
 64
     0
 65
     1
 66
     1
 67
     3
 68
     1
 69
     0
 70
     0
 71
     0
 72
     0
 40
0.25
170
     1
340
0
  0
DICTIONARY
  5
859
102
{ACAD_REACTORS
330
7
102
}
330
7
100
AcDbDictionary
281
     1
  3
CANNOSCALE
350
21D1
  3
CTABLESTYLE
350
24A3
  3
DIMASSOC
350
1430
  3
FIELDEVAL
350
24AE
  3
INDEXCTL
350
1AC0
  3
PROJECTNAME
350
1431
  3
SORTENTS
350
85A
  0
DICTIONARY
  5
21CE
102
{ACAD_REACTORS
330
7
102
}
330
7
100
AcDbDictionary
281
     1
  0
DICTIONARY
  5
28A8
102
{ACAD_REACTORS
330
7
102
}
330
7
100
AcDbDictionary
281
     1
  3
ASEBlockHierarchyIndexRecord
350
28A9
1001
DCO15
1040
1967707733.508
  0
DICTIONARY
  5
18DD
102
{ACAD_REACTORS
330
7
102
}
330
7
100
AcDbDictionary
281
     1
  3
SCALE
350
21D6
  3
UNITS
350
21D5
  0
XRECORD
  5
28AA
102
{ACAD_REACTORS
330
7
102
}
330
7
100
AcDbXrecord
280
     1
  1
DWGPROPS COOKIE
  2

  3

  4

  6

  7

  8
x
  9

300
=
301
=
302
=
303
=
304
=
305
=
306
=
307
=
308
=
309
=
 40
25.07880392361111
 41
2449909.393659607
 42
2458577.606915602
  1

 90
        0
  0
DICTIONARY
  5
2535
102
{ACAD_REACTORS
330
2534
102
}
330
2534
100
AcDbDictionary
281
     1
  0
SORTENTSTABLE
  5
1A6F
102
{ACAD_REACTORS
330
47A
102
}
330
47A
100
AcDbSortentsTable
330
2
331
2654
  5
2654
331
242F
  5
242F
331
2615
  5
2615
331
268B
  5
268D
331
26DA
  5
26DD
331
265C
  5
265D
331
2437
  5
2437
331
261D
  5
261D
331
2664
  5
2666
331
2625
  5
2625
331
269B
  5
269F
331
266C
  5
266E
331
262D
  5
262D
331
26A3
  5
26A5
331
19D
  5
19D
331
2674
  5
2676
331
241A
  5
241A
331
244F
  5
244F
331
25FE
  5
25FE
331
2635
  5
2635
331
26AB
  5
26AD
331
267C
  5
267E
331
2606
  5
2606
331
263D
  5
263D
331
26B3
  5
26B5
331
2422
  5
2422
331
2684
  5
2686
331
260E
  5
260E
331
2645
  5
2645
331
1A5
  5
1A5
331
264D
  5
264D
331
2428
  5
2428
331
2655
  5
2655
331
2430
  5
2430
331
2616
  5
2616
331
268C
  5
268E
331
265D
  5
265E
331
2438
  5
2438
331
261E
  5
261E
331
2694
  5
2696
331
2665
  5
2667
331
2626
  5
2626
331
26F3
  5
2657
331
266D
  5
266F
331
262E
  5
262E
331
26A4
  5
26A6
331
2675
  5
2677
331
2450
  5
2450
331
2636
  5
2636
331
26AC
  5
26AE
331
241B
  5
241B
331
267D
  5
267F
331
2607
  5
2607
331
263E
  5
263E
331
26B4
  5
26B6
331
2685
  5
2687
331
260F
  5
260F
331
2646
  5
2646
331
264E
  5
264E
331
26D4
  5
26D6
331
2656
  5
2656
331
2431
  5
2431
331
2617
  5
2617
331
268D
  5
268F
331
26DC
  5
26DF
331
265E
  5
265F
331
2439
  5
2439
331
261F
  5
261F
331
2695
  5
2697
331
2666
  5
2668
331
2627
  5
2627
331
266E
  5
2670
331
262F
  5
262F
331
26A5
  5
26A7
331
2676
  5
2678
331
2451
  5
2451
331
2600
  5
2600
331
2637
  5
2637
331
26AD
  5
26AF
331
241C
  5
241C
331
267E
  5
2680
331
2608
  5
2608
331
263F
  5
263F
331
26B5
  5
26B7
331
2424
  5
2424
331
2686
  5
2688
331
2647
  5
2647
331
264F
  5
264F
331
2610
  5
2610
331
242A
  5
242A
331
26D5
  5
26D7
331
2657
  5
2658
331
2618
  5
2618
331
268E
  5
2690
331
26DD
  5
26E9
331
265F
  5
2660
331
2620
  5
2620
331
2696
  5
2698
331
243A
  5
243A
331
2667
  5
2669
331
2628
  5
2628
331
269E
  5
26A0
331
266F
  5
2671
331
26A6
  5
26A8
331
2630
  5
2630
331
2677
  5
2679
331
2601
  5
2601
331
2638
  5
2638
331
26AE
  5
26B0
331
241D
  5
241D
331
2452
  5
2452
331
267F
  5
2681
331
2609
  5
2609
331
2640
  5
2640
331
26B6
  5
26C6
331
2425
  5
2425
331
26C6
  5
26C8
331
2648
  5
2648
331
2687
  5
2689
331
1A0
  5
1A0
331
13D8
  5
13D8
331
2650
  5
2650
331
2611
  5
2611
331
242B
  5
242B
331
26D6
  5
26D8
331
2658
  5
2659
331
2619
  5
2619
331
268F
  5
2691
331
2433
  5
2433
331
2660
  5
2662
331
2621
  5
2621
331
2697
  5
2699
331
243B
  5
243B
331
2668
  5
266A
331
2629
  5
2629
331
269F
  5
26A1
331
26A7
  5
26A9
331
2670
  5
2672
331
2631
  5
2631
331
2678
  5
267A
331
2602
  5
2602
331
2639
  5
2639
331
26AF
  5
26B1
331
241E
  5
241E
331
2453
  5
2453
331
2680
  5
2683
331
260A
  5
260A
331
2641
  5
2641
331
26B7
  5
26C7
331
2426
  5
2426
331
1A1
  5
1A1
331
26C7
  5
26C9
331
2649
  5
2649
331
2651
  5
2651
331
242C
  5
242C
331
2612
  5
2612
331
2688
  5
268A
331
26D7
  5
26D9
331
2659
  5
265A
331
2434
  5
2434
331
261A
  5
261A
331
2690
  5
2692
331
2661
  5
2663
331
243C
  5
243C
331
2622
  5
2622
331
2698
  5
269A
331
2669
  5
266B
331
2444
  5
2444
331
262A
  5
262A
331
26A0
  5
26A2
331
2671
  5
2673
331
2417
  5
2417
331
25FB
  5
25FB
331
2632
  5
2632
331
26A8
  5
26AA
331
2679
  5
267B
331
241F
  5
241F
331
2454
  5
2454
331
2603
  5
2603
331
263A
  5
263A
331
26B0
  5
26B2
331
2681
  5
2684
331
2427
  5
2427
331
260B
  5
260B
331
2642
  5
2642
331
1A2
  5
1A2
331
26C8
  5
26CA
331
264A
  5
264A
331
2652
  5
2652
331
242D
  5
242D
331
2613
  5
2613
331
2689
  5
268B
331
26D8
  5
26DA
331
265A
  5
265B
331
2435
  5
2435
331
261B
  5
261B
331
2691
  5
2694
331
26E8
  5
2661
331
2662
  5
2664
331
2623
  5
2623
331
2699
  5
269B
331
266A
  5
266C
331
262B
  5
262B
331
26A1
  5
26A3
331
2672
  5
2674
331
2418
  5
2418
331
25FC
  5
25FC
331
2633
  5
2633
331
26A9
  5
26AB
331
267A
  5
267C
331
2420
  5
2420
331
2455
  5
2455
331
2604
  5
2604
331
263B
  5
263B
331
26B1
  5
26B3
331
260C
  5
260C
331
2643
  5
2643
331
1A3
  5
1A3
331
26C9
  5
26D4
331
264B
  5
264B
331
2653
  5
2653
331
24FD
  5
24FD
331
242E
  5
242E
331
2614
  5
2614
331
268A
  5
268C
331
26D9
  5
26DC
331
265B
  5
265C
331
2436
  5
2436
331
261C
  5
261C
331
2692
  5
2695
331
2663
  5
2665
331
2624
  5
2624
331
269A
  5
269E
331
266B
  5
266D
331
262C
  5
262C
331
26A2
  5
26A4
331
2673
  5
2675
331
2419
  5
2419
331
244E
  5
244E
331
2634
  5
2634
331
26AA
  5
26AC
331
267B
  5
267D
331
2421
  5
2421
331
2605
  5
2605
331
263C
  5
263C
331
26B2
  5
26B4
331
2683
  5
2685
331
260D
  5
260D
331
2644
  5
2644
331
1A4
  5
1A4
331
26CA
  5
26D5
331
264C
  5
264C
  0
XRECORD
  5
28BB
102
{ACAD_REACTORS
330
28BA
102
}
330
28BA
100
AcDbXrecord
280
     1
102
SHADEPLOT
 70
     0
  0
XRECORD
  5
28BD
102
{ACAD_REACTORS
330
28BC
102
}
330
28BC
100
AcDbXrecord
280
     1
102
SHADEPLOT
 70
     0
  0
LAYOUT
  5
2862
102
{ACAD_XDICTIONARY
360
2875
102
}
102
{ACAD_REACTORS
330
47F
102
}
330
47F
100
AcDbPlotSettings
  1

  2
pdfFactory
  4
Letter
  6

 40
7.143749713897705
 41
7.143756389617919
 42
7.14373779296875
 43
7.14373779296875
 44
215.8999938964844
 45
279.3999938964844
 46
0.0
 47
0.0
 48
0.0
 49
0.0
140
0.0
141
0.0
142
1.0
143
1.0
 70
   688
 72
     0
 73
     0
 74
     5
  7

 75
    16
147
1.0
148
0.0
149
0.0
100
AcDbLayout
  1
Layout2
 70
     1
 71
     1
 10
-0.2812499887361301
 20
-0.2812502515597606
 11
8.218749770967979
 21
10.71874950814435
 12
0.0
 22
0.0
 32
0.0
 14
-0.1681570065772249
 24
-0.1213946304260389
 34
0.0
 15
8.196547394229035
 25
10.7205091465737
 35
0.0
146
0.0
 13
0.0
 23
0.0
 33
0.0
 16
1.0
 26
0.0
 36
0.0
 17
0.0
 27
1.0
 37
0.0
 76
     0
330
2861
331
286D
1001
ACAD_PSEXT
1000
pdfFactory
1000
pdfFactory 2
1000
FPP2:
1000

1070
     0
  0
LAYOUT
  5
47E
102
{ACAD_XDICTIONARY
360
28AB
102
}
102
{ACAD_REACTORS
330
47F
102
}
330
47F
100
AcDbPlotSettings
  1

  2
pdfFactory
  4
User272
  6

 40
7.143749713897705
 41
7.143756389617919
 42
7.14373779296875
 43
7.14373779296875
 44
215.8999938964844
 45
279.3999938964844
 46
8.889999999999998
 47
5.333999999999999
 48
5.274636613324736
 49
3.224169506195529
140
12.51463661332473
141
13.24916950619553
142
1.0
143
1.0
 70
 11956
 72
     0
 73
     0
 74
     4
  7
Default R14 pen assignments.ctb
 75
    16
147
1.0
148
-133.9757699784483
149
-81.89390545736644
100
AcDbLayout
  1
Model
 70
     1
 71
     0
 10
0.0
 20
0.0
 11
12.0
 21
9.0
 12
0.0
 22
0.0
 32
0.0
 14
0.0
 24
0.0
 34
0.0
 15
0.0
 25
0.0
 35
0.0
146
0.0
 13
0.0
 23
0.0
 33
0.0
 16
1.0
 26
0.0
 36
0.0
 17
0.0
 27
1.0
 37
0.0
 76
     0
330
2
331
22E9
  0
MATERIAL
  5
22ED
102
{ACAD_XDICTIONARY
360
28B3
102
}
102
{ACAD_REACTORS
330
22EB
102
}
330
22EB
100
AcDbMaterial
  1
ByBlock
  0
MATERIAL
  5
22EC
102
{ACAD_XDICTIONARY
360
28B1
102
}
102
{ACAD_REACTORS
330
22EB
102
}
330
22EB
100
AcDbMaterial
  1
ByLayer
  0
MATERIAL
  5
22EE
102
{ACAD_XDICTIONARY
360
28B5
102
}
102
{ACAD_REACTORS
330
22EB
102
}
330
22EB
100
AcDbMaterial
  1
Global
  0
MLINESTYLE
  5
4CC
102
{ACAD_REACTORS
330
4CA
102
}
330
4CA
100
AcDbMlineStyle
  2
STANDARD
 70
     0
  3

 62
   256
 51
90.0
 52
90.0
 71
     2
 49
0.5
 62
   256
  6
BYLAYER
 49
-0.5
 62
   256
  6
BYLAYER
  0
PLOTSETTINGS
  5
670
102
{ACAD_XDICTIONARY
360
28AD
102
}
102
{ACAD_REACTORS
330
4CB
102
}
330
4CB
100
AcDbPlotSettings
  1
8.5X11
  2
HP DeskJet 1120C BW (Copy 2)
  4
Letter
  6

 40
7.143749713897705
 41
13.49374103546142
 42
7.14373779296875
 43
3.757080078125
 44
215.8999938964844
 45
279.3999938964844
 46
-9.906
 47
-11.43
 48
-4.980964767400481
 49
2.145278892330803
140
12.46838773409616
141
24.58626705782814
142
1.0
143
2.0
 70
  1716
 72
     0
 73
     0
 74
     4
  7
Default R14 pen assignments.ctb
 75
    17
147
0.5
148
126.5165050919722
149
-54.4900838652024
  0
PLOTSETTINGS
  5
675
102
{ACAD_XDICTIONARY
360
28AF
102
}
102
{ACAD_REACTORS
330
4CB
102
}
330
4CB
100
AcDbPlotSettings
  1
8X10
  2
HP DeskJet 1120C BW (Copy 2)
  4
User273
  6

 40
5.873749732971191
 41
13.49374103546142
 42
5.704421997070312
 43
3.757080078125
 44
215.8999938964844
 45
279.3999938964844
 46
-0.254
 47
-3.556
 48
-4.566310289060632
 49
2.452162654035966
140
11.9454594588133
141
24.20322671175697
142
1.0
143
2.049999999999999
 70
  1700
 72
     0
 73
     0
 74
     4
  7
Default R14 pen assignments.ctb
 75
     0
147
0.4878048780487806
148
115.98428134214
149
-62.28493141251355
  0
ACDBPLACEHOLDER
  5
5
102
{ACAD_REACTORS
330
6
102
}
330
6
  0
ACAD_PROXY_OBJECT
  5
21AD
102
{ACAD_REACTORS
330
21AC
102
}
330
21AC
100
AcDbProxyObject
 90
      499
 91
      588
 95
   393239
 70
     0
 93
       41
310
903313A315FF
 94
        0
1001
ACAD
1000
AcRTDxfName
1000
SCALE
  0
ACAD_PROXY_OBJECT
  5
21AE
102
{ACAD_REACTORS
330
21AC
102
}
330
21AC
100
AcDbProxyObject
 90
      499
 91
      588
 95
   393239
 70
     0
 93
      105
310
903313A32400000000000000407F
 94
        0
1001
ACAD
1000
AcRTDxfName
1000
SCALE
  0
ACAD_PROXY_OBJECT
  5
21AF
102
{ACAD_REACTORS
330
21AC
102
}
330
21AC
100
AcDbProxyObject
 90
      499
 91
      588
 95
   393239
 70
     0
 93
      105
310
903313A34400000000000010407F
 94
        0
1001
ACAD
1000
AcRTDxfName
1000
SCALE
  0
ACAD_PROXY_OBJECT
  5
21B0
102
{ACAD_REACTORS
330
21AC
102
}
330
21AC
100
AcDbProxyObject
 90
      499
 91
      588
 95
   393239
 70
     0
 93
      105
310
903313A35400000000000014407F
 94
        0
1001
ACAD
1000
AcRTDxfName
1000
SCALE
  0
ACAD_PROXY_OBJECT
  5
21B1
102
{ACAD_REACTORS
330
21AC
102
}
330
21AC
100
AcDbProxyObject
 90
      499
 91
      588
 95
   393239
 70
     0
 93
      105
310
903313A38400000000000020407F
 94
        0
1001
ACAD
1000
AcRTDxfName
1000
SCALE
  0
ACAD_PROXY_OBJECT
  5
21B2
102
{ACAD_REACTORS
330
21AC
102
}
330
21AC
100
AcDbProxyObject
 90
      499
 91
      588
 95
   393239
 70
     0
 93
      113
310
904313A3130400000000000024407F
 94
        0
1001
ACAD
1000
AcRTDxfName
1000
SCALE
  0
ACAD_PROXY_OBJECT
  5
21B3
102
{ACAD_REACTORS
330
21AC
102
}
330
21AC
100
AcDbProxyObject
 90
      499
 91
      588
 95
   393239
 70
     0
 93
      113
310
904313A3136400000000000030407F
 94
        0
1001
ACAD
1000
AcRTDxfName
1000
SCALE
  0
ACAD_PROXY_OBJECT
  5
21B4
102
{ACAD_REACTORS
330
21AC
102
}
330
21AC
100
AcDbProxyObject
 90
      499
 91
      588
 95
   393239
 70
     0
 93
      113
310
904313A3230400000000000034407F
 94
        0
1001
ACAD
1000
AcRTDxfName
1000
SCALE
  0
ACAD_PROXY_OBJECT
  5
21B5
102
{ACAD_REACTORS
330
21AC
102
}
330
21AC
100
AcDbProxyObject
 90
      499
 91
      588
 95
   393239
 70
     0
 93
      113
310
904313A333040000000000003E407F
 94
        0
1001
ACAD
1000
AcRTDxfName
1000
SCALE
  0
ACAD_PROXY_OBJECT
  5
21B6
102
{ACAD_REACTORS
330
21AC
102
}
330
21AC
100
AcDbProxyObject
 90
      499
 91
      588
 95
   393239
 70
     0
 93
      113
310
904313A3430400000000000044407F
 94
        0
1001
ACAD
1000
AcRTDxfName
1000
SCALE
  0
ACAD_PROXY_OBJECT
  5
21B7
102
{ACAD_REACTORS
330
21AC
102
}
330
21AC
100
AcDbProxyObject
 90
      499
 91
      588
 95
   393239
 70
     0
 93
      113
310
904313A3530400000000000049407F
 94
        0
1001
ACAD
1000
AcRTDxfName
1000
SCALE
  0
ACAD_PROXY_OBJECT
  5
21B8
102
{ACAD_REACTORS
330
21AC
102
}
330
21AC
100
AcDbProxyObject
 90
      499
 91
      588
 95
   393239
 70
     0
 93
      121
310
905313A313030400000000000059407F
 94
        0
1001
ACAD
1000
AcRTDxfName
1000
SCALE
  0
ACAD_PROXY_OBJECT
  5
21B9
102
{ACAD_REACTORS
330
21AC
102
}
330
21AC
100
AcDbProxyObject
 90
      499
 91
      588
 95
   393239
 70
     0
 93
      105
310
903323A31000000000000001017F
 94
        0
1001
ACAD
1000
AcRTDxfName
1000
SCALE
  0
ACAD_PROXY_OBJECT
  5
21BA
102
{ACAD_REACTORS
330
21AC
102
}
330
21AC
100
AcDbProxyObject
 90
      499
 91
      588
 95
   393239
 70
     0
 93
      105
310
903343A31000000000000041017F
 94
        0
1001
ACAD
1000
AcRTDxfName
1000
SCALE
  0
ACAD_PROXY_OBJECT
  5
21BB
102
{ACAD_REACTORS
330
21AC
102
}
330
21AC
100
AcDbProxyObject
 90
      499
 91
      588
 95
   393239
 70
     0
 93
      105
310
903383A31000000000000081017F
 94
        0
1001
ACAD
1000
AcRTDxfName
1000
SCALE
  0
ACAD_PROXY_OBJECT
  5
21BC
102
{ACAD_REACTORS
330
21AC
102
}
330
21AC
100
AcDbProxyObject
 90
      499
 91
      588
 95
   393239
 70
     0
 93
      113
310
90431303A31000000000000091017F
 94
        0
1001
ACAD
1000
AcRTDxfName
1000
SCALE
  0
ACAD_PROXY_OBJECT
  5
21BD
102
{ACAD_REACTORS
330
21AC
102
}
330
21AC
100
AcDbProxyObject
 90
      499
 91
      588
 95
   393239
 70
     0
 93
      121
310
9053130303A31000000000000165017F
 94
        0
1001
ACAD
1000
AcRTDxfName
1000
SCALE
  0
ACAD_PROXY_OBJECT
  5
21BE
102
{ACAD_REACTORS
330
21AC
102
}
330
21AC
100
AcDbProxyObject
 90
      499
 91
      588
 95
   393239
 70
     0
 93
      257
310
90E312F31323822203D2031272D3022000000000000200FC00000000000028407F
 94
        0
1001
ACAD
1000
AcRTDxfName
1000
SCALE
  0
ACAD_PROXY_OBJECT
  5
21BF
102
{ACAD_REACTORS
330
21AC
102
}
330
21AC
100
AcDbProxyObject
 90
      499
 91
      588
 95
   393239
 70
     0
 93
      249
310
90D312F363422203D2031272D3022000000000000240FC00000000000028407F
 94
        0
1001
ACAD
1000
AcRTDxfName
1000
SCALE
  0
ACAD_PROXY_OBJECT
  5
21C0
102
{ACAD_REACTORS
330
21AC
102
}
330
21AC
100
AcDbProxyObject
 90
      499
 91
      588
 95
   393239
 70
     0
 93
      249
310
90D312F333222203D2031272D3022000000000000280FC00000000000028407F
 94
        0
1001
ACAD
1000
AcRTDxfName
1000
SCALE
  0
ACAD_PROXY_OBJECT
  5
21C1
102
{ACAD_REACTORS
330
21AC
102
}
330
21AC
100
AcDbProxyObject
 90
      499
 91
      588
 95
   393239
 70
     0
 93
      249
310
90D312F313622203D2031272D30220000000000002C0FC00000000000028407F
 94
        0
1001
ACAD
1000
AcRTDxfName
1000
SCALE
  0
ACAD_PROXY_OBJECT
  5
21C2
102
{ACAD_REACTORS
330
21AC
102
}
330
21AC
100
AcDbProxyObject
 90
      499
 91
      588
 95
   393239
 70
     0
 93
      249
310
90D332F333222203D2031272D30220000000000002E0FC00000000000028407F
 94
        0
1001
ACAD
1000
AcRTDxfName
1000
SCALE
  0
ACAD_PROXY_OBJECT
  5
21C3
102
{ACAD_REACTORS
330
21AC
102
}
330
21AC
100
AcDbProxyObject
 90
      499
 91
      588
 95
   393239
 70
     0
 93
      241
310
90C312F3822203D2031272D3022000000000000300FC00000000000028407F
 94
        0
1001
ACAD
1000
AcRTDxfName
1000
SCALE
  0
ACAD_PROXY_OBJECT
  5
21C4
102
{ACAD_REACTORS
330
21AC
102
}
330
21AC
100
AcDbProxyObject
 90
      499
 91
      588
 95
   393239
 70
     0
 93
      249
310
90D332F313622203D2031272D3022000000000000320FC00000000000028407F
 94
        0
1001
ACAD
1000
AcRTDxfName
1000
SCALE
  0
ACAD_PROXY_OBJECT
  5
21C5
102
{ACAD_REACTORS
330
21AC
102
}
330
21AC
100
AcDbProxyObject
 90
      499
 91
      588
 95
   393239
 70
     0
 93
      241
310
90C312F3422203D2031272D3022000000000000340FC00000000000028407F
 94
        0
1001
ACAD
1000
AcRTDxfName
1000
SCALE
  0
ACAD_PROXY_OBJECT
  5
21C6
102
{ACAD_REACTORS
330
21AC
102
}
330
21AC
100
AcDbProxyObject
 90
      499
 91
      588
 95
   393239
 70
     0
 93
      241
310
90C332F3822203D2031272D3022000000000000360FC00000000000028407F
 94
        0
1001
ACAD
1000
AcRTDxfName
1000
SCALE
  0
ACAD_PROXY_OBJECT
  5
21C7
102
{ACAD_REACTORS
330
21AC
102
}
330
21AC
100
AcDbProxyObject
 90
      499
 91
      588
 95
   393239
 70
     0
 93
      241
310
90C312F3222203D2031272D3022000000000000380FC00000000000028407F
 94
        0
1001
ACAD
1000
AcRTDxfName
1000
SCALE
  0
ACAD_PROXY_OBJECT
  5
21C8
102
{ACAD_REACTORS
330
21AC
102
}
330
21AC
100
AcDbProxyObject
 90
      499
 91
      588
 95
   393239
 70
     0
 93
      241
310
90C332F3422203D2031272D30220000000000003A0FC00000000000028407F
 94
        0
1001
ACAD
1000
AcRTDxfName
1000
SCALE
  0
ACAD_PROXY_OBJECT
  5
21C9
102
{ACAD_REACTORS
330
21AC
102
}
330
21AC
100
AcDbProxyObject
 90
      499
 91
      588
 95
   393239
 70
     0
 93
      161
310
90A3122203D2031272D3022400000000000028407F
 94
        0
1001
ACAD
1000
AcRTDxfName
1000
SCALE
  0
ACAD_PROXY_OBJECT
  5
21CA
102
{ACAD_REACTORS
330
21AC
102
}
330
21AC
100
AcDbProxyObject
 90
      499
 91
      588
 95
   393239
 70
     0
 93
      257
310
90E312D312F3222203D2031272D30220000000000003E0FC00000000000028407F
 94
        0
1001
ACAD
1000
AcRTDxfName
1000
SCALE
  0
ACAD_PROXY_OBJECT
  5
21CB
102
{ACAD_REACTORS
330
21AC
102
}
330
21AC
100
AcDbProxyObject
 90
      499
 91
      588
 95
   393239
 70
     0
 93
      225
310
90A3322203D2031272D30220000000000000210000000000000028407F
 94
        0
1001
ACAD
1000
AcRTDxfName
1000
SCALE
  0
ACAD_PROXY_OBJECT
  5
21CC
102
{ACAD_REACTORS
330
21AC
102
}
330
21AC
100
AcDbProxyObject
 90
      499
 91
      588
 95
   393239
 70
     0
 93
      225
310
90A3622203D2031272D30220000000000000610000000000000028407F
 94
        0
1001
ACAD
1000
AcRTDxfName
1000
SCALE
  0
ACAD_PROXY_OBJECT
  5
21CD
102
{ACAD_REACTORS
330
21AC
102
}
330
21AC
100
AcDbProxyObject
 90
      499
 91
      588
 95
   393239
 70
     0
 93
      249
310
90D31272D3022203D2031272D30220000000000000A10000000000000028407F
 94
        0
1001
ACAD
1000
AcRTDxfName
1000
SCALE
  0
TABLESTYLE
  5
2302
102
{ACAD_XDICTIONARY
360
28B7
102
}
102
{ACAD_REACTORS
330
2301
102
}
330
2301
100
AcDbTableStyle
  3
Standard
 70
     0
 71
     0
 40
0.06
 41
0.06
280
     0
281
     0
  7
STANDARD
140
0.18
170
     2
 62
     0
 63
     7
283
     0
274
    -2
284
     1
 64
     0
275
    -2
285
     1
 65
     0
276
    -2
286
     1
 66
     0
277
    -2
287
     1
 67
     0
278
    -2
288
     1
 68
     0
279
    -2
289
     1
 69
     0
  7
STANDARD
140
0.25
170
     5
 62
     0
 63
     7
283
     0
274
    -2
284
     1
 64
     0
275
    -2
285
     1
 65
     0
276
    -2
286
     1
 66
     0
277
    -2
287
     1
 67
     0
278
    -2
288
     1
 68
     0
279
    -2
289
     1
 69
     0
  7
STANDARD
140
0.18
170
     5
 62
     0
 63
     7
283
     0
274
    -2
284
     1
 64
     0
275
    -2
285
     1
 65
     0
276
    -2
286
     1
 66
     0
277
    -2
287
     1
 67
     0
278
    -2
288
     1
 68
     0
279
    -2
289
     1
 69
     0
  0
VISUALSTYLE
  5
22F5
102
{ACAD_REACTORS
330
22EF
102
}
330
22EF
100
AcDbVisualStyle
  2
2dWireframe
 70
     4
 71
     0
 72
     2
 73
     0
 90
        0
 40
-0.6
 41
-30.0
 62
     5
 63
     7
 74
     1
 91
        4
 64
     7
 65
   257
 75
     1
175
     1
 42
1.0
 92
        0
 66
   257
 43
1.0
 76
     1
 77
     6
 78
     2
 67
     7
 79
     5
170
     0
171
     0
290
     0
174
     0
 93
        1
 44
0.0
173
     0
291
     0
 45
0.0
1001
ACAD
1000
AcDbSavedByObjectVersion
1070
     0
  0
VISUALSTYLE
  5
22F7
102
{ACAD_REACTORS
330
22EF
102
}
330
22EF
100
AcDbVisualStyle
  2
3D Hidden
 70
     6
 71
     1
 72
     2
 73
     2
 90
        0
 40
-0.6
 41
-30.0
 62
     5
 63
     7
 74
     2
 91
        2
 64
     7
 65
   257
 75
     2
175
     1
 42
40.0
 92
        0
 66
   257
 43
1.0
 76
     1
 77
     6
 78
     2
 67
     7
 79
     3
170
     0
171
     0
290
     0
174
     0
 93
        1
 44
0.0
173
     0
291
     0
 45
0.0
1001
ACAD
1000
AcDbSavedByObjectVersion
1070
     0
  0
VISUALSTYLE
  5
22F6
102
{ACAD_REACTORS
330
22EF
102
}
330
22EF
100
AcDbVisualStyle
  2
3dWireframe
 70
     5
 71
     0
 72
     2
 73
     0
 90
        0
 40
-0.6
 41
-30.0
 62
     5
 63
     7
 74
     1
 91
        4
 64
     7
 65
   257
 75
     1
175
     1
 42
1.0
 92
        0
 66
   257
 43
1.0
 76
     1
 77
     6
 78
     2
 67
     7
 79
     5
170
     0
171
     0
290
     0
174
     0
 93
        1
 44
0.0
173
     0
291
     0
 45
0.0
1001
ACAD
1000
AcDbSavedByObjectVersion
1070
     0
  0
VISUALSTYLE
  5
22F4
102
{ACAD_REACTORS
330
22EF
102
}
330
22EF
100
AcDbVisualStyle
  2
Basic
 70
     7
 71
     1
 72
     0
 73
     1
 90
        0
 40
-0.6
 41
-30.0
 62
     5
 63
     7
 74
     0
 91
        4
 64
     7
 65
   257
 75
     1
175
     1
 42
1.0
 92
        8
 66
     7
 43
1.0
 76
     1
 77
     6
 78
     2
 67
     7
 79
     5
170
     0
171
     0
290
     0
174
     0
 93
        1
 44
0.0
173
     0
291
     1
 45
0.0
1001
ACAD
1000
AcDbSavedByObjectVersion
1070
     0
  0
VISUALSTYLE
  5
22FB
102
{ACAD_REACTORS
330
22EF
102
}
330
22EF
100
AcDbVisualStyle
  2
Brighten
 70
    12
 71
     2
 72
     2
 73
     0
 90
        0
 40
-0.6
 41
-30.0
 62
     5
 63
     7
 74
     1
 91
        4
 64
     7
 65
   257
 75
     1
175
     1
 42
1.0
 92
        8
 66
     7
 43
1.0
 76
     1
 77
     6
 78
     2
 67
     7
 79
     5
170
     0
171
     0
290
     0
174
     0
 93
        1
 44
50.0
173
     0
291
     1
 45
0.0
1001
ACAD
1000
AcDbSavedByObjectVersion
1070
     0
  0
VISUALSTYLE
  5
22FF
102
{ACAD_REACTORS
330
22EF
102
}
330
22EF
100
AcDbVisualStyle
  2
ColorChange
 70
    16
 71
     2
 72
     2
 73
     3
 90
        0
 40
-0.6
 41
-30.0
 62
     5
 63
     8
 74
     1
 91
        4
 64
     7
 65
   257
 75
     1
175
     1
 42
1.0
 92
        8
 66
     8
 43
1.0
 76
     1
 77
     6
 78
     2
 67
     7
 79
     5
170
     0
171
     0
290
     0
174
     0
 93
        1
 44
0.0
173
     0
291
     1
 45
0.0
1001
ACAD
1000
AcDbSavedByObjectVersion
1070
     0
  0
VISUALSTYLE
  5
22F8
102
{ACAD_REACTORS
330
22EF
102
}
330
22EF
100
AcDbVisualStyle
  2
Conceptual
 70
     9
 71
     3
 72
     2
 73
     0
 90
        0
 40
-0.6
 41
-30.0
 62
     5
 63
     7
 74
     2
 91
        2
 64
     7
 65
   257
 75
     1
175
     1
 42
40.0
 92
        8
 66
     7
 43
1.0
 76
     1
 77
     6
 78
     2
 67
     7
 79
     3
170
     0
171
     0
290
     0
174
     0
 93
        1
 44
0.0
173
     0
291
     0
 45
0.0
1001
ACAD
1000
AcDbSavedByObjectVersion
1070
     0
  0
VISUALSTYLE
  5
22FA
102
{ACAD_REACTORS
330
22EF
102
}
330
22EF
100
AcDbVisualStyle
  2
Dim
 70
    11
 71
     2
 72
     2
 73
     0
 90
        0
 40
-0.6
 41
-30.0
 62
     5
 63
     7
 74
     1
 91
        4
 64
     7
 65
   257
 75
     1
175
     1
 42
1.0
 92
        8
 66
     7
 43
1.0
 76
     1
 77
     6
 78
     2
 67
     7
 79
     5
170
     0
171
     0
290
     0
174
     0
 93
        1
 44
-50.0
173
     0
291
     1
 45
0.0
1001
ACAD
1000
AcDbSavedByObjectVersion
1070
     0
  0
VISUALSTYLE
  5
22FE
102
{ACAD_REACTORS
330
22EF
102
}
330
22EF
100
AcDbVisualStyle
  2
Facepattern
 70
    15
 71
     2
 72
     2
 73
     0
 90
        0
 40
-0.6
 41
-30.0
 62
     5
 63
     7
 74
     1
 91
        4
 64
     7
 65
   257
 75
     1
175
     1
 42
1.0
 92
        8
 66
     7
 43
1.0
 76
     1
 77
     6
 78
     2
 67
     7
 79
     5
170
     0
171
     0
290
     0
174
     0
 93
        1
 44
0.0
173
     0
291
     1
 45
0.0
1001
ACAD
1000
AcDbSavedByObjectVersion
1070
     0
  0
VISUALSTYLE
  5
22F0
102
{ACAD_REACTORS
330
22EF
102
}
330
22EF
100
AcDbVisualStyle
  2
Flat
 70
     0
 71
     2
 72
     1
 73
     1
 90
        2
 40
-0.6
 41
30.0
 62
     5
 63
     7
 74
     0
 91
        4
 64
     7
 65
   257
 75
     1
175
     1
 42
1.0
 92
        8
 66
     7
 43
1.0
 76
     1
 77
     6
 78
     2
 67
     7
 79
     5
170
     0
171
     0
290
     0
174
     0
 93
       13
 44
0.0
173
     0
291
     1
 45
0.0
1001
ACAD
1000
AcDbSavedByObjectVersion
1070
     0
  0
VISUALSTYLE
  5
22F1
102
{ACAD_REACTORS
330
22EF
102
}
330
22EF
100
AcDbVisualStyle
  2
FlatWithEdges
 70
     1
 71
     2
 72
     1
 73
     1
 90
        2
 40
-0.6
 41
30.0
 62
     5
 63
     7
 74
     1
 91
        4
 64
     7
 65
   257
 75
     1
175
     1
 42
1.0
 92
        0
 66
   257
 43
1.0
 76
     1
 77
     6
 78
     2
 67
     7
 79
     5
170
     0
171
     0
290
     0
174
     0
 93
       13
 44
0.0
173
     0
291
     1
 45
0.0
1001
ACAD
1000
AcDbSavedByObjectVersion
1070
     0
  0
VISUALSTYLE
  5
22F2
102
{ACAD_REACTORS
330
22EF
102
}
330
22EF
100
AcDbVisualStyle
  2
Gouraud
 70
     2
 71
     2
 72
     2
 73
     1
 90
        2
 40
-0.6
 41
30.0
 62
     5
 63
     7
 74
     0
 91
        4
 64
     7
 65
   257
 75
     1
175
     1
 42
1.0
 92
        0
 66
     7
 43
1.0
 76
     1
 77
     6
 78
     2
 67
     7
 79
     5
170
     0
171
     0
290
     0
174
     0
 93
       13
 44
0.0
173
     0
291
     1
 45
0.0
1001
ACAD
1000
AcDbSavedByObjectVersion
1070
     0
  0
VISUALSTYLE
  5
22F3
102
{ACAD_REACTORS
330
22EF
102
}
330
22EF
100
AcDbVisualStyle
  2
GouraudWithEdges
 70
     3
 71
     2
 72
     2
 73
     1
 90
        2
 40
-0.6
 41
30.0
 62
     5
 63
     7
 74
     1
 91
        4
 64
     7
 65
   257
 75
     1
175
     1
 42
1.0
 92
        0
 66
   257
 43
1.0
 76
     1
 77
     6
 78
     2
 67
     7
 79
     5
170
     0
171
     0
290
     0
174
     0
 93
       13
 44
0.0
173
     0
291
     1
 45
0.0
1001
ACAD
1000
AcDbSavedByObjectVersion
1070
     0
  0
VISUALSTYLE
  5
22FD
102
{ACAD_REACTORS
330
22EF
102
}
330
22EF
100
AcDbVisualStyle
  2
Linepattern
 70
    14
 71
     2
 72
     2
 73
     0
 90
        0
 40
-0.6
 41
-30.0
 62
     5
 63
     7
 74
     1
 91
        4
 64
     7
 65
   257
 75
     7
175
     7
 42
1.0
 92
        8
 66
     7
 43
1.0
 76
     1
 77
     6
 78
     2
 67
     7
 79
     5
170
     0
171
     0
290
     0
174
     0
 93
        1
 44
0.0
173
     0
291
     1
 45
0.0
1001
ACAD
1000
AcDbSavedByObjectVersion
1070
     0
  0
VISUALSTYLE
  5
22F9
102
{ACAD_REACTORS
330
22EF
102
}
330
22EF
100
AcDbVisualStyle
  2
Realistic
 70
     8
 71
     2
 72
     2
 73
     0
 90
        0
 40
-0.6
 41
-30.0
 62
     5
 63
     7
 74
     1
 91
        0
 64
     7
 65
   257
 75
     1
175
     1
 42
1.0
 92
        8
 66
     8
 43
1.0
 76
     1
 77
     6
 78
     2
 67
     7
 79
     5
170
     0
171
     0
290
     0
174
     0
 93
       13
 44
0.0
173
     0
291
     0
 45
0.0
1001
ACAD
1000
AcDbSavedByObjectVersion
1070
     0
  0
VISUALSTYLE
  5
22FC
102
{ACAD_REACTORS
330
22EF
102
}
330
22EF
100
AcDbVisualStyle
  2
Thicken
 70
    13
 71
     2
 72
     2
 73
     0
 90
        0
 40
-0.6
 41
-30.0
 62
     5
 63
     7
 74
     1
 91
        4
 64
     7
 65
   257
 75
     1
175
     1
 42
1.0
 92
       12
 66
     7
 43
1.0
 76
     1
 77
     6
 78
     2
 67
     7
 79
     5
170
     0
171
     0
290
     0
174
     0
 93
        1
 44
0.0
173
     0
291
     1
 45
0.0
1001
ACAD
1000
AcDbSavedByObjectVersion
1070
     0
  0
DICTIONARYVAR
  5
21D1
102
{ACAD_REACTORS
330
859
102
}
330
859
100
DictionaryVariables
280
     0
  1
1:1
  0
DICTIONARYVAR
  5
24A3
102
{ACAD_REACTORS
330
859
102
}
330
859
100
DictionaryVariables
280
     0
  1
STANDARD
  0
DICTIONARYVAR
  5
1430
102
{ACAD_REACTORS
330
859
102
}
330
859
100
DictionaryVariables
280
     0
  1
1
  0
DICTIONARYVAR
  5
24AE
102
{ACAD_REACTORS
330
859
102
}
330
859
100
DictionaryVariables
280
     0
  1
4
  0
DICTIONARYVAR
  5
1AC0
102
{ACAD_REACTORS
330
859
102
}
330
859
100
DictionaryVariables
280
     0
  1
0
  0
DICTIONARYVAR
  5
1431
102
{ACAD_REACTORS
330
859
102
}
330
859
100
DictionaryVariables
280
     0
  1

  0
DICTIONARYVAR
  5
85A
102
{ACAD_REACTORS
330
859
102
}
330
859
100
DictionaryVariables
280
     0
  1
96
  0
XRECORD
  5
28A9
102
{ACAD_REACTORS
330
28A8
102
}
330
28A8
100
AcDbXrecord
280
     1
330
2451
330
2452
330
26D8
330
26D9
330
285C
330
285D
330
274F
330
2750
330
2276
330
2277
  0
XRECORD
  5
21D6
102
{ACAD_REACTORS
330
18DD
102
}
330
18DD
100
AcDbXrecord
280
     1
  1
1
  0
XRECORD
  5
21D5
102
{ACAD_REACTORS
330
18DD
102
}
330
18DD
100
AcDbXrecord
280
     1
  1
1
  0
DICTIONARY
  5
2875
330
2862
100
AcDbDictionary
280
     1
281
     1
  3
ACAD_XREC_ROUNDTRIP
360
28B9
  3
ADSK_XREC_LAYOUTTHUMBNAIL
360
2876
  0
DICTIONARY
  5
28AB
330
47E
100
AcDbDictionary
280
     1
281
     1
  3
ACAD_XREC_ROUNDTRIP
360
28AC
  0
DICTIONARY
  5
28B3
330
22ED
100
AcDbDictionary
280
     1
281
     1
  3
ACAD_XREC_ROUNDTRIP
360
28B4
  0
DICTIONARY
  5
28B1
330
22EC
100
AcDbDictionary
280
     1
281
     1
  3
ACAD_XREC_ROUNDTRIP
360
28B2
  0
DICTIONARY
  5
28B5
330
22EE
100
AcDbDictionary
280
     1
281
     1
  3
ACAD_XREC_ROUNDTRIP
360
28B6
  0
DICTIONARY
  5
28AD
330
670
100
AcDbDictionary
280
     1
281
     1
  3
ACAD_XREC_ROUNDTRIP
360
28AE
  0
DICTIONARY
  5
28AF
330
675
100
AcDbDictionary
280
     1
281
     1
  3
ACAD_XREC_ROUNDTRIP
360
28B0
  0
DICTIONARY
  5
28B7
330
2302
100
AcDbDictionary
280
     1
281
     1
  3
ACAD_XREC_ROUNDTRIP
360
28B8
  0
XRECORD
  5
28B9
102
{ACAD_REACTORS
330
2875
102
}
330
2875
100
AcDbXrecord
280
     1
102
SHADEPLOT
 70
     0
102
SHADEPLOTRESLEVEL
 70
     2
102
SHADEPLOTCUSTOMDPI
 70
   300
  0
XRECORD
  5
2876
102
{ACAD_REACTORS
330
2875
102
}
330
2875
100
AcDbXrecord
280
     1
310
280000006C0000008C0000000100080000000000103B0000000000000000000000010000000000000000000000000000FFFFFF000000000000000000000000000000000000000000000000000000000000000000330000006600000099000000CC000000FF00000000330000333300006633000099330000CC330000FF3300
310
0000660000336600006666000099660000CC660000FF66000000990000339900006699000099990000CC990000FF99000000CC000033CC000066CC000099CC0000CCCC0000FFCC000000FF000033FF000066FF000099FF0000CCFF0000FFFF000000003300330033006600330099003300CC003300FF003300003333003333
310
33006633330099333300CC333300FF33330000663300336633006666330099663300CC663300FF66330000993300339933006699330099993300CC993300FF99330000CC330033CC330066CC330099CC3300CCCC3300FFCC330000FF330033FF330066FF330099FF3300CCFF3300FFFF330000006600330066006600660099
310
006600CC006600FF00660000336600333366006633660099336600CC336600FF33660000666600336666006666660099666600CC666600FF66660000996600339966006699660099996600CC996600FF99660000CC660033CC660066CC660099CC6600CCCC6600FFCC660000FF660033FF660066FF660099FF6600CCFF6600
310
FFFF660000009900330099006600990099009900CC009900FF00990000339900333399006633990099339900CC339900FF33990000669900336699006666990099669900CC669900FF66990000999900339999006699990099999900CC999900FF99990000CC990033CC990066CC990099CC9900CCCC9900FFCC990000FF99
310
0033FF990066FF990099FF9900CCFF9900FFFF99000000CC003300CC006600CC009900CC00CC00CC00FF00CC000033CC003333CC006633CC009933CC00CC33CC00FF33CC000066CC003366CC006666CC009966CC00CC66CC00FF66CC000099CC003399CC006699CC009999CC00CC99CC00FF99CC0000CCCC0033CCCC0066CC
310
CC0099CCCC00CCCCCC00FFCCCC0000FFCC0033FFCC0066FFCC0099FFCC00CCFFCC00FFFFCC000000FF003300FF006600FF009900FF00CC00FF00FF00FF000033FF003333FF006633FF009933FF00CC33FF00FF33FF000066FF003366FF006666FF009966FF00CC66FF00FF66FF000099FF003399FF006699FF009999FF00CC
310
99FF00FF99FF0000CCFF0033CCFF0066CCFF0099CCFF00CCCCFF00FFCCFF0000FFFF0033FFFF0066FFFF0099FFFF00CCFFFF00FFFFFF00000000000D0D0D001A1A1A00282828003535350043434300505050005D5D5D006B6B6B00787878008686860093939300A1A1A100AEAEAE00BBBBBB00C9C9C900D6D6D600E4E4E400
310
F1F1F100FFFFFF0000000000000000000000000000000000000000000000000000000000000000000000000000000000F5F5F5F5F5F5F5F5F5F5F5F5F5F5F5F5F5F5F5F5F5F5F5F5F5F5F5F5F5F5F5F5F5F5F5F5F5F5F5F5F5F5F5F5F5F5F5F5F5F5F5F5F5F5F5F5F5F5F5F5F5F5F5F5F5F5F5F5F5F5F5F5F5F5F5F5F5F5F5
310
F5F5F5F5F5F5F5F5F5F5F5F5F5F5F5F5F5F5F5F5F5F5F5F5F5F5F5F5F5E2E2E2E2E2E2E2E2E2E2E2E2E2E2E2E2E2E2E2E2E2E2E2E2E2E2E2E2E2E2E2E2E2E2E2E2E2E2E2E2E2E2E2E2E2E2E2E2E2E2E2E2E2E2E2E2E2E2E2E2E2E2E2E2E2E2E2E2E2E2E2E2E2E2E2E2E2E2E2E2E2E2E2E2E2E2E2E2E2E2E2E2E2E2E2E2E2E2
310
E2E2E2E2E2E2E2E2F5F5F5F5F5F5F5F5F5F5F5F5F5F5F5F5F5F5F5F5F5F5F5F5F5F5F5F5F5F5F5F5F5F5F5F5F5F5F5F5F5F5F5F5F5F5F5F5F5F5F5F5F5F5F5F5F5F5F5F5F5F5F5F5F5F5F5F5F5F5F5F5F5F5F5F5F5F5F5F5F5F5F5F5F5F5F5F5F5F5F5F5F5F5F5F5F5F5F5F5F5F5F5F5F5F5F5F5F5F5F5E2E2E2E2E2E2E2E2
310
E2E2E2E2E2E2E2E2E2E2E2E2E2E2E2E2E2E2E2E2E2E2E2E2E2E2E2E2E2E2E2E2E2E2E2E2E2E2E2E2E2E2E2E2E2E2E2E2E2E2E2E2E2E2E2E2E2E2E2E2E2E2E2E2E2E2E2E2E2E2E2E2E2E2E2E2E2E2E2E2E2E2E2E2E2E2E2E2E2E2E2E2E2E2E2E2E2F5F5F5E2E2F5F5F5F5F5F5F5F5E2E2E2E2E2E2E2E2E2F5F5F5F5F5F5F5F5
310
F5F5F5F5F5F5F5F5E2E2E2E2E2E2E2E2E2F5F5F5F5F5F5F5F5F5F5F5F5F5F5F5F5E2E2E2E2E2E2E2E2E2F5F5F5F5F5F5F5F5F5F5F5F5F5F5F5F5E2E2E2E2E2E2E2E2E2F5F5F5F5F5F5F5F5E2E2E2F5F5F5E2E2F5E2E2F5F5F5F5F5F5F5F5F5F5F5F5F5F5F5F5F5F5F5F5F5F5F5F5F5F5F5F5F5F5F5F5F5F5F5F5F5F5F5F5F5
310
F5F5F5F5F5F5F5F5F5F5F5F5F5F5F5F5F5F5F5F5F5F5F5F5F5F5F5F5F5F5F5F5F5F5F5F5F5F5F5F5F5F5F5F5F5F5F5F5F5F5F5F5F5E2E2F5E2E2E2F5F5F5E2E2F5E2E2BEF5F5F5F5F5F5F5F5F5F5F5F5F5F5F5F5F5F5F5F5F5F5F5F5F5F5F5F5F5F5F5F5F5F5F5F5F5F5F5F5F5F5F5F5F5F5F5F5F5F5F5F5F5F5F5F5F5F5F5
310
F5F5F5F5F5F5F5F5F5F5F5F5F5F5F5F5F5F5F5F5F5F5F5F5F5F5F5F5F5F5F5F5F5F5E2E2F5E2E2E2F5F5F5E2E2F5E2E2F5E2E2E2E2E2E2E2E2E2E2E2E2E2E2E2E2E2E2E2E2E2E2E2E2E2E2E2E2E2E2E2E2E2E2E2E2E2E2E2E2E2E2F5F5F5F5E2E2E2E2E2E2E2E2E2F5E2E2E2E2E2E2E2E2E2E2E2E2E2E2E2E2E2E2F5E2E2E2
310
E2E2E2E2E2E2E2E2E2E2E2E2E2F5F5E2E2F5E2E2E2F5F5F5E2E2F5E2E2F5E2E2E2E2E2E2E2E2E2E2E2E2E2E2E2E2E2E2E2E2E2E2E2E2E2E2E2E2E2E2E2E2E2E2E2E2E2E2E2E2E2E2F5F5E2F5E2E2E2E2E2E2E2E2E2F5E2E2E2E2E2E2E2E2E2E2E2E2E2E2E2E2E2E2F5E2E2E2E2E2E2E2E2E2E2E2E2E2E2E2E2F5F5E2E2F5E2
310
E2E2F5F5F5E2E2F5E2E2F5E2E2E2E2E2E2E2E2E2E2E2E2E2E2E2E2E2E2E2E2E2E2E2E2E2E2E2E2E2E2E2E2E2E2E2E2E2E2E2E2E2E2F5F5F5F5F5F5F5F5F5F5F5F5F5F5F5F5F5F5F5F5F5F5F5F5F5F5F5F5F5F5F5F5F5F5F5F5F5F5F5F5F5F5F5F5F5F5F5F5F5F5F5E2E2F5E2E2E2F5F5F5E2E2F5E2E2F5E2E2E2E2E2E2E2E2
310
E2E2E2E2E2E2E2E2E2E2E2E2E2E2E2E2E2E2E2E2E2E2E2E2E2E2E2E2E2E2E2E2E2E2F5E2F5F5F5F5F5E2F5E2E2E2E2E2E2E2E2E2E2E2E2E2E2F5E2E2E2E2E2E2E2E2E2E2E2E2E2E2E2E2E2E2E2E2E2F5F5F5F5F5F5E2E2F5E2E2E2F5F5F5E2E2F5E2E2F5E2E2E2E2E2E2E2E2E2E2E2E2E2E2E2E2E2E2E2E2E2E2E2E2E2E2E2
310
E2E2E2E2E2E2E2E2E2E2E2E2E2E2E2F5E2F5F5F5F5F5E2F5E2E2E2E2E2E2E2E2E2E2E2E2E2E2F5E2E2E2E2E2E2E2E2E2E2E2E2E2E2E2E2E2E2E2E2E2F5F5F5F5F5F5E2E2F5E2E2E2F5F5F5E2E2F5E2E2F5F5F5F5F5F5F5F5F5F5F5F5F5F5F5F5F5F5F5F5F5F5F5F5F5F5F5F5F5F5F5F5F5F5F5F5F5F5F5F5F5F5F5F5F5F5F5
310
F5E2E2E2F5F5F5F5E2E2E2E2E2E2E2E2E2E2E2F5F5F5F5F5F5E2E2E2E2E2E2E2E2E2E2E2E2E2E2E2E2F5F5F5F5F5F5E2E2F5E2E2E2F5F5F5E2E2E2E2E2F5E2F5F5F5F5F5F5F5F5F5F5F5F5F5F5F5F5F5F5F5F5F5F5F5F5F5F5E2E2E2E2E2E2E2E2E2E2E2E2E2E2E2F5F5F5F5F5E2E2E2F5F5F5F5E2E2E2E2E2E2E2E2E2E2E2
310
F5F5F5F5F5E2E2E2E2E2E2E2E2E2E2E2E2E2E2E2E2E2F5F5F5F5F5F5E2E2E2E2E2E2F5F5F5E2E2E2E2E2F5E2E2F5F5F5F5F5F5F5F5F5F5F5F5F5F5F5F5F5F5F5F5F5F5F5F5E2E2E2E2E2E2E2E2E2E2E2E2E2E2E2E2F5F5F5F5F5F5F5F5F5F5F5F5F5F5F5F5F5F5F5F5F5F5F5F5F5F5F5F5F5F5F5F5F5F5F5F5F5F5F5F5F5F5
310
F5F5F5F5F5F5F5F5F5E2E2E2E2E2E2F5F5F5E2E2E2E2E2F5E2F5F5F5F5F5F5F5F5F5F5F5F5F5E2F5F5F5F5F5F5F5F5F5F5F5E2F5F5F5F5F5F5F5F5F5F5F5E2E2E2E2F5E2E2E2E2E2E2E2E2E2E2E2E2E2E2E2E2E2E2E2E2E2E2E2E2E2E2E2E2E2E2E2E2E2E2E2E2E2E2E2E2E2E2E2E2E2E2E2E2F5F5E2E2E2E2E2E2F5F5F5E2
310
E2E2E2E2F5E2F5F5F5F5F5F5F5E2F5F5F5E2F5E2F5F5F5F5F5F5F5F5F5F5F5E2F5F5F5F5F5F5F5F5F5F5F5E2E2E2E2F5E2E2E2E2E2E2E2E2E2E2E2E2E2E2E2E2E2E2E2E2E2E2E2E2E2E2E2E2E2E2E2E2E2E2E2E2E2E2E2E2E2E2E2E2E2E2E2E2F5F5E2E2E2E2E2E2F5F5F5E2E2E2E2E2F5F5F5F5F5F5F5F5F5F5F5F5F5F5F5
310
F5F5F5F5F5F5F5F5F5F5F5F5F5F5F5F5F5F5F5F5F5F5F5F5F5F5F5F5F5E2E2E2E2E2E2F5F5F5F5F5F5F5F5E2F5E2F5F5F5F5E2E2E2F5E2E2E2E2E2E2E2E2E2E2E2E2E2E2E2E2E2E2E2E2E2E2E2F5F5E2E2E2E2E2E2F5F5F5E2E2E2E2E2F5E2F5F5F5E2F5F5F5F5F5F5F5F5F5E2F5F5F5F5F5F5F5F5F5F5F5F5E2F5F5F5F5F5
310
E2E2E2E2E2E2E2E2E2F5E2E2E2E2E2E2F5F5F5F5F5F5F5F5F5F5E2F5E2F5F5F5F5F5F5E2E2E2E2E2E2E2E2E2E2E2E2E2E2E2E2E2E2E2E2E2E2E2F5F5E2E2E2E2E2E2F5F5F5E2E2E2E2E2F5E2F5F5F5F5F5F5F5F5F5F5F5F5F5E2F5F5F5F5F5F5F5F5F5F5F5F5E2F5F5F5F5E2E2E2E2E2E2E2E2E2E2F5E2E2E2E2E2E2F5F5F5
310
F5F5F5F5F5F5E2E2F5F5F5F5F5E2F5F5E2E2E2E2E2E2E2E2E2E2E2E2E2E2E2E2E2E2E2E2E2E2E2F5F5E2E2E2E2E2E2F5F5F5E2E2E2E2E2F5E2F5E2F5F5F5F5F5F5F5F5F5F5F5E2F5F5F5F5F5F5F5F5F5F5F5F5E2F5F5F5F5E2E2E2E2E2E2E2E2E2E2F5E2F5F5F5E2E2E2E2E2E2E2E2E2E2E2E2E2E2E2E2E2E2E2E2E2E2E2E2
310
E2E2E2E2E2E2E2E2E2E2E2E2E2E2E2E2E2E2E2E2F5F5E2E2E2E2E2E2F5F5F5E2E2E2E2E2F5E2E2E2E2E2E2E2E2E2E2E2E2E2E2E2E2E2E2E2E2E2E2E2E2E2E2E2E2E2E2E2E2E2E2E2E2E2E2E2E2E2E2F5F5F5F5F5E2E2E2E2E2E2E2E2E2E2E2E2E2E2E2E2E2E2E2E2E2E2E2E2E2E2E2E2E2E2E2E2E2E2E2E2E2E2E2E2E2E2E2
310
E2F5F5E2E2E2E2E2E2F5F5F5E2E2F5E2E2F5E2E2E2E2E2E2E2E2E2E2E2E2E2E2E2E2E2E2E2E2E2E2E2E2E2E2E2E2E2E2E2E2E2E2E2E2E2E2E2E2E2E2F5F5F5F5F5F5F5F5F5F5F5F5F5F5F5F5F5F5F5F5F5F5F5F5F5F5F5F5F5F5F5F5F5F5F5F5F5F5F5F5F5F5F5F5F5F5F5F5F5F5F5E2E2F5E2E2E2F5F5F5E2E2F5E2E2F5E2
310
E2F5F5E2F5F5E2F5F5F5F5F5F5E2F5F5E2F5E2E2E2E2E2E2E2E2E2E2E2E2E2E2E2E2E2E2E2E2E2E2E2F5E2E2E2E2E2E2E2E2E2E2E2E2E2E2E2E2E2E2E2E2E2E2E2E2E2E2E2E2E2E2E2E2E2E2E2E2E2E2E2E2E2E2E2E2E2E2E2E2F5F5E2E2F5E2E2E2F5F5F5E2E2F5E2E2F5E2F5F5F5F5F5F5F5F5E2F5F5E2F5E2F5F5F5F5E2
310
E2E2E2E2E2E2E2E2E2E2E2E2E2E2E2E2E2E2E2E2E2E2F5E2E2E2E2E2E2F5F5F5F5F5F5F5F5F5F5E2F5F5F5F5F5F5F5F5E2E2E2E2E2E2E2E2E2E2E2E2E2E2E2E2E2E2E2E2E2E2E2F5F5E2E2F5E2E2E2F5F5F5E2E2F5E2E2F5E2F5F5F5F5E2E2F5F5E2F5F5E2F5F5F5E2F5E2E2E2E2E2E2E2E2E2E2E2E2E2E2E2E2E2E2E2E2E2
310
E2E2E2F5E2E2E2E2E2E2F5F5F5F5F5F5F5F5F5F5E2F5F5F5F5F5E2E2F5E2E2E2E2E2E2E2E2E2E2E2E2E2E2E2E2E2E2E2E2E2E2E2F5F5E2E2F5E2E2E2F5F5F5E2E2F5E2E2F5E2F5F5F5F5F5F5F5F5E2F5F5F5F5F5F5E2F5E2E2E2E2E2E2E2E2E2E2E2E2E2E2E2E2E2E2E2E2E2E2E2E2F5F5F5F5F5F5F5F5F5F5F5F5F5F5F5F5
310
E2E2F5E2F5F5F5E2F5F5E2E2E2E2E2E2E2E2E2E2E2E2E2E2E2E2E2E2E2E2E2E2E2F5F5E2E2F5E2E2E2F5F5F5E2E2F5E2E2F5E2E2E2E2E2E2E2E2E2E2E2E2E2E2E2E2E2E2E2E2E2E2E2E2E2E2E2E2E2E2E2E2E2E2E2E2E2E2E2E2E2E2F5F5F5F5F5F5F5E2E2E2E2E2E2E2E2E2E2E2E2E2E2E2E2E2E2E2E2E2E2E2E2E2E2E2E2
310
E2E2E2E2E2E2E2E2E2E2E2E2E2E2F5F5E2E2F5E2E2E2F5F5F5E2E2F5E2E2F5F5F5F5F5F5F5F5F5F5F5F5F5F5F5F5F5F5F5F5F5F5F5F5F5F5F5F5F5F5F5F5F5F5F5F5F5F5F5F5F5F5F5F5F5F5F5F5F5F5F5F5F5F5F5F5F5F5F5F5F5F5F5F5F5F5F5F5F5F5F5F5F5F5F5F5F5F5F5F5F5F5F5F5F5F5F5F5F5F5F5F5F5F5E2E2F5
310
E2E2E2F5F5F5E2E2F5E2E2F5E2E2E2E2E2E2E2E2E2E2E2E2F5E2E2E2E2E2E2E2E2E2E2E2F5F5E2E2E2E2F5E2E2E2E2E2E2E2E2E2E2E2E2E2E2E2E2E2E2E2E2E2E2E2E2E2E2E2E2E2E2E2E2E2E2E2E2E2E2E2E2E2E2E2E2E2E2E2E2E2E2E2E2E2E2E2E2E2E2E2E2F5F5E2E2F5E2E2E2F5F5F5E2E2F5E2E2F5E2E2E2E2E2E2F5
310
E2F5F5F5F5E2F5F5F5F5F5F5F5F5F5F5F5F5F5F5F5F5F5F5E2E2E2E2E2E2E2E2E2E2E2E2E2E2E2E2E2E2E2E2E2E2E2E2E2E2E2E2E2E2E2E2E2E2E2E2E2E2E2E2E2E2E2E2E2E2E2E2E2E2E2E2E2E2E2E2E2E2E2E2F5F5E2E2F5E2E2E2F5F5F5E2E2F5E2E2F5E2E2E2E2E2E2F5E2F5F5F5F5E2F5F5F5F5F5F5F5E2F5F5F5F5F5
310
F5F5F5F5F5E2E2E2E2E2E2E2E2E2E2E2E2E2E2E2E2E2E2E2E2E2E2E2E2E2E2E2E2E2E2E2E2E2E2E2E2E2E2E2E2E2E2E2E2E2E2E2E2E2E2E2E2E2E2E2E2E2E2E2E2F5F5E2E2F5E2E2E2F5F5F5E2E2F5E2E2F5E2E2E2E2E2E2E2E2E2E2E2E2E2E2E2E2E2E2E2E2E2E2E2E2E2E2E2E2E2E2E2E2E2E2E2E2E2E2E2E2E2E2E2E2E2
310
E2E2E2E2E2E2E2E2E2E2E2E2E2E2E2E2E2E2E2E2E2E2E2E2E2E2E2E2E2E2E2E2E2E2E2E2E2E2E2E2E2E2E2E2E2E2F5F5E2E2F5E2E2E2F5F5F5E2E2F5E2E2F5E2E2E2E2E2E2E2E2E2E2E2E2E2E2E2E2E2E2E2E2E2E2E2E2E2E2E2E2E2E2E2E2E2E2E2E2E2E2E2E2E2E2E2E2E2E2E2E2E2E2E2E2E2E2E2E2E2E2E2E2E2E2E2E2
310
E2E2E2E2E2E2E2E2E2E2E2E2E2E2E2E2E2E2E2E2E2E2E2E2E2E2E2F5F5E2E2F5E2E2E2F5F5F5E2E2F5E2E2F5E2E2E2E2E2E2E2E2E2E2E2E2E2E2E2E2E2E2E2E2E2E2E2E2E2E2E2E2E2E2E2E2E2E2E2E2E2E2E2E2E2E2E2E2E2E2E2E2E2E2E2E2E2E2E2E2E2E2E2E2E2E2E2E2E2E2E2E2E2E2E2E2E2E2E2E2E2E2E2E2E2E2E2
310
E2E2E2E2E2E2E2E2F5F5E2E2F5E2E2E2F5F5F5E2E2F5E2E2F5E2E2E2E2E2E2E2E2E2E2E2E2E2E2E2E2E2E2E2E2E2E2E2E2E2E2E2E2E2E2E2E2E2E2E2E2E2E2E2E2E2E2E2E2E2E2E2E2E2E2E2E2E2E2E2E2E2E2E2E2E2E2E2E2E2E2E2E2E2E2E2E2E2E2E2E2E2E2E2E2E2E2E2E2E2E2E2E2E2E2E2F5F5E2E2F5E2E2E2F5F5F5
310
E2E2F5E2E2F5E2E2E2E2E2E2E2E2E2E2E2E2E2E2E2E2E2E2E2E2E2E2E2E2E2E2E2E2E2E2E2E2E2E2E2E2E2E2E2E2E2E2E2E2E2E2E2E2E2E2E2E2E2E2E2E2E2E2E2F5F5F5F5F5F5F5F5F5F5F5F5F5F5F5F5F5F5F5F5F5F5F5F5F5F5F5E2E2E2E2E2F5F5E2E2F5E2E2E2F5F5F5E2E2F5E2E2F5E2E2E2E2E2E2E2E2E2E2E2E2E2
310
E2E2E2E2E2E2E2E2E2E2E2E2E2E2E2E2E2E2E2E2E2E2E2E2E2E2E2E2E2E2E2E2E2E2E2E2E2E2E2E2E2E2E2E2E2E2F5F5F5F5F5F5F5F5F5F5F5F5F5F5F5F5F5F5F5F5F5F5F5F5F5F5F5E2E2E2E2E2F5F5E2E2F5E2E2E2F5F5F5E2E2F5E2E2F5E2E2E2E2E2E2E2E2E2E2E2E2E2E2E2E2E2E2E2E2E2E2E2E2E2E2E2E2E2E2E2E2
310
E2E2E2E2E2E2E2E2E2E2E2E2E2E2E2E2E2E2E2E2E2E2E2E2E2E2E2F5F5F5F5F5F5F5E2F5F5F5F5F5F5F5E2E2E2E2E2E2E2E2E2E2E2E2E2E2E2E2E2F5F5E2E2F5E2E2E2F5F5F5E2E2E2E2E2F5E2E2E2E2E2E2E2E2E2E2E2E2E2E2E2E2E2E2E2E2E2E2E2E2E2E2E2E2E2E2E2E2E2E2E2E2E2E2E2E2E2E2E2E2E2E2E2E2E2E2E2
310
E2E2E2E2E2E2E2E2F5F5F5F5F5F5F5E2F5F5F5F5F5F5F5F5F5E2E2E2E2E2E2E2E2E2E2E2E2E2E2E2F5F5E2E2E2E2E2E2F5F5F5E2E2E2E2E2F5E2E2E2E2E2E2E2E2E2E2E2E2E2E2E2E2E2E2E2E2E2E2E2E2E2E2E2E2E2E2E2E2E2E2E2E2E2E2E2E2E2E2E2E2E2E2E2E2E2E2E2E2E2E2E2E2E2E2E2F5F5F5F5F5F5F5F5F5F5F5
310
F5F5F5F5E2E2E2E2E2E2E2E2E2E2E2E2E2E2E2E2E2F5F5E2E2E2E2E2E2F5F5F5E2E2E2E2E2F5E2E2E2E2E2E2E2E2E2E2E2E2E2E2E2E2E2E2E2E2E2E2E2E2E2E2E2E2E2E2E2E2E2E2E2E2E2E2E2E2E2E2E2E2E2E2E2E2E2E2E2E2E2E2E2E2E2E2E2F5F5F5F5F5F5F5E2E2E2E2E2E2E2E2E2E2E2E2E2E2E2E2E2E2E2E2E2E2E2
310
E2E2F5F5E2E2E2E2E2E2F5F5F5E2E2E2E2E2F5E2E2E2E2E2E2E2E2E2E2E2E2E2E2E2E2E2E2E2E2E2E2E2E2E2E2E2E2E2E2E2E2E2E2E2E2E2E2E2E2E2E2E2E2E2E2E2E2E2E2E2E2E2E2E2E2E2E2E2E2E2E2E2F5F5F5E2E2E2E2E2E2E2E2E2E2E2E2E2E2E2E2E2E2E2E2E2E2E2E2E2F5F5E2E2E2E2E2E2F5F5F5E2E2E2E2E2F5
310
E2E2E2E2E2E2E2E2E2E2E2E2E2E2E2E2E2E2E2E2E2E2E2E2E2E2E2E2E2E2E2E2E2E2E2E2E2E2E2E2E2E2E2E2E2E2E2E2E2E2E2E2E2E2E2E2E2E2E2E2E2E2E2E2E2E2E2E2E2E2E2E2E2E2E2E2E2E2E2E2E2E2E2E2E2E2E2E2E2E2E2F5F5E2E2E2E2E2E2F5F5F5E2E2E2E2E2F5E2E2E2E2E2E2E2E2E2E2E2E2E2E2E2E2E2E2E2
310
E2E2E2E2E2E2E2E2E2E2E2E2E2E2E2E2E2E2E2E2E2E2E2E2E2E2E2E2E2E2E2E2E2E2E2E2E2E2E2E2E2E2E2F5F5E2E2E2F5E2E2E2E2E2E2E2E2E2E2E2E2E2E2E2E2E2E2E2E2E2E2E2F5F5E2E2E2E2E2E2F5F5F5E2E2E2E2E2F5E2E2E2E2E2E2E2E2E2E2E2E2E2E2E2E2E2E2E2E2E2E2E2E2E2E2E2E2E2E2E2E2E2E2E2E2E2E2
310
E2E2E2E2E2E2E2E2E2E2E2E2E2E2E2E2E2E2E2E2E2F5F5F5F5F5F5F5F5F5F5F5F5F5E2F5F5F5F5F5F5F5F5F5F5F5F5F5F5F5F5F5F5F5F5E2E2E2E2E2E2F5F5F5E2E2E2E2E2F5E2E2E2E2E2E2E2E2E2E2E2E2E2E2E2E2E2E2E2E2E2E2E2E2E2E2E2E2E2E2E2E2E2E2E2E2E2E2E2E2E2E2E2E2E2E2E2E2E2E2E2E2E2E2E2E2E2
310
E2E2F5F5F5F5F5F5F5F5F5F5F5F5F5E2F5F5F5F5F5F5F5F5F5F5F5F5F5F5F5F5F5F5F5F5E2E2E2E2E2E2F5F5F5E2E2E2E2E2F5E2E2E2E2E2E2E2E2E2E2E2E2E2E2E2E2E2E2E2E2E2E2E2E2E2E2E2E2E2E2E2E2E2E2E2E2E2E2E2E2E2E2E2E2E2E2E2E2E2E2E2E2E2E2E2E2E2E2E2F5F5F5F5F5F5F5F5F5F5F5E2F5F5F5F5F5
310
F5F5F5F5F5F5F5E2E2E2E2E2E2E2E2F5F5E2E2E2E2E2E2F5F5F5E2E2E2E2E2F5E2E2E2E2E2E2E2E2E2E2E2E2E2E2E2E2E2E2E2E2E2E2E2E2E2E2E2E2E2E2E2E2E2E2E2E2E2E2E2E2E2E2E2E2E2E2E2E2E2E2E2E2E2E2E2E2E2E2E2F5F5F5F5F5F5F5F5F5F5F5F5F5F5F5F5F5F5F5F5F5F5F5F5E2E2E2E2E2E2E2E2F5F5E2E2
310
E2E2E2E2F5F5F5E2E2F5E2E2F5E2E2E2E2E2E2E2E2E2E2E2E2E2E2E2E2E2E2E2E2E2E2E2E2E2E2E2E2E2E2E2E2E2E2E2E2E2E2E2E2E2E2E2E2E2E2E2E2E2E2E2E2E2E2E2E2E2E2E2F5F5F5F5F5F5E2F5F5F5E2F5F5F5F5F5F5F5F5F5F5E2E2E2E2E2E2E2E2E2E2E2F5F5E2E2F5E2E2E2F5F5F5E2E2F5E2E2F5E2E2E2E2E2E2
310
E2E2E2E2E2E2E2E2E2E2E2E2E2E2E2E2E2E2E2E2E2E2E2E2E2E2E2E2E2E2E2E2E2E2E2E2E2E2E2E2E2E2E2E2E2E2E2E2E2E2E2E2E2F5F5F5F5F5F5E2F5F5F5F5F5F5F5F5F5F5F5F5E2E2E2E2E2E2E2E2E2E2E2E2E2F5F5E2E2F5E2E2E2F5F5F5E2E2F5E2E2F5E2E2E2E2E2E2E2E2E2E2E2E2E2E2E2E2E2E2E2E2E2E2E2E2E2
310
E2E2E2E2E2E2E2E2E2E2E2E2E2E2E2E2E2E2E2E2E2E2E2E2E2E2E2E2E2E2E2E2E2E2F5F5F5F5F5F5E2E2E2E2E2E2E2E2E2E2E2E2E2E2E2E2E2E2E2E2E2E2E2E2E2E2F5F5E2E2F5E2E2E2F5F5F5E2E2F5E2E2F5E2E2E2E2E2E2E2E2E2E2E2E2E2E2E2E2E2E2E2E2E2E2E2E2E2E2E2E2E2E2E2E2E2E2E2E2E2E2E2E2E2E2E2E2
310
E2E2E2E2E2E2E2E2E2E2E2E2E2E2E2E2E2E2E2F5F5E2E2E2E2E2E2E2E2E2E2E2E2E2E2E2E2E2E2E2E2E2E2E2E2E2E2F5F5E2E2F5E2E2E2F5F5F5E2E2F5E2E2F5E2E2E2E2E2E2E2E2E2E2E2E2E2E2E2E2E2E2E2E2E2E2E2E2E2E2E2E2E2E2E2E2E2E2E2E2E2E2E2E2E2E2E2E2E2E2E2E2E2E2E2E2E2E2E2E2E2E2E2E2E2E2E2
310
E2E2E2E2E2E2E2E2E2E2E2E2E2E2E2E2E2E2E2E2E2E2E2E2E2E2E2E2F5F5E2E2F5E2E2E2F5F5F5E2E2F5E2E2F5E2E2E2E2E2E2E2E2E2E2E2E2E2E2E2E2E2E2E2E2E2E2E2E2E2E2E2E2E2E2E2E2E2E2E2E2E2E2E2E2E2E2E2E2E2E2E2E2E2E2E2E2E2E2E2E2E2E2E2F5F5F5F5F5F5F5F5F5F5F5F5F5F5F5F5F5F5F5F5F5F5F5
310
E2E2E2E2E2E2E2E2E2F5F5E2E2F5E2E2E2F5F5F5E2E2F5E2E2F5E2E2E2E2E2E2E2E2E2E2E2E2E2E2E2E2E2E2E2E2E2E2E2E2E2E2E2E2E2E2E2E2E2E2E2E2E2E2E2E2E2E2E2E2E2E2E2E2E2E2E2E2E2E2E2E2E2E2E2F5F5F5F5F5F5F5F5F5F5F5F5F5F5E2F5F5F5F5F5F5F5F5E2E2E2E2E2E2E2E2E2F5F5E2E2F5E2E2E2F5F5
310
F5E2E2F5E2E2F5E2E2E2E2E2E2E2E2E2E2E2E2E2E2E2E2E2E2E2E2E2E2E2E2E2E2E2E2E2E2E2E2E2E2E2E2E2E2E2E2E2E2E2E2E2E2E2E2E2E2E2E2E2E2E2E2E2E2E2E2E2E2E2E2E2E2E2F5E2E2E2E2E2E2E2E2E2E2E2F5E2E2E2F5E2E2F5E2E2E2E2F5F5E2E2F5E2E2E2F5F5F5E2E2F5E2E2F5E2E2E2E2E2E2E2E2E2E2E2E2
310
E2E2E2E2E2E2E2E2E2E2E2E2E2E2E2E2E2E2E2E2E2E2E2E2E2E2E2E2E2E2E2E2E2E2E2E2E2E2E2E2E2E2E2E2E2E2E2F5F5E2F5F5F5F5F5E2F5F5F5F5F5F5F5F5F5F5F5F5F5F5F5F5F5F5F5E2E2E2E2F5F5E2E2F5E2E2E2F5F5F5E2E2F5E2E2F5E2E2E2E2E2E2E2E2E2E2E2E2E2E2E2E2E2E2E2E2E2E2E2E2E2E2E2E2E2E2E2
310
E2E2E2E2E2E2E2E2E2E2E2E2E2E2E2E2E2E2E2E2E2E2E2E2E2E2E2E2F5F5F5F5F5F5F5F5E2F5F5F5F5F5F5F5F5F5F5F5F5F5F5F5F5F5F5F5E2E2E2E2F5F5E2E2F5E2E2E2F5F5F5E2E2F5E2E2F5E2E2E2E2E2E2E2E2E2E2E2E2E2E2E2E2E2E2E2E2E2E2E2E2E2E2E2E2E2E2E2E2E2E2E2E2E2E2E2E2E2E2E2E2E2E2E2E2E2E2
310
E2E2E2E2E2E2E2E2E2F5F5F5F5F5F5F5F5F5F5F5F5F5F5F5F5F5F5F5F5E2E2E2E2E2E2E2E2E2E2E2E2F5F5E2E2F5E2E2E2F5F5F5E2E2F5E2E2F5E2E2E2E2E2E2E2E2E2E2E2E2E2E2E2E2E2E2E2E2E2E2E2E2E2E2E2E2E2E2E2E2E2E2E2E2E2E2E2E2E2E2E2E2E2E2E2E2E2E2E2E2E2E2E2E2E2E2E2F5F5F5F5F5F5F5F5F5F5
310
F5F5F5F5F5F5F5F5F5F5E2E2E2E2E2E2E2E2E2E2E2E2F5F5E2E2F5E2E2E2F5F5F5E2E2F5E2E2F5E2E2E2E2E2E2E2E2E2E2E2E2E2E2E2E2E2E2E2E2E2E2E2E2E2E2E2E2E2E2E2E2E2E2E2E2E2E2E2E2E2E2E2E2E2E2E2E2E2E2E2E2E2E2E2E2E2E2E2F5F5F5F5E2F5E2E2E2E2E2E2E2E2E2E2E2E2E2E2E2E2E2E2E2E2E2E2E2
310
E2E2E2F5F5E2E2F5E2E2E2F5F5F5E2E2F5E2E2F5E2E2E2E2E2E2E2E2E2E2E2E2E2E2E2E2E2E2E2E2E2E2E2E2E2E2E2E2E2E2E2E2E2E2E2E2E2E2E2E2E2E2E2E2E2E2E2E2E2E2E2E2E2E2E2E2E2E2E2F5F5F5F5F5F5F5E2E2E2E2E2E2E2E2E2E2E2E2E2E2E2E2E2E2E2E2E2E2E2E2E2F5F5E2E2F5E2E2E2F5F5F5E2E2F5E2E2
310
F5E2E2E2E2E2E2E2E2E2E2E2E2E2E2E2E2E2E2E2E2E2F5F5F5F5F5F5F5F5F5F5F5F5E2E2E2E2E2E2E2E2E2E2E2E2E2E2E2E2E2E2E2E2E2E2E2E2E2E2E2E2E2E2E2E2E2E2E2E2E2E2E2E2E2E2E2E2E2E2E2E2E2E2E2E2E2E2E2E2E2E2F5F5E2E2F5E2E2E2F5F5F5E2E2F5E2E2F5E2E2E2E2E2E2E2E2E2F5F5F5F5F5F5F5E2E2
310
E2E2E2F5F5F5F5F5F5F5F5F5F5F5F5E2E2E2E2E2E2E2E2E2E2E2E2E2E2E2E2E2E2E2E2E2E2E2E2E2E2E2E2E2E2E2E2E2E2E2E2E2E2E2E2E2E2E2E2E2E2E2E2E2E2E2E2E2E2E2E2E2E2F5F5E2E2F5E2E2E2F5F5F5E2E2E2E2E2F5E2E2E2E2E2E2E2E2F5F5F5F5F5F5F5F5E2E2E2E2E2F5E2E2E2E2E2E2E2E2E2F5E2E2E2E2E2
310
E2E2E2E2E2E2E2E2E2E2E2E2E2E2E2E2E2E2E2E2E2E2E2E2E2E2E2E2E2E2E2E2E2E2E2E2E2E2E2E2E2E2E2E2E2E2E2E2E2E2E2E2E2E2F5F5E2E2E2E2E2E2F5F5F5E2E2E2E2E2F5E2E2E2E2E2E2E2E2E2F5F5F5F5F5F5F5E2E2E2E2F5F5F5F5F5F5F5F5F5F5F5F5E2E2E2E2E2E2E2E2E2E2E2E2E2E2E2E2E2E2E2E2E2E2E2E2
310
E2E2E2E2E2E2E2E2E2E2E2E2E2E2E2E2E2E2E2E2E2E2E2E2E2E2E2E2E2E2E2E2E2E2E2F5F5E2E2E2E2E2E2F5F5F5E2E2E2E2E2F5E2E2E2E2E2E2E2F5F5F5F5F5F5F5F5F5F5E2E2E2E2F5F5E2E2E2E2E2E2E2E2F5F5E2E2E2E2E2E2E2E2E2E2E2E2E2E2E2E2E2E2E2E2E2E2E2E2E2E2E2E2E2E2E2E2E2E2E2E2E2E2E2E2E2E2
310
E2E2E2E2E2E2E2E2E2E2E2E2E2E2E2E2F5F5E2E2E2E2E2E2F5F5F5E2E2E2E2E2F5E2E2E2E2E2E2E2F5F5F5F5F5F5F5F5F5F5E2E2E2E2F5E2E2E2E2E2E2E2E2E2F5E2E2E2E2E2E2E2E2E2E2E2E2E2E2E2E2E2E2E2E2E2E2E2E2E2E2E2E2E2E2E2E2E2E2E2E2E2E2E2E2E2E2E2E2E2E2E2E2E2E2E2E2E2E2E2E2E2E2E2F5F5E2
310
E2E2E2E2E2F5F5F5E2E2E2E2E2F5E2E2E2E2E2E2F5E2E2E2E2E2E2E2E2E2E2E2E2E2E2F5E2E2E2E2E2E2E2E2E2F5E2E2E2E2E2E2E2E2E2E2E2E2E2E2E2E2E2E2E2E2E2E2E2E2E2E2E2E2E2E2E2E2E2E2E2E2E2E2E2E2E2E2E2E2E2E2E2E2E2E2E2E2E2E2E2E2E2E2E2F5F5E2E2E2E2E2E2F5F5F5E2E2E2E2E2F5E2E2E2E2E2
310
F5F5E2E2E2E2E2E2E2E2E2E2E2E2E2E2F5E2E2E2E2E2E2E2E2E2F5E2E2E2E2E2E2E2E2E2E2E2E2E2E2E2E2E2E2E2E2E2E2E2E2E2E2E2E2E2E2E2E2E2E2E2E2E2E2E2E2E2E2E2E2E2E2E2E2E2E2E2E2E2E2E2E2E2E2E2F5F5E2E2E2E2E2E2F5F5F5E2E2E2E2E2F5E2E2E2E2E2F5E2E2E2E2E2E2E2E2E2E2E2E2E2E2E2F5E2E2
310
E2E2E2E2E2E2E2F5E2E2E2E2E2E2E2E2E2E2E2E2E2E2E2E2E2E2E2E2E2E2E2E2E2E2E2E2E2E2E2E2E2E2E2E2E2E2E2E2E2E2E2E2E2E2E2E2E2E2E2E2E2E2E2E2E2E2E2F5F5E2E2E2E2E2E2F5F5F5E2E2E2E2E2F5E2E2E2E2E2F5E2E2E2E2E2E2E2E2E2E2E2E2E2E2E2F5E2E2E2E2E2E2E2E2E2F5E2E2E2E2E2E2E2E2E2E2E2
310
E2E2E2E2E2E2E2E2E2E2E2E2E2E2E2E2E2E2E2E2E2E2E2E2E2E2E2E2E2E2E2E2E2E2E2E2E2E2E2E2E2E2E2E2E2E2E2E2F5F5E2E2E2E2E2E2F5F5F5E2E2E2E2E2F5E2E2E2E2E2F5E2E2E2E2E2E2E2E2E2E2E2E2E2E2E2F5E2E2E2E2E2E2E2E2E2F5E2E2E2E2E2E2E2E2E2E2E2E2E2E2E2E2E2E2E2E2E2E2E2E2E2E2E2E2E2E2
310
E2E2E2E2E2E2E2E2E2E2E2E2E2E2E2E2E2E2E2E2E2E2E2E2E2E2E2E2E2F5F5E2E2E2E2E2E2F5F5F5E2E2E2E2E2F5E2E2E2E2E2F5E2E2E2E2F5F5F5E2E2F5E2E2E2E2E2F5E2E2E2E2E2E2E2E2E2F5E2E2E2E2E2E2E2E2E2E2E2E2E2E2E2E2E2E2E2E2E2E2E2E2E2E2E2E2E2E2E2E2E2E2E2E2E2E2E2E2E2E2E2E2E2E2E2E2E2
310
E2E2E2E2E2E2E2E2E2E2F5F5E2E2E2E2E2E2F5F5F5E2E2F5E2E2F5E2E2E2E2E2F5F5E2E2F5F5F5F5F5F5F5F5F5F5F5F5F5F5F5F5F5F5F5F5F5F5F5E2E2E2E2E2E2E2E2E2E2E2E2E2E2E2E2E2E2E2E2E2E2E2E2E2E2E2E2E2E2E2E2E2E2E2E2E2E2E2E2E2E2E2E2E2E2E2E2E2E2E2E2E2E2E2E2E2E2E2F5F5E2E2F5E2E2E2F5
310
F5F5E2E2F5E2E2F5E2E2E2E2E2E2F5F5E2E2F5E2E2E2F5F5E2E2E2E2E2F5E2F5F5F5F5F5F5F5F5F5F5F5F5F5F5F5F5F5F5F5F5F5F5F5E2E2E2E2E2E2E2E2E2E2E2E2E2E2E2E2E2E2E2E2F5F5F5F5F5F5F5F5F5F5F5F5F5F5F5F5F5F5E2E2E2E2E2E2E2F5F5E2E2F5E2E2E2F5F5F5E2E2F5E2E2F5E2E2E2E2E2E2E2F5E2E2E2
310
E2E2E2E2F5E2E2E2E2E2F5E2F5F5F5F5F5E2E2E2F5E2E2E2E2E2E2E2E2E2E2E2E2E2E2F5F5F5F5F5F5F5F5F5F5F5F5F5F5F5F5F5F5F5F5F5F5F5F5F5F5F5F5F5F5E2F5F5F5F5F5F5F5E2E2E2E2E2E2E2F5F5E2E2F5E2E2E2F5F5F5E2E2F5E2E2F5E2E2E2E2E2E2E2E2E2E2F5F5F5E2E2F5E2E2E2E2E2F5E2F5F5F5F5F5E2E2
310
E2F5E2E2E2E2E2E2E2E2E2E2E2E2E2E2E2E2E2E2E2E2E2E2E2E2E2E2E2E2E2E2E2E2E2F5F5F5F5F5F5F5F5F5F5F5E2F5F5F5F5F5F5F5E2E2E2E2E2E2E2F5F5E2E2F5E2E2E2F5F5F5E2E2F5E2E2F5E2E2E2E2E2E2E2E2E2E2F5F5E2E2E2F5E2E2E2E2E2F5E2F5F5F5F5F5E2E2E2F5E2E2E2E2E2E2E2E2E2E2E2E2E2E2E2E2E2
310
E2E2E2E2E2E2E2E2E2E2E2E2E2E2F5F5E2E2E2E2E2E2E2E2E2E2E2E2E2E2E2E2E2E2E2E2E2E2E2E2E2E2F5F5E2E2F5E2E2E2F5F5F5E2E2F5E2E2F5E2E2E2E2E2E2E2E2E2E2F5F5E2E2E2F5E2E2E2E2E2F5E2F5F5F5F5F5F5F5F5F5E2E2E2E2E2E2E2E2E2E2E2E2E2E2E2E2E2E2E2E2E2E2E2E2E2E2E2E2E2E2F5E2E2E2E2E2
310
E2E2E2E2E2E2E2E2E2E2E2E2E2E2E2E2E2E2E2E2E2E2E2F5F5E2E2F5E2E2E2F5F5F5E2E2F5E2E2F5E2E2E2E2E2E2E2E2E2E2F5F5E2E2E2F5E2E2E2E2E2F5E2F5F5E2E2F5F5F5F5F5E2E2E2E2E2E2E2E2E2E2E2E2E2E2E2E2E2E2E2E2E2E2E2E2E2E2E2E2E2F5E2E2E2E2E2E2E2E2E2E2E2E2E2E2E2E2E2E2E2E2E2E2E2E2E2
310
E2E2E2E2F5F5E2E2F5E2E2E2F5F5F5E2E2F5E2E2F5E2E2E2E2E2E2E2E2E2E2F5F5E2E2E2F5E2E2E2E2E2F5E2F5F5F5E2F5E2E2E2F5F5E2E2E2E2E2E2E2E2E2E2E2E2E2E2E2E2E2E2E2E2E2E2E2E2E2E2E2F5E2E2E2E2E2E2E2E2E2E2E2E2E2E2E2E2E2E2E2E2E2E2E2E2E2E2E2E2E2E2F5F5E2E2F5E2E2E2F5F5F5E2E2F5E2
310
E2F5E2E2E2E2E2E2E2E2E2E2F5F5E2F5F5F5F5F5F5F5F5F5E2F5F5F5E2F5E2E2E2F5F5F5F5F5F5F5F5F5F5F5F5F5F5F5F5F5F5F5F5F5F5F5F5F5F5F5F5F5F5F5F5F5E2E2E2E2E2E2E2E2E2E2E2E2E2E2E2E2E2E2E2E2E2E2E2E2E2E2E2F5F5E2E2F5E2E2E2F5F5F5E2E2F5E2E2F5E2E2E2E2E2E2E2E2E2E2F5F5F5E2E2E2E2
310
E2E2E2E2F5E2F5F5F5F5F5F5F5F5F5F5F5F5F5F5F5F5E2E2E2E2E2E2E2E2E2E2E2E2E2F5F5F5E2E2F5F5F5F5E2E2F5E2E2E2E2E2E2E2E2E2E2E2E2E2E2E2E2E2E2E2E2E2E2E2E2E2E2E2F5F5E2E2F5E2E2E2F5F5F5E2E2F5E2E2F5E2E2E2E2E2E2E2E2E2E2E2E2E2E2E2E2E2E2E2E2E2F5E2F5F5F5F5F5F5F5F5F5F5F5F5F5
310
F5F5F5F5F5F5F5F5E2E2E2E2E2E2E2E2E2E2E2E2E2F5F5F5F5E2E2F5E2E2E2E2E2E2E2E2E2E2E2E2E2E2E2E2E2E2E2E2E2E2E2E2E2E2E2F5F5E2E2F5E2E2E2F5F5F5E2E2F5E2E2F5E2E2E2E2E2E2E2E2E2E2E2E2E2E2E2E2E2E2E2E2E2F5F5F5F5E2E2E2E2E2E2E2E2E2E2F5E2E2E2F5F5F5F5F5F5F5F5F5E2E2E2E2E2E2E2
310
E2E2F5E2E2F5E2E2F5E2E2E2E2E2E2E2E2E2E2E2E2E2E2E2E2E2E2E2E2E2E2E2E2E2E2E2F5F5E2E2F5E2E2E2F5F5F5E2E2F5E2E2F5E2E2E2E2E2E2E2E2E2E2E2E2E2E2E2E2E2E2E2E2E2F5F5F5F5E2E2E2E2E2E2E2E2E2E2F5E2E2E2E2E2E2E2E2F5F5F5F5F5F5F5F5F5F5F5F5F5F5E2F5F5F5F5F5E2E2E2E2E2E2E2E2E2E2
310
E2E2E2E2E2E2E2E2E2E2E2E2E2E2E2E2E2F5F5E2E2F5E2E2E2F5F5F5E2E2F5E2E2F5E2E2E2E2E2E2E2E2E2E2E2E2E2E2E2E2E2E2E2E2E2F5E2F5F5F5F5F5F5F5F5F5F5F5F5F5F5F5F5F5F5F5F5F5F5F5F5F5F5F5F5F5F5F5F5F5F5F5F5F5F5E2E2F5F5F5F5F5F5F5F5F5F5F5F5F5F5F5F5F5E2E2E2E2E2E2E2E2E2E2E2F5F5
310
E2E2F5E2E2E2F5F5F5E2E2F5E2E2F5E2E2E2E2E2E2E2E2E2E2E2E2E2E2E2E2E2E2E2E2F5F5E2F5E2E2E2E2E2E2E2E2E2E2E2F5E2E2E2E2E2E2E2E2E2E2E2E2E2E2E2E2E2E2E2E2E2E2E2E2F5E2E2F5E2E2F5F5F5F5F5F5F5E2F5F5F5F5F5F5E2E2E2E2E2E2E2E2E2E2E2F5F5E2E2F5E2E2E2F5F5F5E2E2F5E2E2F5E2E2E2E2
310
E2E2E2E2E2E2E2E2E2E2E2E2E2E2E2F5E2F5E2F5F5F5F5F5F5F5F5F5F5F5F5F5E2E2E2E2E2E2E2E2E2E2E2E2E2E2E2E2E2E2E2E2E2E2E2E2F5E2E2F5E2E2E2E2E2E2E2E2E2E2E2E2E2E2E2E2E2E2E2E2E2E2E2E2E2E2E2F5F5E2E2F5E2E2E2F5F5F5E2E2E2E2E2F5E2E2E2E2E2F5F5F5F5F5F5F5F5F5F5F5F5F5F5E2E2F5E2
310
F5E2E2E2E2E2E2E2E2E2E2E2F5F5F5F5F5F5F5F5F5F5F5F5F5F5F5F5F5F5F5F5F5F5F5F5F5F5E2E2F5E2E2E2E2E2E2E2E2E2E2E2E2E2E2E2E2E2E2E2E2E2E2E2E2E2E2E2F5F5E2E2E2E2E2E2F5F5F5E2E2E2E2E2F5E2E2E2E2E2F5F5F5F5F5F5F5E2F5F5F5F5F5F5E2E2F5E2F5E2E2E2E2E2E2E2E2E2E2E2F5E2E2E2E2E2E2
310
E2E2E2E2E2E2E2E2E2E2E2E2E2E2E2E2E2E2F5E2E2F5E2E2E2E2E2E2E2E2E2E2E2E2E2E2E2E2E2E2E2E2E2E2E2E2E2E2E2F5F5E2E2E2E2E2E2F5F5F5E2E2E2E2E2F5E2E2E2E2E2E2E2E2E2E2E2E2E2E2E2E2E2E2E2E2E2F5E2F5F5F5F5F5F5F5F5F5F5F5F5F5F5F5F5F5F5F5F5F5F5F5F5F5F5F5F5F5F5F5F5F5F5F5F5F5F5
310
E2E2F5E2E2E2E2E2E2E2E2E2E2E2E2E2E2E2E2E2E2E2E2E2E2E2E2E2E2E2F5F5E2E2E2E2E2E2F5F5F5E2E2E2E2E2F5E2E2E2E2E2E2E2E2E2E2E2E2E2E2E2E2E2E2E2E2E2F5E2F5E2E2E2E2E2E2E2E2E2E2E2F5E2E2E2E2E2E2E2E2E2E2E2E2E2E2E2E2E2E2E2E2E2E2E2E2F5E2E2F5E2E2E2E2E2E2E2E2E2E2E2E2E2E2E2E2
310
E2E2E2E2E2E2E2E2E2E2E2F5F5E2E2E2E2E2E2F5F5F5E2E2E2E2E2F5E2E2E2E2E2E2E2E2E2E2E2E2E2E2E2E2E2E2E2E2E2F5E2F5F5F5F5F5F5F5F5F5F5F5F5F5E2E2E2E2E2E2E2E2E2E2E2E2E2E2E2E2E2E2E2E2E2E2E2E2F5E2E2F5E2E2E2E2E2E2E2E2E2E2E2E2E2E2E2E2E2E2E2E2E2E2E2E2E2E2E2F5F5E2E2E2E2E2E2
310
F5F5F5E2E2E2E2E2F5E2E2E2E2E2E2E2E2E2E2E2E2E2E2E2E2E2E2E2E2E2F5E2F5E2E2E2E2E2E2E2E2E2E2E2F5F5F5F5F5F5F5F5F5F5F5F5F5F5F5F5F5F5F5F5F5F5F5F5F5F5E2E2F5E2E2E2E2E2E2E2E2E2E2E2E2E2E2E2E2E2E2E2E2E2E2E2E2E2E2E2F5F5E2E2E2E2E2E2F5F5F5E2E2E2E2E2F5E2E2E2E2E2E2E2E2E2E2
310
E2E2E2E2E2E2E2E2E2E2E2F5E2F5E2E2E2E2E2E2E2E2E2E2E2F5E2E2E2E2E2E2E2E2E2E2E2E2E2E2E2E2E2E2E2E2E2E2E2E2F5E2E2F5E2E2E2E2E2E2E2E2E2E2E2E2E2E2E2E2E2E2E2E2E2E2E2E2E2E2E2F5F5E2E2E2E2E2E2F5F5F5E2E2E2E2E2F5E2E2E2E2E2E2E2E2E2E2E2E2E2E2E2E2E2E2E2E2E2F5E2F5F5F5F5F5F5
310
F5F5F5F5F5F5F5F5F5F5F5F5F5F5F5F5F5F5F5F5F5F5F5F5F5F5F5F5F5F5F5F5E2E2F5E2E2E2E2E2E2E2E2E2E2E2E2E2E2E2E2E2E2E2E2E2E2E2E2E2E2E2F5F5E2E2E2E2E2E2F5F5F5E2E2E2E2E2F5E2E2E2E2E2E2E2E2E2E2E2E2E2E2E2E2E2E2E2E2E2F5E2F5E2E2E2E2E2E2E2E2E2E2E2F5E2E2E2E2E2E2E2E2E2E2E2E2
310
E2E2E2E2E2E2E2E2E2E2E2E2F5E2E2F5E2E2E2E2E2E2E2E2E2E2E2E2E2E2E2E2E2E2E2E2E2E2E2E2E2E2E2F5F5E2E2E2E2E2E2F5F5F5E2E2E2E2E2F5E2E2E2E2E2E2E2E2E2E2E2E2E2E2E2E2E2E2E2E2E2F5E2F5F5F5F5F5F5F5F5F5F5F5F5F5E2E2E2E2E2E2E2E2E2E2E2E2E2E2E2E2E2E2E2E2E2E2E2E2F5E2E2F5E2E2E2
310
E2E2E2E2E2E2E2E2E2E2E2E2E2E2E2E2E2E2E2E2E2E2E2E2F5F5E2E2E2E2E2E2F5F5F5E2E2F5E2E2F5E2E2E2E2E2E2E2E2E2E2E2E2E2E2E2E2E2E2E2E2E2F5E2F5E2E2E2E2E2E2E2E2E2E2E2F5F5F5F5F5F5F5F5F5F5F5F5F5F5F5F5F5F5F5F5F5F5F5F5F5F5E2E2F5E2E2E2E2E2E2E2E2E2E2E2E2E2E2E2E2E2E2E2E2E2E2
310
E2E2E2E2E2F5F5E2E2F5E2E2E2F5F5F5E2E2F5E2E2F5E2E2E2E2E2E2E2E2E2E2E2E2E2E2E2E2E2E2E2E2E2F5E2F5E2E2E2E2E2E2E2E2E2E2E2F5E2E2E2E2E2E2E2E2E2E2E2E2E2E2E2E2E2E2E2E2E2E2E2E2F5E2E2F5E2E2E2E2E2E2E2E2E2E2E2E2E2E2E2E2E2E2E2E2E2E2E2E2E2E2E2F5F5E2E2F5E2E2E2F5F5F5E2E2F5
310
E2E2F5E2E2E2E2E2E2E2E2E2E2E2E2E2E2E2E2E2E2E2E2E2F5E2F5F5F5F5F5F5F5F5F5F5F5F5F5F5F5F5F5F5F5F5F5F5F5F5F5F5F5F5F5F5F5F5F5F5F5F5F5F5E2E2F5E2E2E2E2E2E2E2E2E2E2E2E2E2E2E2E2E2E2E2E2E2E2E2E2E2E2E2F5F5E2E2F5E2E2E2F5F5F5E2E2F5E2E2F5E2E2E2E2E2E2E2E2E2E2E2E2E2E2E2E2
310
E2E2E2E2E2F5E2F5E2E2E2E2E2E2E2E2E2E2E2F5E2E2E2E2E2E2E2E2E2E2E2E2E2E2E2E2E2E2E2E2E2E2E2E2F5E2E2F5E2E2E2E2E2E2E2E2E2E2E2E2E2E2E2E2E2E2E2E2E2E2E2E2E2E2E2F5F5E2E2F5E2E2E2F5F5F5E2E2F5E2E2F5E2E2E2E2E2E2E2E2E2E2E2E2E2E2E2E2E2E2E2E2E2F5E2F5F5F5F5F5F5F5F5F5F5F5F5
310
F5E2E2E2E2E2E2E2E2E2E2E2E2E2E2E2E2E2E2E2E2E2E2E2E2F5E2E2F5E2E2E2E2E2E2E2E2E2E2E2E2E2E2E2E2E2E2E2E2E2E2E2E2E2E2E2F5F5E2E2F5E2E2E2F5F5F5E2E2F5E2E2F5E2E2E2E2E2E2E2E2E2E2E2E2E2E2E2E2E2E2E2E2E2F5E2F5E2E2E2E2E2E2E2E2E2E2E2F5F5F5F5F5F5F5F5F5F5F5F5F5F5F5F5F5F5F5
310
F5F5F5F5F5F5F5E2E2F5E2E2E2E2E2E2E2E2E2E2E2E2E2E2E2E2E2E2E2E2E2E2E2E2E2E2E2F5F5E2E2F5E2E2E2F5F5F5E2E2F5E2E2F5E2E2E2E2E2E2E2E2E2E2E2E2E2E2E2E2E2E2E2E2E2F5E2F5E2E2E2E2E2E2E2E2E2E2E2F5E2E2E2E2E2E2E2E2E2E2F5F5E2E2E2E2E2E2E2E2E2E2E2E2F5E2E2F5E2E2E2E2E2E2E2E2E2
310
E2E2E2E2E2E2E2E2E2E2E2E2E2E2E2E2E2E2F5F5E2E2F5E2E2E2F5F5F5E2E2F5E2E2F5E2E2E2E2E2E2E2E2E2E2F5F5F5F5F5F5F5F5F5F5F5F5F5F5F5F5F5F5F5F5F5F5F5F5F5F5F5F5F5F5F5F5F5F5F5F5F5F5F5F5F5F5F5F5F5F5F5F5F5F5F5F5F5F5F5F5F5F5F5F5F5F5F5E2E2E2E2E2E2E2E2E2E2E2E2E2E2E2E2E2E2F5
310
F5E2E2F5E2E2E2F5F5F5E2E2F5E2E2F5E2E2E2E2E2E2E2E2E2E2E2E2E2E2E2E2E2E2E2E2E2F5E2F5E2E2E2E2E2E2E2E2E2E2E2E2E2E2E2E2E2F5F5E2E2E2E2E2E2E2E2E2E2E2E2E2E2E2E2E2F5E2E2F5E2E2E2E2E2E2E2E2E2E2E2E2E2E2E2E2E2E2E2E2E2E2E2E2E2E2E2F5F5E2E2F5E2E2E2F5F5F5E2E2F5E2E2F5E2E2E2
310
E2E2E2E2E2E2E2E2E2E2E2E2E2E2E2E2E2E2F5E2F5E2E2E2E2E2E2E2E2E2E2E2E2E2E2E2E2E2E2E2E2E2E2E2E2E2E2E2E2E2E2E2E2E2E2E2E2F5E2E2F5E2E2E2E2E2E2E2E2E2E2E2E2E2E2E2E2E2E2E2E2E2E2E2E2E2E2E2F5F5E2E2F5E2E2E2F5F5F5E2E2F5E2E2F5E2E2E2E2E2E2E2E2E2E2E2E2E2E2E2E2E2E2E2E2E2F5
310
E2F5F5F5F5F5F5F5F5F5F5F5F5F5F5F5F5F5F5F5F5F5F5F5F5F5F5F5F5F5F5F5F5F5F5F5F5F5F5E2E2F5E2E2E2E2E2E2E2E2E2E2E2E2E2E2E2E2E2E2E2E2E2E2E2E2E2E2E2F5F5E2E2F5E2E2E2F5F5F5E2E2F5E2E2F5E2E2E2E2E2E2E2E2E2E2E2E2E2E2E2E2E2E2E2E2E2F5E2F5E2E2E2E2E2E2E2E2E2E2E2E2E2E2F5F5F5
310
F5F5F5F5F5F5F5E2E2E2E2E2E2E2E2E2E2E2E2F5E2E2F5E2E2E2E2E2E2E2E2E2E2E2E2E2E2E2E2E2E2E2E2E2E2E2E2E2E2E2F5F5E2E2F5E2E2E2F5F5F5E2E2F5E2E2F5E2E2E2E2E2E2E2E2E2E2E2E2E2E2E2E2E2E2E2E2E2F5E2E2E2E2E2E2E2E2E2E2E2E2E2E2E2E2E2E2F5F5F5E2E2E2F5F5E2E2E2E2E2E2E2E2E2E2E2E2
310
E2E2E2F5E2E2E2E2E2E2E2E2E2E2E2E2E2E2E2E2E2E2E2E2E2E2E2E2E2E2E2F5F5E2E2F5E2E2E2F5F5F5E2E2F5E2E2F5E2E2E2E2E2E2E2E2E2E2E2E2E2E2E2E2E2E2E2E2E2F5E2E2E2E2E2E2E2E2E2E2E2E2E2E2E2E2E2E2E2E2E2E2E2E2E2E2E2E2E2E2E2E2E2E2E2E2E2E2E2E2E2F5E2E2E2E2E2E2E2E2E2E2E2E2E2E2E2
310
E2E2E2E2E2E2E2E2E2E2E2E2F5F5E2E2F5E2E2E2F5F5F5E2E2F5E2E2F5E2E2E2E2E2E2E2E2E2E2E2E2E2E2E2E2E2E2E2E2E2F5E2E2E2E2E2E2E2E2E2E2E2E2E2E2E2E2E2E2E2E2E2E2E2E2E2E2E2E2E2E2E2E2E2E2E2E2E2E2E2E2E2F5E2E2E2E2E2E2E2E2E2E2E2E2E2E2E2E2E2E2E2E2E2E2E2E2E2E2E2F5F5E2E2F5E2E2
310
E2F5F5F5E2E2F5E2E2F5E2E2E2E2E2E2E2E2E2E2E2E2E2E2E2E2E2E2E2E2F5F5E2E2E2E2E2E2E2E2E2E2E2E2E2E2E2E2E2E2E2E2E2E2E2E2E2E2E2E2E2E2E2E2E2E2E2E2E2E2E2E2F5F5E2E2E2E2E2E2E2E2E2E2E2E2E2E2E2E2E2E2E2E2E2E2E2E2E2E2E2F5F5E2E2F5E2E2E2F5F5F5E2E2F5E2E2F5E2E2E2E2E2E2E2E2E2
310
E2E2E2E2E2E2E2E2E2E2E2E2F5F5F5F5F5F5F5F5F5F5F5F5F5F5F5F5F5F5F5F5F5F5F5F5F5F5F5F5F5F5F5F5F5F5F5F5F5F5F5F5F5F5F5E2E2E2E2E2E2E2E2E2E2E2E2E2E2E2E2E2E2E2E2E2E2E2E2E2E2E2F5F5E2E2F5E2E2E2F5F5F5E2E2E2E2E2F5E2E2E2E2E2E2E2E2E2E2E2E2E2E2E2E2E2E2E2E2E2F5F5E2E2E2E2E2
310
E2E2E2E2E2E2E2E2F5F5F5F5E2F5F5F5F5F5E2F5F5E2E2E2E2E2E2E2E2E2E2E2E2E2E2F5E2E2E2E2E2E2E2E2E2E2E2E2E2E2E2E2E2E2E2E2E2E2E2E2E2E2E2F5F5E2E2E2E2E2E2F5F5F5E2E2E2E2E2F5E2E2E2E2E2E2E2E2E2E2E2E2E2E2E2E2E2E2E2E2E2E2E2E2E2E2E2E2E2E2E2E2E2E2E2E2F5F5F5F5E2F5F5F5F5F5E2
310
F5F5E2E2E2E2E2E2E2E2E2E2E2E2E2E2E2E2E2E2E2E2E2E2E2E2E2E2E2E2E2E2E2E2E2E2E2E2E2E2E2E2E2E2F5F5E2E2E2E2E2E2F5F5F5E2E2E2E2E2F5E2E2E2E2E2E2E2E2E2E2E2E2E2E2E2E2E2E2E2E2E2E2E2E2E2E2E2E2E2E2E2E2E2E2E2E2E2E2E2E2E2E2E2E2E2E2E2E2E2E2E2E2E2E2E2E2E2E2E2E2E2E2E2E2E2E2
310
E2E2E2E2E2E2E2E2E2E2E2E2E2E2E2E2E2E2E2E2E2E2E2E2E2F5F5E2E2E2E2E2E2F5F5F5E2E2E2E2E2F5E2E2E2E2E2E2E2E2E2E2E2E2E2E2E2E2E2E2E2E2E2E2E2E2E2E2E2E2E2E2E2E2E2E2E2E2E2E2E2E2E2E2E2E2E2E2E2E2E2E2E2E2E2E2E2E2E2E2E2E2E2E2E2E2E2E2E2E2E2E2E2E2E2E2E2E2E2E2E2E2E2E2E2E2E2
310
E2E2E2E2E2E2F5F5E2E2E2E2E2E2F5F5F5E2E2E2E2E2F5E2E2E2E2E2E2E2E2E2E2E2E2E2E2E2E2E2E2E2E2E2E2E2E2E2E2E2E2E2E2E2E2E2E2E2E2E2E2E2E2E2E2E2E2E2E2E2E2E2E2E2E2E2E2E2E2E2E2E2E2E2E2E2E2E2E2E2E2E2E2E2E2E2E2E2E2E2E2E2E2E2E2E2E2E2E2E2E2E2E2E2F5F5E2E2E2E2E2E2F5F5F5E2E2
310
E2E2E2F5E2E2E2E2E2E2E2E2E2E2E2E2E2E2E2E2E2E2E2E2E2E2E2E2E2E2E2E2E2E2E2E2E2E2E2E2E2E2E2E2E2E2E2E2E2E2E2E2E2E2E2E2E2E2E2E2E2E2E2E2E2E2E2E2E2E2E2E2E2E2E2E2E2E2E2E2E2E2E2E2E2E2E2E2E2E2E2E2E2E2E2F5F5E2E2E2E2E2E2F5F5F5E2E2E2E2E2F5E2E2E2E2E2E2E2E2E2E2E2E2E2E2E2
310
E2E2E2E2E2E2E2E2E2E2E2E2E2E2E2E2E2E2E2E2E2E2E2E2E2E2E2E2E2E2E2E2E2E2E2E2E2E2E2E2E2E2E2E2E2E2E2E2E2E2E2E2E2E2E2E2E2E2E2E2E2E2E2E2E2E2E2E2E2E2E2E2E2E2E2E2F5F5E2E2E2E2E2E2F5F5F5E2E2E2E2E2F5E2E2E2E2E2E2E2E2E2E2E2E2E2E2E2E2E2E2E2E2E2E2E2E2E2E2E2E2E2E2E2E2E2E2
310
E2E2E2E2E2E2E2E2E2E2E2E2E2E2E2E2E2E2E2E2E2E2E2E2E2E2E2E2E2E2E2E2E2E2E2E2E2E2E2E2E2E2E2E2E2E2E2E2E2E2E2E2E2E2E2E2E2F5F5E2E2E2E2E2E2F5F5F5E2E2E2E2E2F5E2E2E2E2E2E2E2E2E2E2E2E2E2E2E2E2E2E2E2E2E2E2E2E2E2E2E2E2E2E2E2E2E2E2E2E2E2E2E2E2E2E2E2E2E2E2E2E2E2E2E2E2E2
310
E2E2E2E2E2E2E2E2E2E2E2E2E2E2E2E2E2E2E2E2E2E2E2E2E2E2E2E2E2E2E2E2E2E2E2E2E2E2F5F5E2E2E2E2E2E2F5F5F5E2E2F5E2E2F5E2E2E2E2E2E2E2E2E2E2E2E2E2E2E2E2E2E2E2E2E2E2E2E2E2E2E2E2E2E2E2E2E2E2E2E2E2E2E2E2E2E2E2E2E2E2E2E2E2E2E2E2E2E2E2E2E2E2E2E2E2E2E2E2E2E2E2E2E2E2E2E2
310
E2E2E2E2E2E2E2E2E2E2E2E2E2E2E2E2E2E2E2F5F5E2E2F5E2E2E2F5F5F5E2E2F5E2E2F5E2E2E2E2E2E2E2E2E2E2E2E2E2E2E2E2E2E2E2E2E2E2E2E2E2E2E2E2E2E2E2E2E2E2E2E2E2E2E2E2E2E2E2E2E2E2E2E2E2E2E2E2E2E2E2E2E2E2E2E2E2E2E2E2E2E2E2E2E2E2E2E2E2E2E2E2E2E2E2E2E2E2E2E2E2E2E2E2E2E2E2
310
F5F5E2E2F5E2E2E2F5F5F5E2E2F5E2E2F5E2E2E2E2E2E2E2E2E2E2E2E2E2E2E2E2E2E2E2E2E2E2E2E2E2E2E2E2E2E2E2E2E2E2E2E2E2E2E2E2E2E2E2E2E2E2E2E2E2E2E2E2E2E2E2E2E2E2E2E2E2E2E2E2E2E2E2E2E2E2E2E2E2E2E2E2E2E2E2E2E2E2E2E2E2E2E2E2E2E2E2F5F5E2E2F5E2E2E2F5F5F5E2E2F5E2E2F5E2E2
310
E2E2E2E2E2E2E2E2E2E2E2E2E2E2E2E2E2E2E2E2E2E2E2E2E2E2E2E2E2E2E2E2E2E2E2E2E2E2E2E2E2E2E2E2E2E2E2E2E2E2E2E2E2E2E2E2E2E2E2E2E2E2E2E2E2E2E2E2E2E2E2E2E2E2E2E2E2E2E2E2E2E2E2E2E2E2E2E2E2F5F5E2E2F5E2E2E2F5F5F5E2E2F5E2E2F5E2E2E2E2E2E2E2E2E2E2E2E2E2E2E2E2E2E2E2E2E2
310
E2E2E2E2E2E2E2E2E2E2E2E2E2E2E2E2E2E2E2E2E2E2E2E2E2E2E2E2E2E2E2E2E2E2E2E2E2E2E2E2E2E2E2E2E2E2E2E2E2E2E2E2E2E2E2E2E2E2E2E2E2E2E2E2E2E2E2E2E2E2F5F5E2E2F5E2E2E2F5F5F5E2E2F5E2E2F5E2E2E2E2E2E2E2E2E2E2E2E2E2E2E2E2E2E2E2E2E2E2E2E2E2E2E2E2E2E2E2E2E2E2E2E2E2E2E2E2
310
E2E2E2E2E2E2E2E2E2E2E2E2E2E2E2E2E2E2E2E2E2E2E2E2E2E2E2E2E2E2E2E2E2E2E2E2E2E2E2E2E2E2E2E2E2E2E2E2E2E2E2F5F5E2E2F5E2E2E2F5F5F5E2E2F5E2E2F5E2E2E2E2E2E2E2E2E2E2E2E2E2E2E2E2E2E2E2E2E2E2E2E2E2E2E2E2E2E2E2E2E2E2E2E2E2E2E2E2E2E2E2E2E2E2E2E2E2E2E2E2E2E2E2E2E2E2E2
310
E2E2E2E2E2E2E2E2E2E2E2E2E2E2E2E2E2E2E2E2E2E2E2E2E2E2E2E2E2E2E2E2F5F5E2E2F5E2E2E2F5F5F5E2E2F5E2E2F5F5F5F5F5F5F5F5F5F5F5F5F5F5F5F5F5F5F5F5F5F5F5F5F5F5F5F5F5F5F5F5F5F5F5F5F5F5F5F5F5F5F5F5F5F5F5F5F5F5F5F5F5F5F5F5F5F5F5F5F5F5F5F5F5F5F5F5F5F5F5F5F5F5F5F5F5F5F5
310
F5F5F5F5F5F5F5F5F5F5F5F5F5F5F5E2E2F5E2E2E2F5F5F5E2E2F5F5F5F5F5F5F5F5E2E2E2E2E2E2E2E2E2F5F5F5F5F5F5F5F5F5F5F5F5F5F5F5F5E2E2E2E2E2E2E2E2E2F5F5F5F5F5F5F5F5F5F5F5F5F5F5F5F5E2E2E2E2E2E2E2E2E2F5F5F5F5F5F5F5F5F5F5F5F5F5F5F5F5E2E2E2E2E2E2E2E2E2F5F5F5F5F5F5F5F5E2
310
E2E2F5F5F5E2E2E2E2E2E2E2E2E2E2E2E2E2E2E2E2E2E2E2E2E2E2E2E2E2E2E2E2E2E2E2E2E2E2E2E2E2E2E2E2E2E2E2E2E2E2E2E2E2E2E2E2E2E2E2E2E2E2E2E2E2E2E2E2E2E2E2E2E2E2E2E2E2E2E2E2E2E2E2E2E2E2E2E2E2E2E2E2E2E2E2E2E2E2E2E2E2E2E2E2E2E2E2E2E2F5F5F5E2E2E2E2E2E2E2E2E2E2E2E2E2E2
310
E2E2E2E2E2E2E2E2E2E2E2E2E2E2E2E2E2E2E2E2E2E2E2E2E2E2E2E2E2E2E2E2E2E2E2E2E2E2E2E2E2E2E2E2E2E2E2E2E2E2E2E2E2E2E2E2E2E2E2E2E2E2E2E2E2E2E2E2E2E2E2E2E2E2E2E2E2E2E2E2E2E2E2E2E2E2E2E2E2E2E2F5EFF5E2E2E2E2E2E2E2E2E2E2E2E2E2E2E2E2E2E2E2E2E2E2E2E2E2E2E2E2E2E2E2E2E2
310
E2E2E2E2E2E2E2E2E2E2E2E2E2E2E2E2E2E2E2E2E2E2E2E2E2E2E2E2E2E2E2E2E2E2E2E2E2E2E2E2E2E2E2E2E2E2E2E2E2E2E2E2E2E2E2E2E2E2E2E2E2E2E2E2E2E2E2E2E2E2E2E2F5EFF5F5F5F5F5F5F5F5F5F5F5F5F5F5F5F5F5F5F5F5F5F5F5F5F5F5F5F5F5F5F5F5F5F5F5F5F5F5F5F5F5F5F5F5F5F5F5F5F5F5F5F5F5
310
F5F5F5F5F5F5F5F5F5F5F5F5F5F5F5F5F5F5F5F5F5F5F5F5F5F5F5F5F5F5F5F5F5F5F5F5F5F5F5F5F5F5F5F5F5F5F5F5F5F5F5F5F5F5EF
  0
XRECORD
  5
28AC
102
{ACAD_REACTORS
330
28AB
102
}
330
28AB
100
AcDbXrecord
280
     1
102
SHADEPLOT
 70
     0
102
SHADEPLOTRESLEVEL
 70
     2
102
SHADEPLOTCUSTOMDPI
 70
   300
  0
XRECORD
  5
28B4
102
{ACAD_REACTORS
330
28B3
102
}
330
28B3
100
AcDbXrecord
280
     1
102
MATERIAL
148
0.0
149
0.0
149
0.0
 93
        0
 94
       63
282
     0
 72
     1
 77
     1
171
     1
175
     1
179
     1
273
     0
  0
XRECORD
  5
28B2
102
{ACAD_REACTORS
330
28B1
102
}
330
28B1
100
AcDbXrecord
280
     1
102
MATERIAL
148
0.0
149
0.0
149
0.0
 93
        0
 94
       63
282
     0
 72
     1
 77
     1
171
     1
175
     1
179
     1
273
     0
  0
XRECORD
  5
28B6
102
{ACAD_REACTORS
330
28B5
102
}
330
28B5
100
AcDbXrecord
280
     1
102
MATERIAL
148
0.0
149
0.0
149
0.0
 93
        0
 94
       63
282
     0
 72
     1
 77
     1
171
     1
175
     1
179
     1
273
     0
  0
XRECORD
  5
28AE
102
{ACAD_REACTORS
330
28AD
102
}
330
28AD
100
AcDbXrecord
280
     1
102
SHADEPLOT
 70
     0
102
SHADEPLOTRESLEVEL
 70
     2
102
SHADEPLOTCUSTOMDPI
 70
   300
  0
XRECORD
  5
28B0
102
{ACAD_REACTORS
330
28AF
102
}
330
28AF
100
AcDbXrecord
280
     1
102
SHADEPLOT
 70
     0
102
SHADEPLOTRESLEVEL
 70
     2
102
SHADEPLOTCUSTOMDPI
 70
   300
  0
XRECORD
  5
28B8
102
{ACAD_REACTORS
330
28B7
102
}
330
28B7
100
AcDbXrecord
280
     1
102
ACAD_ROUNDTRIP_PRE2007_TABLESTYLE
 90
      512
 91
        0
  1

 92
      512
 93
        0
  2

 94
      512
 95
        0
  3

  0
ENDSEC
  0
EOF
