  0
SECTION
  2
HEADER
  9
$ACADVER
  1
AC1015
  9
$ACADMAINTVER
 70
    20
  9
$DWGCODEPAGE
  3
ANSI_1252
  9
$INSBASE
 10
1.966843444085657
 20
17.63308002514999
 30
0.0
  9
$EXTMIN
 10
5.259636613324737
 20
3.209169506195528
 30
-8.780939359259223
  9
$EXTMAX
 10
12.52963661332473
 20
13.26416950619553
 30
24.243818
  9
$LIMMIN
 10
0.0
 20
0.0
  9
$LIMMAX
 10
34.0
 20
22.0
  9
$ORTHOMODE
 70
     0
  9
$REGENMODE
 70
     1
  9
$FILLMODE
 70
     1
  9
$QTEXTMODE
 70
     0
  9
$MIRRTEXT
 70
     1
  9
$LTSCALE
 40
1.0
  9
$ATTMODE
 70
     1
  9
$TEXTSIZE
 40
0.1875
  9
$TRACEWID
 40
0.05
  9
$TEXTSTYLE
  7
style1
  9
$CLAYER
  8
DIM
  9
$CELTYPE
  6
BYLAYER
  9
$CECOLOR
 62
   256
  9
$CELTSCALE
 40
1.0
  9
$DISPSILH
 70
     0
  9
$DIMSCALE
 40
1.0
  9
$DIMASZ
 40
0.125
  9
$DIMEXO
 40
0.125
  9
$DIMDLI
 40
0.375
  9
$DIMRND
 40
0.0
  9
$DIMDLE
 40
0.0
  9
$DIMEXE
 40
0.125
  9
$DIMTP
 40
0.0
  9
$DIMTM
 40
0.0
  9
$DIMTXT
 40
0.125
  9
$DIMCEN
 40
0.0625
  9
$DIMTSZ
 40
0.0
  9
$DIMTOL
 70
     0
  9
$DIMLIM
 70
     0
  9
$DIMTIH
 70
     0
  9
$DIMTOH
 70
     0
  9
$DIMSE1
 70
     0
  9
$DIMSE2
 70
     0
  9
$DIMTAD
 70
     1
  9
$DIMZIN
 70
     0
  9
$DIMBLK
  1

  9
$DIMASO
 70
     1
  9
$DIMSHO
 70
     1
  9
$DIMPOST
  1

  9
$DIMAPOST
  1

  9
$DIMALT
 70
     0
  9
$DIMALTD
 70
     1
  9
$DIMALTF
 40
25.4
  9
$DIMLFAC
 40
1.0
  9
$DIMTOFL
 70
     0
  9
$DIMTVP
 40
0.0
  9
$DIMTIX
 70
     1
  9
$DIMSOXD
 70
     0
  9
$DIMSAH
 70
     1
  9
$DIMBLK1
  1
ARCHTICK
  9
$DIMBLK2
  1
ARCHTICK
  9
$DIMSTYLE
  2
STANDARD
  9
$DIMCLRD
 70
     0
  9
$DIMCLRE
 70
     0
  9
$DIMCLRT
 70
     0
  9
$DIMTFAC
 40
1.0
  9
$DIMGAP
 40
0.0625
  9
$DIMJUST
 70
     0
  9
$DIMSD1
 70
     0
  9
$DIMSD2
 70
     0
  9
$DIMTOLJ
 70
     1
  9
$DIMTZIN
 70
     0
  9
$DIMALTZ
 70
     0
  9
$DIMALTTZ
 70
     0
  9
$DIMUPT
 70
     0
  9
$DIMDEC
 70
     3
  9
$DIMTDEC
 70
     3
  9
$DIMALTU
 70
     2
  9
$DIMALTTD
 70
     1
  9
$DIMTXSTY
  7
STANDARD
  9
$DIMAUNIT
 70
     0
  9
$DIMADEC
 70
     0
  9
$DIMALTRND
 40
0.0
  9
$DIMAZIN
 70
     0
  9
$DIMDSEP
 70
    46
  9
$DIMATFIT
 70
     3
  9
$DIMFRAC
 70
     0
  9
$DIMLDRBLK
  1

  9
$DIMLUNIT
 70
     2
  9
$DIMLWD
 70
    -2
  9
$DIMLWE
 70
    -2
  9
$DIMTMOVE
 70
     2
  9
$LUNITS
 70
     2
  9
$LUPREC
 70
     5
  9
$SKETCHINC
 40
0.1
  9
$FILLETRAD
 40
0.0
  9
$AUNITS
 70
     0
  9
$AUPREC
 70
     2
  9
$MENU
  1
acad
  9
$ELEVATION
 40
0.0
  9
$PELEVATION
 40
0.0
  9
$THICKNESS
 40
0.0
  9
$LIMCHECK
 70
     0
  9
$CHAMFERA
 40
0.0
  9
$CHAMFERB
 40
0.0
  9
$CHAMFERC
 40
0.0
  9
$CHAMFERD
 40
0.0
  9
$SKPOLY
 70
     0
  9
$TDCREATE
 40
2449909.393659607
  9
$TDUCREATE
 40
2449909.518659607
  9
$TDUPDATE
 40
2457892.644644688
  9
$TDUUPDATE
 40
2457892.769644687
  9
$TDINDWG
 40
10.8751064699
  9
$TDUSRTIMER
 40
10.8751064699
  9
$USRTIMER
 70
     1
  9
$ANGBASE
 50
0.0
  9
$ANGDIR
 70
     0
  9
$PDMODE
 70
     0
  9
$PDSIZE
 40
0.0
  9
$PLINEWID
 40
0.02
  9
$SPLFRAME
 70
     0
  9
$SPLINETYPE
 70
     6
  9
$SPLINESEGS
 70
     8
  9
$HANDSEED
  5
1BF8
  9
$SURFTAB1
 70
     6
  9
$SURFTAB2
 70
     6
  9
$SURFTYPE
 70
     6
  9
$SURFU
 70
     6
  9
$SURFV
 70
     6
  9
$UCSBASE
  2

  9
$UCSNAME
  2

  9
$UCSORG
 10
0.0
 20
0.0
 30
0.0
  9
$UCSXDIR
 10
1.0
 20
0.0
 30
0.0
  9
$UCSYDIR
 10
0.0
 20
1.0
 30
0.0
  9
$UCSORTHOREF
  2

  9
$UCSORTHOVIEW
 70
     0
  9
$UCSORGTOP
 10
0.0
 20
0.0
 30
0.0
  9
$UCSORGBOTTOM
 10
0.0
 20
0.0
 30
0.0
  9
$UCSORGLEFT
 10
0.0
 20
0.0
 30
0.0
  9
$UCSORGRIGHT
 10
0.0
 20
0.0
 30
0.0
  9
$UCSORGFRONT
 10
0.0
 20
0.0
 30
0.0
  9
$UCSORGBACK
 10
0.0
 20
0.0
 30
0.0
  9
$PUCSBASE
  2

  9
$PUCSNAME
  2

  9
$PUCSORG
 10
0.0
 20
0.0
 30
0.0
  9
$PUCSXDIR
 10
1.0
 20
0.0
 30
0.0
  9
$PUCSYDIR
 10
0.0
 20
1.0
 30
0.0
  9
$PUCSORTHOREF
  2

  9
$PUCSORTHOVIEW
 70
     0
  9
$PUCSORGTOP
 10
0.0
 20
0.0
 30
0.0
  9
$PUCSORGBOTTOM
 10
0.0
 20
0.0
 30
0.0
  9
$PUCSORGLEFT
 10
0.0
 20
0.0
 30
0.0
  9
$PUCSORGRIGHT
 10
0.0
 20
0.0
 30
0.0
  9
$PUCSORGFRONT
 10
0.0
 20
0.0
 30
0.0
  9
$PUCSORGBACK
 10
0.0
 20
0.0
 30
0.0
  9
$USERI1
 70
     0
  9
$USERI2
 70
     0
  9
$USERI3
 70
     0
  9
$USERI4
 70
     0
  9
$USERI5
 70
     0
  9
$USERR1
 40
0.0
  9
$USERR2
 40
0.0
  9
$USERR3
 40
0.0
  9
$USERR4
 40
0.0
  9
$USERR5
 40
0.0
  9
$WORLDVIEW
 70
     1
  9
$SHADEDGE
 70
     3
  9
$SHADEDIF
 70
    70
  9
$TILEMODE
 70
     1
  9
$MAXACTVP
 70
    16
  9
$PINSBASE
 10
0.0
 20
0.0
 30
0.0
  9
$PLIMCHECK
 70
     0
  9
$PEXTMIN
 10
0.0151977818636198
 20
0.0072784633460437
 30
-0.0015258207003583
  9
$PEXTMAX
 10
7.931762718516125
 20
10.42025759096753
 30
0.0000000349246037
  9
$PLIMMIN
 10
-0.2812499887361301
 20
-0.2812502515597606
  9
$PLIMMAX
 10
8.218749770967979
 20
10.71874950814435
  9
$UNITMODE
 70
     0
  9
$VISRETAIN
 70
     0
  9
$PLINEGEN
 70
     0
  9
$PSLTSCALE
 70
     1
  9
$TREEDEPTH
 70
  3020
  9
$CMLSTYLE
  2
STANDARD
  9
$CMLJUST
 70
     0
  9
$CMLSCALE
 40
1.0
  9
$PROXYGRAPHICS
 70
     1
  9
$MEASUREMENT
 70
     0
  9
$CELWEIGHT
370
    -1
  9
$ENDCAPS
280
     0
  9
$JOINSTYLE
280
     0
  9
$LWDISPLAY
290
     0
  9
$INSUNITS
 70
     0
  9
$HYPERLINKBASE
  1

  9
$STYLESHEET
  1
Default R14 pen assignments.ctb
  9
$XEDIT
290
     1
  9
$CEPSNTYPE
380
     0
  9
$PSTYLEMODE
290
     1
  9
$FINGERPRINTGUID
  2

  9
$VERSIONGUID
  2
{5E50EA1F-1126-4A8F-846A-D88CBBEE635A}
  9
$EXTNAMES
290
     1
  9
$PSVPSCALE
 40
0.0
  9
$OLESTARTUP
290
     0
  0
ENDSEC
  0
SECTION
  2
CLASSES
  0
CLASS
  1
DICTIONARYVAR
  2
AcDbDictionaryVar
  3
ObjectDBX Classes
 90
        0
280
     0
281
     0
  0
CLASS
  1
ACMESTATEMGR
  2
AcMeStateMgr
  3
AcMeServices
 90
    32768
280
     0
281
     0
  0
CLASS
  1
ACMESCOPE
  2
AcMeScope
  3
AcMeServices
 90
    32768
280
     0
281
     0
  0
CLASS
  1
ACMECOMMANDHISTORY
  2
AcMeCommandHistory
  3
AcMeServices
 90
    32768
280
     0
281
     0
  0
CLASS
  1
ACRFINSADJUSTERMGR
  2
AcRfInsAdjusterMgr
  3
AcMeServices
 90
    32768
280
     0
281
     0
  0
CLASS
  1
ACMEDRAWINGMAN
  2
AcMeDrawingMan
  3
AcMeServices
 90
    32768
280
     0
281
     0
  0
CLASS
  1
AMATTR
  2
AcMeAttribute
  3
AcMeServices
 90
    32768
280
     0
281
     0
  0
CLASS
  1
ACMEBOMCOLUMN
  2
AcMeBOMColumn
  3
AcMeServices
 90
    32768
280
     0
281
     0
  0
CLASS
  1
ACANBOMCONF
  2
AcMeBOMConf
  3
AcMeServices
 90
    32768
280
     0
281
     0
  0
CLASS
  1
ACMEBOMTABLE
  2
AcMeBOMTable
  3
AcMeServices
 90
    32768
280
     0
281
     0
  0
CLASS
  1
ACMEBOMENTRY
  2
AcMeBOMEntry
  3
AcMeServices
 90
    32768
280
     0
281
     0
  0
CLASS
  1
ACMEVIEW
  2
AcMeView
  3
AcMeServices
 90
    32768
280
     0
281
     0
  0
CLASS
  1
ACGREFMASTER
  2
AcGrefMaster
  3
AcGrefServices
 90
    32768
280
     0
281
     0
  0
CLASS
  1
AMIMASTER
  2
AmiMaster
  3
AmiServices
 90
    32768
280
     0
281
     0
  0
CLASS
  1
ACASGREFMASTER
  2
AcAsGrefMaster
  3
AutoSurfResolverServices
 90
    32768
280
     0
281
     0
  0
CLASS
  1
ADAPPL
  2
AcAdAppl
  3
DesignerServices
 90
    32768
280
     0
281
     0
  0
CLASS
  1
DEPMGR
  2
AcAdDepMgr
  3
DesignerServices
 90
    32768
280
     0
281
     0
  0
CLASS
  1
PARAMMGR
  2
AcAdParamMgr
  3
DesignerServices
 90
    32768
280
     0
281
     0
  0
CLASS
  1
PARAMSCOPE
  2
AcAdParamScope
  3
DesignerServices
 90
    32768
280
     0
281
     0
  0
CLASS
  1
ACIMSYSVARMAN
  2
AcImSysVarManager
  3
AcMeServices
 90
    32768
280
     0
281
     0
  0
CLASS
  1
ACIMINTSYSVAR
  2
AcImIntSysVar
  3
AcMeServices
 90
    32768
280
     0
281
     0
  0
CLASS
  1
ACIMREALSYSVAR
  2
AcImRealSysVar
  3
AcMeServices
 90
    32768
280
     0
281
     0
  0
CLASS
  1
ACIMSTRSYSVAR
  2
AcImStrSysVar
  3
AcMeServices
 90
    32768
280
     0
281
     0
  0
CLASS
  1
NAMEDAPPL
  2
AcAdNamedAppl
  3
DesignerServices
 90
    32768
280
     0
281
     0
  0
CLASS
  1
ADHNTMPLT
  2
AdHoleNoteTemplateMgr
  3
DesignerServices
 90
    32768
280
     0
281
     0
  0
CLASS
  1
AM_HNTEMPLATE_MGR_NAME
  2
AdHoleNoteTemplateMgrName
  3
DesignerServices
 90
    32768
280
     0
281
     0
  0
CLASS
  1
ACADGREFMODULE
  2
AcAdGrefModule
  3
AdGrefServices
 90
    32768
280
     0
281
     0
  0
CLASS
  1
AM_DRAWING_MGR
  2
AcDmDwgMgr
  3
AcMechDwgViewMgmt
 90
    32768
280
     0
281
     0
  0
CLASS
  1
AM_DWG_DOCUMENT
  2
AcDmDwgDocument
  3
AcMechDwgViewMgmt
 90
    32768
280
     0
281
     0
  0
CLASS
  1
AM_DWG_SHEET
  2
AcDmSheet
  3
AcMechDwgViewMgmt
 90
    32768
280
     0
281
     0
  0
CLASS
  1
AM_VIEWDIMPARMAP
  2
AcDmViewDimParMap
  3
AcMechDwgViewMgmt
 90
    32768
280
     0
281
     0
  0
CLASS
  1
AM_DWGMGR_NAME
  2
AcDmDwgMgrName
  3
AcMechDwgViewMgmt
 90
    32768
280
     0
281
     0
  0
CLASS
  1
ACAMPROJECT
  2
AcAmProject
  3
DesignerAssemblies
 90
    32768
280
     0
281
     0
  0
CLASS
  1
ACAMGRCOMPSET
  2
AcAmGrCompSet
  3
DesignerAssemblies
 90
    32768
280
     0
281
     0
  0
CLASS
  1
ACAMGRCOMPDEFSET
  2
AcAmGrCompDefSet
  3
DesignerAssemblies
 90
    32768
280
     0
281
     0
  0
CLASS
  1
ACAMGRCOMPDEF
  2
AcAmGrCompDef
  3
DesignerAssemblies
 90
    32768
280
     0
281
     0
  0
CLASS
  1
ACCMCONTEXT
  2
AcCmContext
  3
DesignerAssemblies
 90
    32768
280
     0
281
     0
  0
CLASS
  1
ACAMCOMPDEF
  2
AcAmCompDef
  3
DesignerAssemblies
 90
    32768
280
     0
281
     0
  0
CLASS
  1
ACAMCOMPDEFMGR
  2
AcAmCompDefMgr
  3
DesignerAssemblies
 90
    32768
280
     0
281
     0
  0
CLASS
  1
AMCONTEXTMGR
  2
AcAmContextMgr
  3
DesignerAssemblies
 90
    32768
280
     0
281
     0
  0
CLASS
  1
ACAMCONTEXTMODELER
  2
AcAmContextModeler
  3
DesignerAssemblies
 90
    32768
280
     0
281
     0
  0
CLASS
  1
ACDMVIEWGEOM
  2
AcDmViewGeometry
  3
AcMechDwgViewMgmt
 90
        0
280
     0
281
     1
  0
CLASS
  1
CBROWSERAPPOBJECT
  2
CBrowserAppObject
  3
McadcomServices
 90
    32768
280
     0
281
     0
  0
CLASS
  1
IM_STATIC_MAN
  2
AcImStaticVarManager
  3
AcMeServices
 90
    32768
280
     0
281
     0
  0
CLASS
  1
ASAPP
  2
AcAsAppObject
  3
AutoSurfServices
 90
    32768
280
     0
281
     0
  0
CLASS
  1
ACIMDBLSTATICVAR
  2
AcImDblStaticVar
  3
AcMeServices
 90
    32768
280
     0
281
     0
  0
CLASS
  1
ACIMSTRSTATICVAR
  2
AcImStrStaticVar
  3
AcMeServices
 90
    32768
280
     0
281
     0
  0
CLASS
  1
ACIMINTSTATICVAR
  2
AcImIntStaticVar
  3
AcMeServices
 90
    32768
280
     0
281
     0
  0
CLASS
  1
CATALOGSTATE
  2
AcAmCatalogState
  3
DesignerAssemblies
 90
    32768
280
     0
281
     0
  0
CLASS
  1
DM_PLACEHOLDER
  2
AcDmSelsetPlaceholder
  3
AcMechDwgViewMgmt
 90
    32768
280
     0
281
     0
  0
CLASS
  1
LAYER_INDEX
  2
AcDbLayerIndex
  3
ObjectDBX Classes
 90
    32768
280
     0
281
     0
  0
CLASS
  1
IDBUFFER
  2
AcDbIdBuffer
  3
ObjectDBX Classes
 90
    32768
280
     0
281
     0
  0
CLASS
  1
ACDBDICTIONARYWDFLT
  2
AcDbDictionaryWithDefault
  3
ObjectDBX Classes
 90
        0
280
     0
281
     0
  0
CLASS
  1
ACDBPLACEHOLDER
  2
AcDbPlaceHolder
  3
ObjectDBX Classes
 90
        0
280
     0
281
     0
  0
CLASS
  1
LAYOUT
  2
AcDbLayout
  3
ObjectDBX Classes
 90
        0
280
     0
281
     0
  0
CLASS
  1
LONG_TRANSACTION
  2
AcDbLongTransaction
  3
ObjectDBX Classes
 90
    32768
280
     0
281
     0
  0
CLASS
  1
LWPOLYLINE
  2
AcDbPolyline
  3
ObjectDBX Classes
 90
        0
280
     0
281
     1
  0
CLASS
  1
HATCH
  2
AcDbHatch
  3
ObjectDBX Classes
 90
        0
280
     0
281
     1
  0
CLASS
  1
XRECORD
  2
AcDbXrecord
  3
ObjectDBX Classes
 90
        0
280
     0
281
     0
  0
CLASS
  1
LONG_TRANSACTION
  2
AcDbLongTransaction
  3
ObjectDBX Classes
 90
    32768
280
     0
281
     0
  0
CLASS
  1
LWPOLYLINE
  2
AcDbPolyline
  3
ObjectDBX Classes
 90
        0
280
     0
281
     1
  0
CLASS
  1
HATCH
  2
AcDbHatch
  3
ObjectDBX Classes
 90
        0
280
     0
281
     1
  0
CLASS
  1
XRECORD
  2
AcDbXrecord
  3
ObjectDBX Classes
 90
        0
280
     0
281
     0
  0
CLASS
  1
PLOTSETTINGS
  2
AcDbPlotSettings
  3
ObjectDBX Classes
 90
        0
280
     0
281
     0
  0
CLASS
  1
LONG_TRANSACTION
  2
AcDbLongTransaction
  3
ObjectDBX Classes
 90
    32768
280
     0
281
     0
  0
CLASS
  1
LWPOLYLINE
  2
AcDbPolyline
  3
ObjectDBX Classes
 90
        0
280
     0
281
     1
  0
CLASS
  1
HATCH
  2
AcDbHatch
  3
ObjectDBX Classes
 90
        0
280
     0
281
     1
  0
CLASS
  1
XRECORD
  2
AcDbXrecord
  3
ObjectDBX Classes
 90
        0
280
     0
281
     0
  0
CLASS
  1
LONG_TRANSACTION
  2
AcDbLongTransaction
  3
ObjectDBX Classes
 90
    32768
280
     0
281
     0
  0
CLASS
  1
LWPOLYLINE
  2
AcDbPolyline
  3
ObjectDBX Classes
 90
        0
280
     0
281
     1
  0
CLASS
  1
HATCH
  2
AcDbHatch
  3
ObjectDBX Classes
 90
        0
280
     0
281
     1
  0
CLASS
  1
XRECORD
  2
AcDbXrecord
  3
ObjectDBX Classes
 90
        0
280
     0
281
     0
  0
CLASS
  1
LONG_TRANSACTION
  2
AcDbLongTransaction
  3
ObjectDBX Classes
 90
    32768
280
     0
281
     0
  0
CLASS
  1
LWPOLYLINE
  2
AcDbPolyline
  3
ObjectDBX Classes
 90
        0
280
     0
281
     1
  0
CLASS
  1
HATCH
  2
AcDbHatch
  3
ObjectDBX Classes
 90
        0
280
     0
281
     1
  0
CLASS
  1
XRECORD
  2
AcDbXrecord
  3
ObjectDBX Classes
 90
        0
280
     0
281
     0
  0
CLASS
  1
LONG_TRANSACTION
  2
AcDbLongTransaction
  3
ObjectDBX Classes
 90
    32768
280
     0
281
     0
  0
CLASS
  1
LWPOLYLINE
  2
AcDbPolyline
  3
ObjectDBX Classes
 90
        0
280
     0
281
     1
  0
CLASS
  1
HATCH
  2
AcDbHatch
  3
ObjectDBX Classes
 90
        0
280
     0
281
     1
  0
CLASS
  1
XRECORD
  2
AcDbXrecord
  3
ObjectDBX Classes
 90
        0
280
     0
281
     0
  0
CLASS
  1
LONG_TRANSACTION
  2
AcDbLongTransaction
  3
ObjectDBX Classes
 90
    32768
280
     0
281
     0
  0
CLASS
  1
LWPOLYLINE
  2
AcDbPolyline
  3
ObjectDBX Classes
 90
        0
280
     0
281
     1
  0
CLASS
  1
HATCH
  2
AcDbHatch
  3
ObjectDBX Classes
 90
        0
280
     0
281
     1
  0
CLASS
  1
XRECORD
  2
AcDbXrecord
  3
ObjectDBX Classes
 90
        0
280
     0
281
     0
  0
CLASS
  1
MATERIAL
  2
AcDbMaterial
  3
ObjectDBX Classes
 90
     1024
280
     0
281
     0
  0
CLASS
  1
VISUALSTYLE
  2
AcDbVisualStyle
  3
ObjectDBX Classes
 90
     4095
280
     0
281
     0
  0
CLASS
  1
TABLESTYLE
  2
AcDbTableStyle
  3
ObjectDBX Classes
 90
     4095
280
     0
281
     0
  0
CLASS
  1
SORTENTSTABLE
  2
AcDbSortentsTable
  3
ObjectDBX Classes
 90
    32768
280
     0
281
     0
  0
ENDSEC
  0
SECTION
  2
TABLES
  0
TABLE
  2
VPORT
  5
4C4
102
{ACAD_XDICTIONARY
360
1B50
102
}
330
0
100
AcDbSymbolTable
 70
     1
  0
VPORT
  5
1939
330
4C4
100
AcDbSymbolTableRecord
100
AcDbViewportTableRecord
  2
*Active
 70
     0
 10
0.0
 20
0.0
 11
1.0
 21
1.0
 12
7.552405511538973
 22
8.003078711303164
 13
0.0
 23
0.0
 14
1.0
 24
1.0
 15
0.0
 25
0.0
 16
0.0
 26
0.0
 36
1.0
 17
0.0
 27
0.0
 37
0.0
 40
11.16138849175666
 41
2.262039660056657
 42
50.0
 43
0.0
 44
0.0
 50
0.0
 51
0.0
 71
     0
 72
 10000
 73
     1
 74
     0
 75
     0
 76
     0
 77
     0
 78
     0
281
     0
 65
     1
110
0.0
120
0.0
130
0.0
111
1.0
121
0.0
131
0.0
112
0.0
122
1.0
132
0.0
 79
     0
146
0.0
  0
ENDTAB
  0
TABLE
  2
LTYPE
  5
4BF
330
0
100
AcDbSymbolTable
 70
     3
  0
LTYPE
  5
4C0
330
4BF
100
AcDbSymbolTableRecord
100
AcDbLinetypeTableRecord
  2
BYBLOCK
 70
     0
  3

 72
    65
 73
     0
 40
0.0
  0
LTYPE
  5
4C1
330
4BF
100
AcDbSymbolTableRecord
100
AcDbLinetypeTableRecord
  2
BYLAYER
 70
     0
  3

 72
    65
 73
     0
 40
0.0
  0
LTYPE
  5
8
330
4BF
100
AcDbSymbolTableRecord
100
AcDbLinetypeTableRecord
  2
CONTINUOUS
 70
     0
  3
Solid line
 72
    65
 73
     0
 40
0.0
  0
LTYPE
  5
1A7
330
4BF
100
AcDbSymbolTableRecord
100
AcDbLinetypeTableRecord
  2
HIDDEN
 70
     0
  3
__ __ __ __ __ __ __ __ __ __ __ __ __ __ __ __
 72
    65
 73
     2
 40
0.375
 49
0.25
 74
     0
 49
-0.125
 74
     0
  0
LTYPE
  5
DF
330
4BF
100
AcDbSymbolTableRecord
100
AcDbLinetypeTableRecord
  2
CENTER
 70
     0
  3
____ _ ____ _ ____ _ ____ _ ____ _ ____ _ ____ 
 72
    65
 73
     4
 40
2.0
 49
1.25
 74
     0
 49
-0.25
 74
     0
 49
0.25
 74
     0
 49
-0.25
 74
     0
  0
ENDTAB
  0
TABLE
  2
LAYER
  5
4BC
102
{ACAD_XDICTIONARY
360
1984
102
}
330
0
100
AcDbSymbolTable
 70
    12
  0
LAYER
  5
4
330
4BC
100
AcDbSymbolTableRecord
100
AcDbLayerTableRecord
  2
0
 70
     0
 62
     7
  6
CONTINUOUS
370
    -3
390
5
  0
LAYER
  5
1AD
330
4BC
100
AcDbSymbolTableRecord
100
AcDbLayerTableRecord
  2
4
 70
     0
 62
     7
  6
CONTINUOUS
370
    -3
390
5
  0
LAYER
  5
19E
330
4BC
100
AcDbSymbolTableRecord
100
AcDbLayerTableRecord
  2
5
 70
     0
 62
     7
  6
CONTINUOUS
370
    -3
390
5
  0
LAYER
  5
439
330
4BC
100
AcDbSymbolTableRecord
100
AcDbLayerTableRecord
  2
Defpoints
 70
     0
 62
     7
  6
CONTINUOUS
290
     0
370
    -3
390
5
  0
LAYER
  5
42C
330
4BC
100
AcDbSymbolTableRecord
100
AcDbLayerTableRecord
  2
DIM
 70
     0
 62
     7
  6
CONTINUOUS
370
    -3
390
5
  0
LAYER
  5
423
330
4BC
100
AcDbSymbolTableRecord
100
AcDbLayerTableRecord
  2
Hatch
 70
     0
 62
     8
  6
CONTINUOUS
370
    -3
390
5
  0
LAYER
  5
1139
330
4BC
100
AcDbSymbolTableRecord
100
AcDbLayerTableRecord
  2
2
 70
     0
 62
     7
  6
CONTINUOUS
370
    -3
390
5
  0
LAYER
  5
113A
330
4BC
100
AcDbSymbolTableRecord
100
AcDbLayerTableRecord
  2
3
 70
     0
 62
     7
  6
CONTINUOUS
370
    -3
390
5
  0
LAYER
  5
113B
330
4BC
100
AcDbSymbolTableRecord
100
AcDbLayerTableRecord
  2
1
 70
     0
 62
     7
  6
CONTINUOUS
370
    -3
390
5
  0
LAYER
  5
1980
330
4BC
100
AcDbSymbolTableRecord
100
AcDbLayerTableRecord
  2
glass
 70
     0
 62
     7
  6
CONTINUOUS
370
    -3
390
5
1001
AcAecLayerStandard
1000

1000

  0
LAYER
  5
1981
330
4BC
100
AcDbSymbolTableRecord
100
AcDbLayerTableRecord
  2
R9
 70
     0
 62
     7
  6
CONTINUOUS
370
    -3
390
5
1001
AcAecLayerStandard
1000

1000

  0
LAYER
  5
1A3C
330
4BC
100
AcDbSymbolTableRecord
100
AcDbLayerTableRecord
  2
spacer
 70
     0
 62
     7
  6
CONTINUOUS
370
    -3
390
5
1001
AcAecLayerStandard
1000

1000

  0
ENDTAB
  0
TABLE
  2
STYLE
  5
4BD
330
0
100
AcDbSymbolTable
 70
     8
  0
STYLE
  5
3CF
330
4BD
100
AcDbSymbolTableRecord
100
AcDbTextStyleTableRecord
  2
STANDARD
 70
     0
 40
0.0
 41
1.0
 50
0.0
 71
     0
 42
0.25
  3
architec.shx
  4

  0
STYLE
  5
19F
330
4BD
100
AcDbSymbolTableRecord
100
AcDbTextStyleTableRecord
  2
ROMANS
 70
     0
 40
0.1875
 41
0.8
 50
0.0
 71
     0
 42
0.1875
  3
architec.shx
  4

  0
STYLE
  5
402
330
4BD
100
AcDbSymbolTableRecord
100
AcDbTextStyleTableRecord
  2
ADESK1
 70
     0
 40
0.0
 41
0.8
 50
0.0
 71
     0
 42
0.25
  3
architec.shx
  4

  0
STYLE
  5
3E0
330
4BD
100
AcDbSymbolTableRecord
100
AcDbTextStyleTableRecord
  2
TITLE
 70
     0
 40
0.0
 41
1.0
 50
0.0
 71
     0
 42
0.32668537629849
  3
romand.shx
  4

  0
STYLE
  5
E47
330
4BD
100
AcDbSymbolTableRecord
100
AcDbTextStyleTableRecord
  2
style1
 70
     0
 40
0.1875
 41
1.0
 50
0.0
 71
     0
 42
0.1875
  3
romand.shx
  4

  0
ENDTAB
  0
TABLE
  2
VIEW
  5
4C2
330
0
100
AcDbSymbolTable
 70
     4
  0
ENDTAB
  0
TABLE
  2
UCS
  5
4C3
330
0
100
AcDbSymbolTable
 70
     0
  0
ENDTAB
  0
TABLE
  2
APPID
  5
4C6
330
0
100
AcDbSymbolTable
 70
     5
  0
APPID
  5
43E
330
4C6
100
AcDbSymbolTableRecord
100
AcDbRegAppTableRecord
  2
ACAD
 70
     0
  0
APPID
  5
1956
330
4C6
100
AcDbSymbolTableRecord
100
AcDbRegAppTableRecord
  2
ACAD_EXEMPT_FROM_CAD_STANDARDS
 70
     0
  0
APPID
  5
1982
330
4C6
100
AcDbSymbolTableRecord
100
AcDbRegAppTableRecord
  2
AcAecLayerStandard
 70
     0
  0
APPID
  5
1983
330
4C6
100
AcDbSymbolTableRecord
100
AcDbRegAppTableRecord
  2
ACAD_PSEXT
 70
     0
  0
APPID
  5
1A3D
330
4C6
100
AcDbSymbolTableRecord
100
AcDbRegAppTableRecord
  2
AcLayerTools
 70
     0
  0
ENDTAB
  0
TABLE
  2
DIMSTYLE
  5
4C7
330
0
100
AcDbSymbolTable
 70
     5
100
AcDbDimStyleTable
 71
     2
340
430
340
143D
  0
DIMSTYLE
105
430
102
{ACAD_REACTORS
330
160C
102
}
330
4C7
100
AcDbSymbolTableRecord
100
AcDbDimStyleTableRecord
  2
STANDARD
 70
     0
 41
0.125
 42
0.125
 43
0.375
 44
0.125
140
0.125
141
0.0625
147
0.0625
171
     1
173
     1
174
     1
271
     2
272
     2
274
     1
277
     4
279
     2
340
3CF
341
C12
343
C12
344
C12
  0
DIMSTYLE
105
143D
330
4C7
100
AcDbSymbolTableRecord
100
AcDbDimStyleTableRecord
  2
STANDARD$0
 70
     0
 41
0.08
 44
0.0625
 73
     0
 74
     0
 77
     1
140
0.08
141
0.0
147
0.035
172
     1
271
     5
272
     5
276
     2
277
     5
340
3CF
  0
ENDTAB
  0
TABLE
  2
BLOCK_RECORD
  5
1
330
0
100
AcDbSymbolTable
 70
    18
  0
BLOCK_RECORD
  5
2
102
{ACAD_XDICTIONARY
360
47A
102
}
330
1
100
AcDbSymbolTableRecord
100
AcDbBlockTableRecord
  2
*MODEL_SPACE
340
47E
  0
BLOCK_RECORD
  5
1B81
330
1
100
AcDbSymbolTableRecord
100
AcDbBlockTableRecord
  2
*Paper_Space
340
1B82
  0
BLOCK_RECORD
  5
485
330
1
100
AcDbSymbolTableRecord
100
AcDbBlockTableRecord
  2
ansi_v
340
0
102
{BLKREFS
331
484
102
}
  0
BLOCK_RECORD
  5
42D
330
1
100
AcDbSymbolTableRecord
100
AcDbBlockTableRecord
  2
_None
340
0
  0
BLOCK_RECORD
  5
440
330
1
100
AcDbSymbolTableRecord
100
AcDbBlockTableRecord
  2
_DotSmall
340
0
  0
BLOCK_RECORD
  5
C12
330
1
100
AcDbSymbolTableRecord
100
AcDbBlockTableRecord
  2
_ARCHTICK
340
0
102
{BLKREFS
331
1611
331
1617
331
1B08
331
1B09
102
}
  0
BLOCK_RECORD
  5
E8E
330
1
100
AcDbSymbolTableRecord
100
AcDbBlockTableRecord
  2
A$C65655757
340
0
  0
BLOCK_RECORD
  5
113C
330
1
100
AcDbSymbolTableRecord
100
AcDbBlockTableRecord
  2
sol_t profile
340
0
  0
BLOCK_RECORD
  5
13EA
330
1
100
AcDbSymbolTableRecord
100
AcDbBlockTableRecord
  2
A$C612D7DA8
340
0
  0
BLOCK_RECORD
  5
1624
330
1
100
AcDbSymbolTableRecord
100
AcDbBlockTableRecord
  2
*D7
340
0
  0
BLOCK_RECORD
  5
1663
330
1
100
AcDbSymbolTableRecord
100
AcDbBlockTableRecord
  2
fordelte
340
0
310
2800000020000000200000000100080000000000000400000000000000000000000000000000000000000000000080000080000000808000800000008000800080800000C0C0C000C0DCC000F0CAA6000020400000206000002080000020A0000020C0000020E00000400000004020000040400000406000004080000040A0
310
000040C0000040E00000600000006020000060400000606000006080000060A0000060C0000060E00000800000008020000080400000806000008080000080A0000080C0000080E00000A0000000A0200000A0400000A0600000A0800000A0A00000A0C00000A0E00000C0000000C0200000C0400000C0600000C0800000C0
310
A00000C0C00000C0E00000E0000000E0200000E0400000E0600000E0800000E0A00000E0C00000E0E00040000000400020004000400040006000400080004000A0004000C0004000E00040200000402020004020400040206000402080004020A0004020C0004020E000404000004040200040404000404060004040800040
310
40A0004040C0004040E00040600000406020004060400040606000406080004060A0004060C0004060E00040800000408020004080400040806000408080004080A0004080C0004080E00040A0000040A0200040A0400040A0600040A0800040A0A00040A0C00040A0E00040C0000040C0200040C0400040C0600040C08000
310
40C0A00040C0C00040C0E00040E0000040E0200040E0400040E0600040E0800040E0A00040E0C00040E0E00080000000800020008000400080006000800080008000A0008000C0008000E00080200000802020008020400080206000802080008020A0008020C0008020E00080400000804020008040400080406000804080
310
008040A0008040C0008040E00080600000806020008060400080606000806080008060A0008060C0008060E00080800000808020008080400080806000808080008080A0008080C0008080E00080A0000080A0200080A0400080A0600080A0800080A0A00080A0C00080A0E00080C0000080C0200080C0400080C0600080C0
310
800080C0A00080C0C00080C0E00080E0000080E0200080E0400080E0600080E0800080E0A00080E0C00080E0E000C0000000C0002000C0004000C0006000C0008000C000A000C000C000C000E000C0200000C0202000C0204000C0206000C0208000C020A000C020C000C020E000C0400000C0402000C0404000C0406000C0
310
408000C040A000C040C000C040E000C0600000C0602000C0604000C0606000C0608000C060A000C060C000C060E000C0800000C0802000C0804000C0806000C0808000C080A000C080C000C080E000C0A00000C0A02000C0A04000C0A06000C0A08000C0A0A000C0A0C000C0A0E000C0C00000C0C02000C0C04000C0C06000
310
C0C08000C0C0A000F0FBFF00A4A0A000808080000000FF0000FF000000FFFF00FF000000FF00FF00FFFF0000FFFFFF0000000000000000000000000000000000000000000000000000000000000000000000000000000000000000000000000000000000000000000000000000000000000000000000000000000000000000
310
000000000000000000000000000000000000000000000000000000000000000000000000000000000000000000000000000000000000FFFFFFFFFFFFFFFF000000000000000000000000000000000000000000000000FF00FFFF000000FF000000000000000000000000000000000000000000000000FF00FF00000000FF00
310
0000000000000000000000000000000000000000000000FF00FF00000000FF000000000000000000000000000000000000000000000000FF00FFFFFF0000FF000000000000000000000000000000000000000000000000FF00FFFFFFFFFFFFFFFFFFFFFFFFFFFFFFFF00FFFFFF00000000000000000000FF00FFFFFFFFFFFF
310
FFFFFFFFFFFFFFFFFFFFFFFF00FF00000000000000000000FF00FF00000000000000FFFFFFFFFFFFFF00FFFF00FF00000000000000000000FF00FFFFFFFFFFFFFFFFFFFFFFFFFFFFFFFFFFFF00FF00000000000000000000FF00FFFFFFFFFFFFFFFFFFFFFFFFFFFFFFFFFFFF00FF00000000000000000000FF00FF00000000
310
000000000000000000000000FF00FF00000000000000000000FF00FFFFFFFFFFFFFFFFFFFFFFFFFFFFFFFFFFFF00FF00000000000000000000FF00FF00000000000000000000000000000000FF00FF00000000000000000000FF00FFFFFFFFFFFFFFFFFFFFFFFFFFFFFFFFFFFF00FF00000000000000000000FF00FF000000
310
00000000000000000000000000FF00FF00000000000000000000FF00FFFFFFFFFFFFFFFFFFFFFFFFFFFFFFFFFFFF00FF00000000000000000000FF00FF00000000000000000000000000000000FF00FF00000000000000000000FF00FFFFFFFFFFFFFFFFFFFFFFFFFFFFFFFFFFFF00FF00000000000000000000FF00FFFFFF
310
FFFFFFFFFFFFFFFFFFFFFFFFFFFFFF00FF00000000000000000000FF00FF00000000000000000000000000000000FF00FF00000000000000000000FF00FFFFFFFFFFFFFFFFFFFFFFFFFFFFFFFFFFFF00FF00000000000000000000FF00FF00000000000000000000FF0000000000FF00FF000000000000FFFFFFFFFFFFFFFF
310
FFFFFFFFFFFFFFFFFFFFFFFFFFFFFFFFFFFFFFFFFFFF000000000000000000000000000000FFFF00000000000000000000000000000000000000000000000000000000000000000000000000000000000000000000000000000000000000000000000000000000000000000000000000000000000000000000000000000000
310
0000000000000000000000000000000000000000000000000000000000000000000000000000000000000000000000000000000000000000
  0
ENDTAB
  0
ENDSEC
  0
SECTION
  2
BLOCKS
  0
BLOCK
  5
47C
330
2
100
AcDbEntity
  8
0
100
AcDbBlockBegin
  2
*MODEL_SPACE
 70
     0
 10
0.0
 20
0.0
 30
0.0
  3
*MODEL_SPACE
  1

  0
ENDBLK
  5
47D
330
2
100
AcDbEntity
  8
0
100
AcDbBlockEnd
  0
BLOCK
  5
1B83
330
1B81
100
AcDbEntity
 67
     1
  8
0
100
AcDbBlockBegin
  2
*Paper_Space
 70
     0
 10
0.0
 20
0.0
 30
0.0
  3
*Paper_Space
  1

  0
ENDBLK
  5
1B84
330
1B81
100
AcDbEntity
 67
     1
  8
0
100
AcDbBlockEnd
  0
BLOCK
  5
4B5
330
485
100
AcDbEntity
  8
0
100
AcDbBlockBegin
  2
ansi_v
 70
     0
 10
0.0
 20
0.0
 30
0.0
  3
ansi_v
  1

  0
LINE
  5
486
330
485
100
AcDbEntity
  8
0
100
AcDbLine
 10
0.0
 20
0.0
 30
0.0
 11
8.5
 21
0.0
 31
0.0
  0
LINE
  5
487
330
485
100
AcDbEntity
  8
0
100
AcDbLine
 10
8.5
 20
0.0
 30
0.0
 11
8.5
 21
11.0
 31
0.0
  0
LINE
  5
488
330
485
100
AcDbEntity
  8
0
100
AcDbLine
 10
8.5
 20
11.0
 30
0.0
 11
0.0
 21
11.0
 31
0.0
  0
LINE
  5
489
330
485
100
AcDbEntity
  8
0
100
AcDbLine
 10
0.0
 20
11.0
 30
0.0
 11
0.0
 21
0.0
 31
0.0
  0
LINE
  5
48A
330
485
100
AcDbEntity
  8
0
100
AcDbLine
 10
0.38
 20
0.25
 30
0.0
 11
8.119999999999999
 21
0.25
 31
0.0
  0
LINE
  5
48B
330
485
100
AcDbEntity
  8
0
100
AcDbLine
 10
8.119999999999999
 20
0.25
 30
0.0
 11
8.119999999999999
 21
10.75
 31
0.0
  0
LINE
  5
48C
330
485
100
AcDbEntity
  8
0
100
AcDbLine
 10
8.119999999999999
 20
10.75
 30
0.0
 11
0.38
 21
10.75
 31
0.0
  0
LINE
  5
48D
330
485
100
AcDbEntity
  8
0
100
AcDbLine
 10
0.38
 20
10.75
 30
0.0
 11
0.38
 21
0.25
 31
0.0
  0
LWPOLYLINE
  5
48E
330
485
100
AcDbEntity
  8
0
100
AcDbPolyline
 90
        2
 70
     0
 43
0.02
 10
4.25
 20
0.0
 10
4.25
 20
0.1
  0
SOLID
  5
48F
330
485
100
AcDbEntity
  8
0
100
AcDbTrace
 10
4.099999999999999
 20
0.1
 30
0.0
 11
4.4
 21
0.1
 31
0.0
 12
4.25
 22
0.25
 32
0.0
 13
4.25
 23
0.25
 33
0.0
  0
LWPOLYLINE
  5
490
330
485
100
AcDbEntity
  8
0
100
AcDbPolyline
 90
        2
 70
     0
 43
0.02
 10
8.369999999999999
 20
5.5
 10
8.269999999999999
 20
5.5
  0
SOLID
  5
491
330
485
100
AcDbEntity
  8
0
100
AcDbTrace
 10
8.269999999999999
 20
5.349999999999999
 30
0.0
 11
8.269999999999999
 21
5.65
 31
0.0
 12
8.119999999999999
 22
5.5
 32
0.0
 13
8.119999999999999
 23
5.5
 33
0.0
  0
LWPOLYLINE
  5
492
330
485
100
AcDbEntity
  8
0
100
AcDbPolyline
 90
        2
 70
     0
 43
0.02
 10
4.25
 20
11.0
 10
4.25
 20
10.9
  0
SOLID
  5
493
330
485
100
AcDbEntity
  8
0
100
AcDbTrace
 10
4.099999999999999
 20
10.9
 30
0.0
 11
4.4
 21
10.9
 31
0.0
 12
4.25
 22
10.75
 32
0.0
 13
4.25
 23
10.75
 33
0.0
  0
LWPOLYLINE
  5
494
330
485
100
AcDbEntity
  8
0
100
AcDbPolyline
 90
        2
 70
     0
 43
0.02
 10
0.13
 20
5.5
 10
0.23
 20
5.5
  0
SOLID
  5
495
330
485
100
AcDbEntity
  8
0
100
AcDbTrace
 10
0.23
 20
5.349999999999999
 30
0.0
 11
0.23
 21
5.65
 31
0.0
 12
0.38
 22
5.5
 32
0.0
 13
0.38
 23
5.5
 33
0.0
  0
LINE
  5
496
330
485
100
AcDbEntity
  8
0
100
AcDbLine
 10
1.87
 20
0.25
 30
0.0
 11
1.87
 21
2.0
 31
0.0
  0
LINE
  5
497
330
485
100
AcDbEntity
  8
0
100
AcDbLine
 10
1.87
 20
2.0
 30
0.0
 11
8.119999999999999
 21
2.0
 31
0.0
  0
LINE
  5
498
330
485
100
AcDbEntity
  8
0
100
AcDbLine
 10
1.87
 20
0.565
 30
0.0
 11
3.87
 21
0.565
 31
0.0
  0
LINE
  5
499
330
485
100
AcDbEntity
  8
0
100
AcDbLine
 10
1.87
 20
0.88
 30
0.0
 11
8.119999999999999
 21
0.88
 31
0.0
  0
LINE
  5
49A
330
485
100
AcDbEntity
  8
0
100
AcDbLine
 10
3.87
 20
0.5
 30
0.0
 11
8.119999999999999
 21
0.5
 31
0.0
  0
LINE
  5
49B
330
485
100
AcDbEntity
  8
0
100
AcDbLine
 10
3.87
 20
1.5
 30
0.0
 11
8.119999999999999
 21
1.5
 31
0.0
  0
LINE
  5
49C
330
485
100
AcDbEntity
  8
0
100
AcDbLine
 10
3.87
 20
0.25
 30
0.0
 11
3.87
 21
2.0
 31
0.0
  0
LINE
  5
49D
330
485
100
AcDbEntity
  8
0
100
AcDbLine
 10
4.87
 20
0.25
 30
0.0
 11
4.87
 21
0.5
 31
0.0
  0
LINE
  5
49E
330
485
100
AcDbEntity
  8
0
100
AcDbLine
 10
6.37
 20
0.25
 30
0.0
 11
6.37
 21
0.5
 31
0.0
  0
LINE
  5
49F
330
485
100
AcDbEntity
  8
0
100
AcDbLine
 10
4.25
 20
0.5
 30
0.0
 11
4.25
 21
0.88
 31
0.0
  0
LINE
  5
4A0
330
485
100
AcDbEntity
  8
0
100
AcDbLine
 10
5.37
 20
0.5
 30
0.0
 11
5.37
 21
0.88
 31
0.0
  0
LINE
  5
4A1
330
485
100
AcDbEntity
  8
0
100
AcDbLine
 10
7.74
 20
0.5
 30
0.0
 11
7.74
 21
0.88
 31
0.0
  0
TEXT
  5
4A2
330
485
100
AcDbEntity
  8
0
100
AcDbText
 10
3.922299999999999
 20
0.3425
 30
0.0
 40
0.065
  1
Scale
  7
ADESK1
100
AcDbText
  0
TEXT
  5
4A3
330
485
100
AcDbEntity
  8
0
100
AcDbText
 10
6.422799999999999
 20
0.3425
 30
0.0
 40
0.065
  1
Sheet
  7
ADESK1
100
AcDbText
  0
TEXT
  5
4A4
330
485
100
AcDbEntity
  8
0
100
AcDbText
 10
3.9579
 20
0.7659000000000001
 30
0.0
 40
0.065
  1
SIZE
  7
ADESK1
100
AcDbText
  0
TEXT
  5
4A5
330
485
100
AcDbEntity
  8
0
100
AcDbText
 10
4.3189
 20
0.7659000000000001
 30
0.0
 40
0.065
  1
FSCM NO.
  7
ADESK1
100
AcDbText
  0
TEXT
  5
4A6
330
485
100
AcDbEntity
  8
0
100
AcDbText
 10
5.440999999999999
 20
0.7659000000000001
 30
0.0
 40
0.065
  1
DWG NO.
  7
ADESK1
100
AcDbText
  0
TEXT
  5
4A7
330
485
100
AcDbEntity
  8
0
100
AcDbText
 10
7.8205
 20
0.7659000000000001
 30
0.0
 40
0.065
  1
REV
  7
ADESK1
100
AcDbText
  0
LINE
  5
4A8
330
485
100
AcDbEntity
  8
0
100
AcDbLine
 10
2.62
 20
10.5
 30
0.0
 11
8.119999999999999
 21
10.5
 31
0.0
  0
LINE
  5
4A9
330
485
100
AcDbEntity
  8
0
100
AcDbLine
 10
2.62
 20
10.25
 30
0.0
 11
8.119999999999999
 21
10.25
 31
0.0
  0
LINE
  5
4AA
330
485
100
AcDbEntity
  8
0
100
AcDbLine
 10
2.62
 20
10.75
 30
0.0
 11
2.62
 21
9.7027
 31
0.0
  0
LINE
  5
4AB
330
485
100
AcDbEntity
  8
0
100
AcDbLine
 10
3.12
 20
10.25
 30
0.0
 11
3.12
 21
10.5
 31
0.0
  0
LINE
  5
4AC
330
485
100
AcDbEntity
  8
0
100
AcDbLine
 10
3.5
 20
10.25
 30
0.0
 11
3.5
 21
10.5
 31
0.0
  0
LINE
  5
4AD
330
485
100
AcDbEntity
  8
0
100
AcDbLine
 10
6.24
 20
10.25
 30
0.0
 11
6.24
 21
10.5
 31
0.0
  0
LINE
  5
4AE
330
485
100
AcDbEntity
  8
0
100
AcDbLine
 10
7.12
 20
10.25
 30
0.0
 11
7.12
 21
10.5
 31
0.0
  0
TEXT
  5
4AF
330
485
100
AcDbEntity
  8
0
100
AcDbText
 10
5.330199999999999
 20
10.5825
 30
0.0
 40
0.065
  1
REVISIONS
  7
ADESK1
100
AcDbText
  0
TEXT
  5
4B0
330
485
100
AcDbEntity
  8
0
100
AcDbText
 10
2.728699999999999
 20
10.3403
 30
0.0
 40
0.065
  1
ZONE
  7
ADESK1
100
AcDbText
  0
TEXT
  5
4B1
330
485
100
AcDbEntity
  8
0
100
AcDbText
 10
3.200099999999999
 20
10.3403
 30
0.0
 40
0.065
  1
REV
  7
ADESK1
100
AcDbText
  0
TEXT
  5
4B2
330
485
100
AcDbEntity
  8
0
100
AcDbText
 10
4.501999999999999
 20
10.3403
 30
0.0
 40
0.065
  1
DESCRIPTION
  7
ADESK1
100
AcDbText
  0
TEXT
  5
4B3
330
485
100
AcDbEntity
  8
0
100
AcDbText
 10
6.5677
 20
10.3403
 30
0.0
 40
0.065
  1
Date
  7
ADESK1
100
AcDbText
  0
TEXT
  5
4B4
330
485
100
AcDbEntity
  8
0
100
AcDbText
 10
7.361399999999999
 20
10.3403
 30
0.0
 40
0.065
  1
APPROVED
  7
ADESK1
100
AcDbText
  0
ENDBLK
  5
4B6
330
485
100
AcDbEntity
  8
0
100
AcDbBlockEnd
  0
BLOCK
  5
42E
330
42D
100
AcDbEntity
  8
0
100
AcDbBlockBegin
  2
_None
 70
     0
 10
0.0
 20
0.0
 30
0.0
  3
_None
  1

  0
ENDBLK
  5
42F
330
42D
100
AcDbEntity
  8
0
100
AcDbBlockEnd
  0
BLOCK
  5
442
330
440
100
AcDbEntity
  8
0
100
AcDbBlockBegin
  2
_DotSmall
 70
     0
 10
0.0
 20
0.0
 30
0.0
  3
_DotSmall
  1

  0
LWPOLYLINE
  5
441
330
440
100
AcDbEntity
  8
Hatch
 62
     0
100
AcDbPolyline
 90
        2
 70
     1
 43
0.5
 10
-0.0625
 20
0.0
 42
1.0
 10
0.0625
 20
0.0
 42
1.0
  0
ENDBLK
  5
443
330
440
100
AcDbEntity
  8
0
100
AcDbBlockEnd
  0
BLOCK
  5
C13
330
C12
100
AcDbEntity
  8
0
100
AcDbBlockBegin
  2
_ARCHTICK
 70
     0
 10
0.0
 20
0.0
 30
0.0
  3
_ARCHTICK
  1

  0
LWPOLYLINE
  5
C14
330
C12
100
AcDbEntity
  8
0
  6
ByBlock
 62
     0
100
AcDbPolyline
 90
        2
 70
     0
 43
0.15
 10
-0.5
 20
-0.5
 10
0.5
 20
0.5
  0
ENDBLK
  5
C18
330
C12
100
AcDbEntity
  8
0
100
AcDbBlockEnd
  0
BLOCK
  5
E97
330
E8E
100
AcDbEntity
  8
0
100
AcDbBlockBegin
  2
A$C65655757
 70
     0
 10
0.0
 20
0.0
 30
0.0
  3
A$C65655757
  1

  0
TEXT
  5
E8F
330
E8E
100
AcDbEntity
  8
5
  6
Continuous
 62
     7
370
    30
100
AcDbText
 10
-0.0111139013349089
 20
2.65912195243645
 30
-2.3346
 40
0.375
  1
ADVANCED GLAZINGS Ltd.
 41
0.8
  7
style1
 11
-0.0111139013349089
 21
2.84662195243645
 31
-2.3346
100
AcDbText
 73
     2
  0
TEXT
  5
E90
330
E8E
100
AcDbEntity
  8
0
100
AcDbText
 10
0.0393205943543649
 20
-0.0000000212489294
 30
7.003999999999999
 40
0.195
  1
CSI UNIFORM DRAWING SYSTEM 2000
  7
style1
 11
0.0393205943543649
 21
0.1949999787510705
 31
7.003999999999999
100
AcDbText
 73
     3
  0
TEXT
  5
E91
330
E8E
100
AcDbEntity
  8
0
100
AcDbText
 10
0.0393205943543649
 20
0.3076200495211554
 30
7.003999999999999
 40
0.195
  1
DRAWINGS CONFORM TO
  7
style1
 11
0.0393205943543649
 21
0.5026200495211555
 31
7.003999999999999
100
AcDbText
 73
     3
  0
TEXT
  5
E92
330
E8E
100
AcDbEntity
  8
5
  6
Continuous
 62
     7
100
AcDbText
 10
-0.003116681697918
 20
2.24356586670801
 30
7.003999999999999
 40
0.1875
  1
SYDNEY , NOVA SCOTIA
  7
style1
 11
-0.003116681697918
 21
2.43106586670801
 31
7.003999999999999
100
AcDbText
 73
     3
  0
TEXT
  5
E93
330
E8E
100
AcDbEntity
  8
5
  6
Continuous
 62
     7
100
AcDbText
 10
-0.003116681697918
 20
1.887253649928922
 30
7.003999999999999
 40
0.1875
  1
CANADA
  7
style1
 11
-0.003116681697918
 21
2.074753649928922
 31
7.003999999999999
100
AcDbText
 73
     3
  0
TEXT
  5
E94
330
E8E
100
AcDbEntity
  8
DIM
 62
     7
100
AcDbText
 10
-0.003116681697918
 20
3.489213974989991
 30
7.003999999999999
 40
0.187
  1
DIMENSIONS IN INCHES  
 41
0.8
  7
ADESK1
 11
-0.003116681697918
 21
3.676213974989991
 31
7.003999999999999
100
AcDbText
 73
     3
  0
TEXT
  5
E95
330
E8E
100
AcDbEntity
  8
0
100
AcDbText
 10
0.0130734016746885
 20
0.8627432887918262
 30
11.6733
 40
0.195
  1
ADVANCED GLAZINGS LTD.
  7
style1
 11
0.0130734016746885
 21
1.057743288791826
 31
11.6733
100
AcDbText
 73
     3
  0
TEXT
  5
E96
330
E8E
100
AcDbEntity
  8
0
100
AcDbText
 10
0.0130734016746885
 20
1.16395665126975
 30
11.6733
 40
0.195
  1
SOLERA IS A REGISTERED TRADEMARK
  7
style1
 11
0.0130734016746885
 21
1.35895665126975
 31
11.6733
100
AcDbText
 73
     3
  0
ENDBLK
  5
E98
330
E8E
100
AcDbEntity
  8
0
100
AcDbBlockEnd
  0
BLOCK
  5
1229
330
113C
100
AcDbEntity
  8
0
100
AcDbBlockBegin
  2
sol_t profile
 70
     0
 10
0.0
 20
0.0
 30
0.0
  3
sol_t profile
  1

  0
LINE
  5
113D
330
113C
100
AcDbEntity
  8
2
  6
Continuous
 62
     7
100
AcDbLine
 10
15.07240589726958
 20
18.43774384109204
 30
12.121909
 11
14.82735389726958
 21
18.68279584109204
 31
12.121909
  0
LINE
  5
113E
330
113C
100
AcDbEntity
  8
2
  6
Continuous
 62
     7
100
AcDbLine
 10
15.00169689726958
 20
18.43774384109204
 30
12.121909
 11
14.75664589726959
 21
18.68279584109204
 31
12.121909
  0
LINE
  5
113F
330
113C
100
AcDbEntity
  8
2
  6
Continuous
 62
     7
100
AcDbLine
 10
14.93098389726958
 20
18.43774384109204
 30
12.121909
 11
14.68593289726958
 21
18.68279584109204
 31
12.121909
  0
LINE
  5
1140
330
113C
100
AcDbEntity
  8
2
  6
Continuous
 62
     7
100
AcDbLine
 10
14.86027589726958
 20
18.43774384109204
 30
12.121909
 11
14.61522389726958
 21
18.68279584109204
 31
12.121909
  0
LWPOLYLINE
  5
1141
330
113C
100
AcDbEntity
  8
2
  6
Continuous
 62
     7
100
AcDbPolyline
 90
        4
 70
     1
 43
0.0
 38
12.121909
 10
14.01538589726958
 20
18.68279584109204
 10
14.01538589726958
 20
18.43774384109204
 10
15.17670889726958
 20
18.43774384109204
 10
15.17670889726958
 20
18.68279584109204
  0
LINE
  5
1142
330
113C
100
AcDbEntity
  8
5
  6
Continuous
 62
     7
100
AcDbLine
 10
14.36733089726958
 20
17.12834429319726
 30
12.121909
 11
16.87333089726958
 21
17.12834429319726
 31
12.121909
  0
LINE
  5
1143
330
113C
100
AcDbEntity
  8
5
  6
HIDDEN
 62
     7
100
AcDbLine
 10
14.36733089726958
 20
16.87834429319726
 30
12.121909
 11
16.87333089726958
 21
16.87834429319726
 31
12.121909
  0
LINE
  5
1144
330
113C
100
AcDbEntity
  8
5
  6
HIDDEN
 62
     7
100
AcDbLine
 10
14.36733089726958
 20
16.62834429319726
 30
12.121909
 11
16.87333089726958
 21
16.62834429319726
 31
12.121909
  0
LINE
  5
1145
330
113C
100
AcDbEntity
  8
5
  6
Continuous
 62
     7
100
AcDbLine
 10
14.36733089726958
 20
16.35000809043034
 30
12.121909
 11
16.87333089726958
 21
16.35000809043034
 31
12.121909
  0
LINE
  5
1146
330
113C
100
AcDbEntity
  8
5
  6
HIDDEN
 62
     7
100
AcDbLine
 10
14.36733089726958
 20
15.35000809043034
 30
12.121909
 11
16.87333089726958
 21
15.35000809043034
 31
12.121909
  0
LINE
  5
1147
330
113C
100
AcDbEntity
  8
5
  6
Continuous
 62
     7
100
AcDbLine
 10
14.36733089726958
 20
15.60000809043034
 30
12.121909
 11
16.87333089726958
 21
15.60000809043034
 31
12.121909
  0
LINE
  5
1148
330
113C
100
AcDbEntity
  8
5
  6
HIDDEN
 62
     7
100
AcDbLine
 10
14.36733089726958
 20
15.85000809043034
 30
12.121909
 11
16.87333089726958
 21
15.85000809043034
 31
12.121909
  0
LINE
  5
1149
330
113C
100
AcDbEntity
  8
5
  6
HIDDEN
 62
     7
100
AcDbLine
 10
14.36733089726958
 20
16.10000809043034
 30
12.121909
 11
16.87333089726958
 21
16.10000809043034
 31
12.121909
  0
3DFACE
  5
114A
330
113C
100
AcDbEntity
  8
1
  6
Continuous
 62
     7
100
AcDbFace
 10
14.67397289726958
 20
18.42693784109204
 30
12.121909
 11
14.44531889726958
 21
17.79290484109204
 31
12.121909
 12
15.17983089726958
 22
17.62279584109204
 32
12.121909
 13
15.09144189726958
 23
17.71940684109203
 33
12.121909
 70
    13
  0
3DFACE
  5
114B
330
113C
100
AcDbEntity
  8
1
  6
Continuous
 62
     7
100
AcDbFace
 10
14.67397289726958
 20
18.42693784109204
 30
12.121909
 11
15.09144189726958
 21
17.71940684109203
 31
12.121909
 12
15.05483089726958
 22
17.80779584109204
 32
12.121909
 13
14.68811389726958
 23
18.43279584109204
 33
12.121909
 70
     5
  0
3DFACE
  5
114C
330
113C
100
AcDbEntity
  8
1
  6
Continuous
 62
     7
100
AcDbFace
 10
14.68811389726958
 20
18.43279584109204
 30
12.121909
 11
15.05483089726958
 21
17.80779584109204
 31
12.121909
 12
15.05483089726958
 22
18.41279584109203
 32
12.121909
 13
15.03483089726958
 23
18.43279584109204
 33
12.121909
 70
     1
  0
LINE
  5
114D
330
113C
100
AcDbEntity
  8
5
  6
HIDDEN
 62
     7
100
AcDbLine
 10
14.36733089726958
 20
17.62834429319726
 30
12.121909
 11
15.17983089726958
 21
17.62834429319726
 31
12.121909
  0
3DFACE
  5
114E
330
113C
100
AcDbEntity
  8
1
  6
Continuous
 62
     7
100
AcDbFace
 10
14.68639789726958
 20
18.39693584109204
 30
12.121909
 11
14.47531889726958
 21
17.81675384109204
 31
12.121909
 12
15.00031889726958
 22
17.69516584109203
 32
12.121909
 13
14.70054289726959
 23
18.40279584109204
 33
12.121909
 70
     5
  0
3DFACE
  5
114F
330
113C
100
AcDbEntity
  8
1
  6
Continuous
 62
     7
100
AcDbFace
 10
14.70054289726959
 20
18.40279584109204
 30
12.121909
 11
15.00031889726958
 21
17.69516584109203
 31
12.121909
 12
15.01727589726958
 22
17.69899384109203
 32
12.121909
 13
15.00483089726958
 23
18.40279584109204
 33
12.121909
 70
     5
  0
LINE
  5
1150
330
113C
100
AcDbEntity
  8
5
  6
HIDDEN
 62
     7
100
AcDbLine
 10
14.36733089726958
 20
17.37834429319726
 30
12.121909
 11
16.23534394171945
 21
17.37834429319726
 31
12.121909
  0
LINE
  5
1151
330
113C
100
AcDbEntity
  8
5
  6
HIDDEN
 62
     7
100
AcDbLine
 10
14.36733089726958
 20
5.082756390024307
 30
12.121909
 11
16.23534394171945
 21
5.082756390024307
 31
12.121909
  0
3DFACE
  5
1152
330
113C
100
AcDbEntity
  8
1
  6
Continuous
 62
     7
100
AcDbFace
 10
14.70054289726959
 20
4.05830484212953
 30
12.121909
 11
15.00031889726958
 21
4.765934842129539
 31
12.121909
 12
15.01727589726958
 22
4.76210684212954
 32
12.121909
 13
15.00483089726958
 23
4.05830484212953
 33
12.121909
 70
     5
  0
3DFACE
  5
1153
330
113C
100
AcDbEntity
  8
1
  6
Continuous
 62
     7
100
AcDbFace
 10
14.68639789726958
 20
4.064164842129528
 30
12.121909
 11
14.47531889726958
 21
4.644346842129536
 31
12.121909
 12
15.00031889726958
 22
4.765934842129539
 32
12.121909
 13
14.70054289726959
 23
4.05830484212953
 33
12.121909
 70
     5
  0
LINE
  5
1154
330
113C
100
AcDbEntity
  8
5
  6
HIDDEN
 62
     7
100
AcDbLine
 10
14.36733089726958
 20
4.832756390024307
 30
12.121909
 11
15.17983089726958
 21
4.832756390024307
 31
12.121909
  0
3DFACE
  5
1155
330
113C
100
AcDbEntity
  8
1
  6
Continuous
 62
     7
100
AcDbFace
 10
14.68811389726958
 20
4.028304842129529
 30
12.121909
 11
15.05483089726958
 21
4.653304842129529
 31
12.121909
 12
15.05483089726958
 22
4.048304842129539
 32
12.121909
 13
15.03483089726958
 23
4.028304842129529
 33
12.121909
 70
     1
  0
3DFACE
  5
1156
330
113C
100
AcDbEntity
  8
1
  6
Continuous
 62
     7
100
AcDbFace
 10
14.67397289726958
 20
4.034162842129532
 30
12.121909
 11
15.09144189726958
 21
4.741693842129535
 31
12.121909
 12
15.05483089726958
 22
4.653304842129529
 32
12.121909
 13
14.68811389726958
 23
4.028304842129529
 33
12.121909
 70
     5
  0
3DFACE
  5
1157
330
113C
100
AcDbEntity
  8
1
  6
Continuous
 62
     7
100
AcDbFace
 10
14.67397289726958
 20
4.034162842129532
 30
12.121909
 11
14.44531889726958
 21
4.668195842129534
 31
12.121909
 12
15.17983089726958
 22
4.838304842129531
 32
12.121909
 13
15.09144189726958
 23
4.741693842129535
 33
12.121909
 70
    13
  0
LINE
  5
1158
330
113C
100
AcDbEntity
  8
5
  6
HIDDEN
 62
     7
100
AcDbLine
 10
14.36733089726958
 20
6.36109259279123
 30
12.121909
 11
16.87333089726958
 21
6.36109259279123
 31
12.121909
  0
LINE
  5
1159
330
113C
100
AcDbEntity
  8
5
  6
HIDDEN
 62
     7
100
AcDbLine
 10
14.36733089726958
 20
6.61109259279123
 30
12.121909
 11
16.87333089726958
 21
6.61109259279123
 31
12.121909
  0
LINE
  5
115A
330
113C
100
AcDbEntity
  8
5
  6
Continuous
 62
     7
100
AcDbLine
 10
14.36733089726958
 20
6.86109259279123
 30
12.121909
 11
16.87333089726958
 21
6.86109259279123
 31
12.121909
  0
LINE
  5
115B
330
113C
100
AcDbEntity
  8
5
  6
HIDDEN
 62
     7
100
AcDbLine
 10
14.36733089726958
 20
7.11109259279123
 30
12.121909
 11
16.87333089726958
 21
7.11109259279123
 31
12.121909
  0
LINE
  5
115C
330
113C
100
AcDbEntity
  8
5
  6
Continuous
 62
     7
100
AcDbLine
 10
14.36733089726958
 20
6.11109259279123
 30
12.121909
 11
16.87333089726958
 21
6.11109259279123
 31
12.121909
  0
LINE
  5
115D
330
113C
100
AcDbEntity
  8
5
  6
HIDDEN
 62
     7
100
AcDbLine
 10
14.36733089726958
 20
5.832756390024307
 30
12.121909
 11
16.87333089726958
 21
5.832756390024307
 31
12.121909
  0
LINE
  5
115E
330
113C
100
AcDbEntity
  8
5
  6
HIDDEN
 62
     7
100
AcDbLine
 10
14.36733089726958
 20
5.582756390024307
 30
12.121909
 11
16.87333089726958
 21
5.582756390024307
 31
12.121909
  0
LINE
  5
115F
330
113C
100
AcDbEntity
  8
5
  6
Continuous
 62
     7
100
AcDbLine
 10
14.36733089726958
 20
5.332756390024307
 30
12.121909
 11
16.87333089726958
 21
5.332756390024307
 31
12.121909
  0
LWPOLYLINE
  5
1160
330
113C
100
AcDbEntity
  8
2
  6
Continuous
 62
     7
100
AcDbPolyline
 90
        4
 70
     1
 43
0.0
 38
12.121909
 10
14.01538589726958
 20
3.778304842129529
 10
14.01538589726958
 20
4.02335684212953
 10
15.17670889726958
 20
4.02335684212953
 10
15.17670889726958
 20
3.778304842129529
  0
LINE
  5
1161
330
113C
100
AcDbEntity
  8
2
  6
Continuous
 62
     7
100
AcDbLine
 10
14.86027589726958
 20
4.02335684212953
 30
12.121909
 11
14.61522389726958
 21
3.778304842129529
 31
12.121909
  0
LINE
  5
1162
330
113C
100
AcDbEntity
  8
2
  6
Continuous
 62
     7
100
AcDbLine
 10
14.93098389726958
 20
4.02335684212953
 30
12.121909
 11
14.68593289726958
 21
3.778304842129529
 31
12.121909
  0
LINE
  5
1163
330
113C
100
AcDbEntity
  8
2
  6
Continuous
 62
     7
100
AcDbLine
 10
15.00169689726958
 20
4.02335684212953
 30
12.121909
 11
14.75664589726959
 21
3.778304842129529
 31
12.121909
  0
LINE
  5
1164
330
113C
100
AcDbEntity
  8
2
  6
Continuous
 62
     7
100
AcDbLine
 10
15.07240589726958
 20
4.02335684212953
 30
12.121909
 11
14.82735389726958
 21
3.778304842129529
 31
12.121909
  0
3DFACE
  5
1165
330
113C
100
AcDbEntity
  8
1
  6
Continuous
 62
     7
100
AcDbFace
 10
14.46568889726958
 20
4.284871842129533
 30
12.121909
 11
14.46417489726958
 21
4.637306842129532
 31
12.121909
 12
14.47531889726958
 22
4.644346842129536
 32
12.121909
 13
14.68639789726958
 23
4.064164842129528
 33
12.121909
 70
     5
  0
3DFACE
  5
1166
330
113C
100
AcDbEntity
  8
1
  6
Continuous
 62
     7
100
AcDbFace
 10
14.43568889726958
 20
4.272446842129539
 30
12.121909
 11
14.42983089726958
 21
4.648710842129545
 31
12.121909
 12
14.44531889726958
 22
4.668195842129534
 32
12.121909
 13
14.67397289726958
 23
4.034162842129532
 33
12.121909
 70
     5
  0
POLYLINE
  5
1167
330
113C
100
AcDbEntity
  8
3
  6
Continuous
 62
     7
100
AcDbPolyFaceMesh
 66
     1
 10
0.0
 20
0.0
 30
0.0
 70
    64
 71
     7
 72
     3
  0
VERTEX
  5
1168
330
1167
100
AcDbEntity
  8
3
  6
Continuous
 62
     7
100
AcDbVertex
100
AcDbPolyFaceMeshVertex
 10
14.36733089726958
 20
4.028304842129529
 30
12.121909
 70
   192
  0
VERTEX
  5
1169
330
1167
100
AcDbEntity
  8
3
  6
Continuous
 62
     7
100
AcDbVertex
100
AcDbPolyFaceMeshVertex
 10
14.11733089726958
 20
6.528304842129529
 30
12.121909
 70
   192
  0
VERTEX
  5
116A
330
1167
100
AcDbEntity
  8
3
  6
Continuous
 62
     7
100
AcDbVertex
100
AcDbPolyFaceMeshVertex
 10
14.36733089726958
 20
6.521143842129532
 30
12.121909
 70
   192
  0
VERTEX
  5
116B
330
1167
100
AcDbEntity
  8
3
  6
Continuous
 62
     7
100
AcDbVertex
100
AcDbPolyFaceMeshVertex
 10
14.11733089726958
 20
7.153304842129529
 30
12.121909
 70
   192
  0
VERTEX
  5
116C
330
1167
100
AcDbEntity
  8
3
  6
Continuous
 62
     7
100
AcDbVertex
100
AcDbPolyFaceMeshVertex
 10
14.36733089726958
 20
7.153304842129529
 30
12.121909
 70
   192
  0
VERTEX
  5
116D
330
1167
100
AcDbEntity
  8
3
  6
Continuous
 62
     7
100
AcDbVertex
100
AcDbPolyFaceMeshVertex
 10
14.11733089726958
 20
4.028304842129529
 30
12.121909
 70
   192
  0
VERTEX
  5
116E
330
1167
100
AcDbEntity
  8
3
  6
Continuous
 62
     7
100
AcDbVertex
100
AcDbPolyFaceMeshVertex
 10
14.36733089726958
 20
6.528304842129529
 30
12.121909
 70
   192
  0
VERTEX
  5
116F
330
1167
100
AcDbEntity
  8
3
  6
Continuous
 62
     7
100
AcDbFaceRecord
 10
0.0
 20
0.0
 30
0.0
 70
   128
 71
    -1
 72
     2
 73
    -4
 74
     3
  0
VERTEX
  5
1170
330
1167
100
AcDbEntity
  8
3
  6
Continuous
 62
     7
100
AcDbFaceRecord
 10
0.0
 20
0.0
 30
0.0
 70
   128
 71
    -2
 72
     1
 73
     6
  0
VERTEX
  5
1171
330
1167
100
AcDbEntity
  8
3
  6
Continuous
 62
     7
100
AcDbFaceRecord
 10
0.0
 20
0.0
 30
0.0
 70
   128
 71
    -3
 72
     4
 73
     5
 74
     7
  0
SEQEND
  5
1172
330
1167
100
AcDbEntity
  8
3
  6
Continuous
 62
     7
  0
LINE
  5
1173
330
113C
100
AcDbEntity
  8
1
  6
Continuous
 62
     7
100
AcDbLine
 10
14.44206289726958
 20
4.266072842129545
 30
12.121909
 11
14.36733089726958
 21
4.191336842129544
 31
12.121909
  0
LINE
  5
1174
330
113C
100
AcDbEntity
  8
1
  6
Continuous
 62
     7
100
AcDbLine
 10
14.47742089726958
 20
4.230714842129529
 30
12.121909
 11
14.36733089726958
 21
4.120627842129536
 31
12.121909
  0
LINE
  5
1175
330
113C
100
AcDbEntity
  8
2
  6
Continuous
 62
     7
100
AcDbLine
 10
14.08245689726958
 20
4.02335684212953
 30
12.121909
 11
14.01538589726958
 21
3.956285842129545
 31
12.121909
  0
LINE
  5
1176
330
113C
100
AcDbEntity
  8
2
  6
Continuous
 62
     7
100
AcDbLine
 10
14.15316489726958
 20
4.02335684212953
 30
12.121909
 11
14.01538589726958
 21
3.885576842129538
 31
12.121909
  0
LINE
  5
1177
330
113C
100
AcDbEntity
  8
2
  6
Continuous
 62
     7
100
AcDbLine
 10
14.22387789726958
 20
4.02335684212953
 30
12.121909
 11
14.01538589726958
 21
3.814863842129526
 31
12.121909
  0
LINE
  5
1178
330
113C
100
AcDbEntity
  8
2
  6
Continuous
 62
     7
100
AcDbLine
 10
14.29458689726958
 20
4.02335684212953
 30
12.121909
 11
14.04953489726958
 21
3.778304842129529
 31
12.121909
  0
LINE
  5
1179
330
113C
100
AcDbEntity
  8
2
  6
Continuous
 62
     7
100
AcDbLine
 10
14.50672089726958
 20
4.02335684212953
 30
12.121909
 11
14.26166889726958
 21
3.778304842129529
 31
12.121909
  0
LINE
  5
117A
330
113C
100
AcDbEntity
  8
2
  6
Continuous
 62
     7
100
AcDbLine
 10
14.57743289726958
 20
4.02335684212953
 30
12.121909
 11
14.33238189726958
 21
3.778304842129529
 31
12.121909
  0
LINE
  5
117B
330
113C
100
AcDbEntity
  8
2
  6
Continuous
 62
     7
100
AcDbLine
 10
14.64814189726958
 20
4.02335684212953
 30
12.121909
 11
14.40309089726958
 21
3.778304842129529
 31
12.121909
  0
ARC
  5
117C
330
113C
100
AcDbEntity
  8
1
  6
Continuous
 62
     7
100
AcDbCircle
 10
14.53952689726958
 20
3.043242842129529
 30
12.121909
 40
1.0
100
AcDbArc
 50
82.27343300000008
 51
99.91552700000008
  0
LINE
  5
117D
330
113C
100
AcDbEntity
  8
1
  6
Continuous
 62
     7
100
AcDbLine
 10
14.51277589726958
 20
4.195360842129545
 30
12.121909
 11
14.36733089726958
 21
4.049915842129536
 31
12.121909
  0
LINE
  5
117E
330
113C
100
AcDbEntity
  8
1
  6
Continuous
 62
     7
100
AcDbLine
 10
14.54812989726958
 20
4.160005842129535
 30
12.121909
 11
14.42465789726959
 21
4.036533842129543
 31
12.121909
  0
LINE
  5
117F
330
113C
100
AcDbEntity
  8
2
  6
Continuous
 62
     7
100
AcDbLine
 10
14.36529889726958
 20
4.02335684212953
 30
12.121909
 11
14.12024789726958
 21
3.778304842129529
 31
12.121909
  0
LINE
  5
1180
330
113C
100
AcDbEntity
  8
2
  6
Continuous
 62
     7
100
AcDbLine
 10
14.43601189726958
 20
4.02335684212953
 30
12.121909
 11
14.19096089726958
 21
3.778304842129529
 31
12.121909
  0
LINE
  5
1181
330
113C
100
AcDbEntity
  8
2
  6
Continuous
 62
     7
100
AcDbLine
 10
14.71885389726958
 20
4.02335684212953
 30
12.121909
 11
14.47380289726958
 21
3.778304842129529
 31
12.121909
  0
LINE
  5
1182
330
113C
100
AcDbEntity
  8
2
  6
Continuous
 62
     7
100
AcDbLine
 10
14.78956289726958
 20
4.02335684212953
 30
12.121909
 11
14.54451189726958
 21
3.778304842129529
 31
12.121909
  0
LINE
  5
1183
330
113C
100
AcDbEntity
  8
1
  6
Continuous
 62
     7
100
AcDbLine
 10
14.58348789726958
 20
4.124647842129533
 30
12.121909
 11
14.50095289726958
 21
4.042115842129533
 31
12.121909
  0
LINE
  5
1184
330
113C
100
AcDbEntity
  8
1
  6
Continuous
 62
     7
100
AcDbLine
 10
14.61884289726958
 20
4.089293842129535
 30
12.121909
 11
14.57179889726958
 21
4.042249842129535
 31
12.121909
  0
LINE
  5
1185
330
113C
100
AcDbEntity
  8
1
  6
Continuous
 62
     7
100
AcDbLine
 10
14.65419689726958
 20
4.053938842129525
 30
12.121909
 11
14.63813389726958
 21
4.037875842129537
 31
12.121909
  0
LWPOLYLINE
  5
1186
330
113C
100
AcDbEntity
  8
2
  6
Continuous
 62
     7
100
AcDbPolyline
 90
        4
 70
     1
 43
0.0
 38
12.121909
 10
14.42983089726958
 20
4.655151842129527
 10
14.42983089726958
 20
4.280151842129527
 10
14.36733089726958
 20
4.280151842129527
 10
14.36733089726958
 20
4.655151842129527
  0
3DFACE
  5
1187
330
113C
100
AcDbEntity
  8
1
  6
Continuous
 62
     7
100
AcDbFace
 10
14.42983089726958
 20
4.648710842129545
 30
12.121909
 11
14.43568889726958
 21
4.272446842129539
 31
12.121909
 12
14.42983089726958
 22
4.286589842129529
 32
12.121909
 13
14.42983089726958
 23
4.286589842129529
 33
12.121909
 70
     1
  0
LINE
  5
1188
330
113C
100
AcDbEntity
  8
1
  6
Continuous
 62
     7
100
AcDbLine
 10
14.38543289726958
 20
4.280151842129527
 30
12.121909
 11
14.36733089726958
 21
4.262049842129528
 31
12.121909
  0
3DFACE
  5
1189
330
113C
100
AcDbEntity
  8
1
  6
Continuous
 62
     7
100
AcDbFace
 10
14.46417489726958
 20
4.637306842129532
 30
12.121909
 11
14.46568889726958
 21
4.284871842129533
 31
12.121909
 12
14.45983089726958
 22
4.299014842129537
 32
12.121909
 13
14.45983089726958
 23
4.624860842129535
 33
12.121909
 70
     1
  0
LINE
  5
118A
330
113C
100
AcDbEntity
  8
1
  6
Continuous
 62
     7
100
AcDbLine
 10
14.47742089726958
 20
18.23038584109204
 30
12.121909
 11
14.36733089726958
 21
18.34047284109203
 31
12.121909
  0
LINE
  5
118B
330
113C
100
AcDbEntity
  8
1
  6
Continuous
 62
     7
100
AcDbLine
 10
14.44206289726958
 20
18.19502784109203
 30
12.121909
 11
14.36733089726958
 21
18.26976384109203
 31
12.121909
  0
POLYLINE
  5
118C
330
113C
100
AcDbEntity
  8
3
  6
Continuous
 62
     7
100
AcDbPolyFaceMesh
 66
     1
 10
0.0
 20
0.0
 30
0.0
 70
    64
 71
     7
 72
     3
  0
VERTEX
  5
118D
330
118C
100
AcDbEntity
  8
3
  6
Continuous
 62
     7
100
AcDbVertex
100
AcDbPolyFaceMeshVertex
 10
14.36733089726958
 20
18.43279584109204
 30
12.121909
 70
   192
  0
VERTEX
  5
118E
330
118C
100
AcDbEntity
  8
3
  6
Continuous
 62
     7
100
AcDbVertex
100
AcDbPolyFaceMeshVertex
 10
14.11733089726958
 20
15.93279584109204
 30
12.121909
 70
   192
  0
VERTEX
  5
118F
330
118C
100
AcDbEntity
  8
3
  6
Continuous
 62
     7
100
AcDbVertex
100
AcDbPolyFaceMeshVertex
 10
14.36733089726958
 20
15.93995684109204
 30
12.121909
 70
   192
  0
VERTEX
  5
1190
330
118C
100
AcDbEntity
  8
3
  6
Continuous
 62
     7
100
AcDbVertex
100
AcDbPolyFaceMeshVertex
 10
14.11733089726958
 20
15.30779584109204
 30
12.121909
 70
   192
  0
VERTEX
  5
1191
330
118C
100
AcDbEntity
  8
3
  6
Continuous
 62
     7
100
AcDbVertex
100
AcDbPolyFaceMeshVertex
 10
14.36733089726958
 20
15.30779584109204
 30
12.121909
 70
   192
  0
VERTEX
  5
1192
330
118C
100
AcDbEntity
  8
3
  6
Continuous
 62
     7
100
AcDbVertex
100
AcDbPolyFaceMeshVertex
 10
14.11733089726958
 20
18.43279584109204
 30
12.121909
 70
   192
  0
VERTEX
  5
1193
330
118C
100
AcDbEntity
  8
3
  6
Continuous
 62
     7
100
AcDbVertex
100
AcDbPolyFaceMeshVertex
 10
14.36733089726958
 20
15.93279584109204
 30
12.121909
 70
   192
  0
VERTEX
  5
1194
330
118C
100
AcDbEntity
  8
3
  6
Continuous
 62
     7
100
AcDbFaceRecord
 10
0.0
 20
0.0
 30
0.0
 70
   128
 71
    -1
 72
     2
 73
    -4
 74
     3
  0
VERTEX
  5
1195
330
118C
100
AcDbEntity
  8
3
  6
Continuous
 62
     7
100
AcDbFaceRecord
 10
0.0
 20
0.0
 30
0.0
 70
   128
 71
    -2
 72
     1
 73
     6
  0
VERTEX
  5
1196
330
118C
100
AcDbEntity
  8
3
  6
Continuous
 62
     7
100
AcDbFaceRecord
 10
0.0
 20
0.0
 30
0.0
 70
   128
 71
    -3
 72
     4
 73
     5
 74
     7
  0
SEQEND
  5
1197
330
118C
100
AcDbEntity
  8
3
  6
Continuous
 62
     7
  0
3DFACE
  5
1198
330
113C
100
AcDbEntity
  8
1
  6
Continuous
 62
     7
100
AcDbFace
 10
14.43568889726958
 20
18.18865384109203
 30
12.121909
 11
14.42983089726958
 21
17.81238984109203
 31
12.121909
 12
14.44531889726958
 22
17.79290484109204
 32
12.121909
 13
14.67397289726958
 23
18.42693784109204
 33
12.121909
 70
     5
  0
3DFACE
  5
1199
330
113C
100
AcDbEntity
  8
1
  6
Continuous
 62
     7
100
AcDbFace
 10
14.46568889726958
 20
18.17622884109204
 30
12.121909
 11
14.46417489726958
 21
17.82379384109204
 31
12.121909
 12
14.47531889726958
 22
17.81675384109204
 32
12.121909
 13
14.68639789726958
 23
18.39693584109204
 33
12.121909
 70
     5
  0
LWPOLYLINE
  5
119A
330
113C
100
AcDbEntity
  8
2
  6
Continuous
 62
     7
100
AcDbPolyline
 90
        4
 70
     1
 43
0.0
 38
12.121909
 10
14.42983089726958
 20
17.80594884109205
 10
14.42983089726958
 20
18.18094884109205
 10
14.36733089726958
 20
18.18094884109205
 10
14.36733089726958
 20
17.80594884109205
  0
LINE
  5
119B
330
113C
100
AcDbEntity
  8
1
  6
Continuous
 62
     7
100
AcDbLine
 10
14.38543289726958
 20
18.18094884109205
 30
12.121909
 11
14.36733089726958
 21
18.19905084109204
 31
12.121909
  0
3DFACE
  5
119C
330
113C
100
AcDbEntity
  8
1
  6
Continuous
 62
     7
100
AcDbFace
 10
14.42983089726958
 20
17.81238984109203
 30
12.121909
 11
14.43568889726958
 21
18.18865384109203
 31
12.121909
 12
14.42983089726958
 22
18.17451084109204
 32
12.121909
 13
14.42983089726958
 23
18.17451084109204
 33
12.121909
 70
     1
  0
3DFACE
  5
119D
330
113C
100
AcDbEntity
  8
1
  6
Continuous
 62
     7
100
AcDbFace
 10
14.46417489726958
 20
17.82379384109204
 30
12.121909
 11
14.46568889726958
 21
18.17622884109204
 31
12.121909
 12
14.45983089726958
 22
18.16208584109203
 32
12.121909
 13
14.45983089726958
 23
17.83623984109204
 33
12.121909
 70
     1
  0
LINE
  5
119E
330
113C
100
AcDbEntity
  8
2
  6
Continuous
 62
     7
100
AcDbLine
 10
14.29458689726958
 20
18.43774384109204
 30
12.121909
 11
14.04953489726958
 21
18.68279584109204
 31
12.121909
  0
LINE
  5
119F
330
113C
100
AcDbEntity
  8
2
  6
Continuous
 62
     7
100
AcDbLine
 10
14.22387789726958
 20
18.43774384109204
 30
12.121909
 11
14.01538589726958
 21
18.64623684109204
 31
12.121909
  0
LINE
  5
11A0
330
113C
100
AcDbEntity
  8
2
  6
Continuous
 62
     7
100
AcDbLine
 10
14.15316489726958
 20
18.43774384109204
 30
12.121909
 11
14.01538589726958
 21
18.57552384109203
 31
12.121909
  0
LINE
  5
11A1
330
113C
100
AcDbEntity
  8
2
  6
Continuous
 62
     7
100
AcDbLine
 10
14.08245689726958
 20
18.43774384109204
 30
12.121909
 11
14.01538589726958
 21
18.50481484109202
 31
12.121909
  0
LINE
  5
11A2
330
113C
100
AcDbEntity
  8
1
  6
Continuous
 62
     7
100
AcDbLine
 10
14.54812989726958
 20
18.30109484109204
 30
12.121909
 11
14.42465789726959
 21
18.42456684109203
 31
12.121909
  0
LINE
  5
11A3
330
113C
100
AcDbEntity
  8
1
  6
Continuous
 62
     7
100
AcDbLine
 10
14.51277589726958
 20
18.26573984109202
 30
12.121909
 11
14.36733089726958
 21
18.41118484109204
 31
12.121909
  0
ARC
  5
11A4
330
113C
100
AcDbEntity
  8
1
  6
Continuous
 62
     7
100
AcDbCircle
 10
14.53952689726958
 20
19.41785784109204
 30
12.121909
 40
1.0
100
AcDbArc
 50
260.0844729999999
 51
277.7265669999999
  0
LINE
  5
11A5
330
113C
100
AcDbEntity
  8
2
  6
Continuous
 62
     7
100
AcDbLine
 10
14.64814189726958
 20
18.43774384109204
 30
12.121909
 11
14.40309089726958
 21
18.68279584109204
 31
12.121909
  0
LINE
  5
11A6
330
113C
100
AcDbEntity
  8
2
  6
Continuous
 62
     7
100
AcDbLine
 10
14.57743289726958
 20
18.43774384109204
 30
12.121909
 11
14.33238189726958
 21
18.68279584109204
 31
12.121909
  0
LINE
  5
11A7
330
113C
100
AcDbEntity
  8
2
  6
Continuous
 62
     7
100
AcDbLine
 10
14.50672089726958
 20
18.43774384109204
 30
12.121909
 11
14.26166889726958
 21
18.68279584109204
 31
12.121909
  0
LINE
  5
11A8
330
113C
100
AcDbEntity
  8
2
  6
Continuous
 62
     7
100
AcDbLine
 10
14.43601189726958
 20
18.43774384109204
 30
12.121909
 11
14.19096089726958
 21
18.68279584109204
 31
12.121909
  0
LINE
  5
11A9
330
113C
100
AcDbEntity
  8
2
  6
Continuous
 62
     7
100
AcDbLine
 10
14.36529889726958
 20
18.43774384109204
 30
12.121909
 11
14.12024789726958
 21
18.68279584109204
 31
12.121909
  0
LINE
  5
11AA
330
113C
100
AcDbEntity
  8
1
  6
Continuous
 62
     7
100
AcDbLine
 10
14.65419689726958
 20
18.40716184109204
 30
12.121909
 11
14.63813389726958
 21
18.42322484109203
 31
12.121909
  0
LINE
  5
11AB
330
113C
100
AcDbEntity
  8
1
  6
Continuous
 62
     7
100
AcDbLine
 10
14.61884289726958
 20
18.37180684109204
 30
12.121909
 11
14.57179889726958
 21
18.41885084109204
 31
12.121909
  0
LINE
  5
11AC
330
113C
100
AcDbEntity
  8
1
  6
Continuous
 62
     7
100
AcDbLine
 10
14.58348789726958
 20
18.33645284109204
 30
12.121909
 11
14.50095289726958
 21
18.41898484109204
 31
12.121909
  0
LINE
  5
11AD
330
113C
100
AcDbEntity
  8
2
  6
Continuous
 62
     7
100
AcDbLine
 10
14.78956289726958
 20
18.43774384109204
 30
12.121909
 11
14.54451189726958
 21
18.68279584109204
 31
12.121909
  0
LINE
  5
11AE
330
113C
100
AcDbEntity
  8
2
  6
Continuous
 62
     7
100
AcDbLine
 10
14.71885389726958
 20
18.43774384109204
 30
12.121909
 11
14.47380289726958
 21
18.68279584109204
 31
12.121909
  0
3DFACE
  5
11AF
330
113C
100
AcDbEntity
  8
1
  6
Continuous
 62
     7
100
AcDbFace
 10
15.01897289726958
 20
4.064162842129533
 30
12.121909
 11
15.02483089726958
 21
4.746450842129533
 31
12.121909
 12
15.02483089726958
 22
4.746450842129533
 32
12.121909
 13
15.02483089726958
 23
4.07830484212954
 33
12.121909
 70
     1
  0
3DFACE
  5
11B0
330
113C
100
AcDbEntity
  8
1
  6
Continuous
 62
     7
100
AcDbFace
 10
15.00483089726958
 20
4.05830484212953
 30
12.121909
 11
15.01727589726958
 21
4.76210684212954
 31
12.121909
 12
15.02483089726958
 22
4.746450842129533
 32
12.121909
 13
15.01897289726958
 23
4.064162842129533
 33
12.121909
 70
     5
  0
LINE
  5
11B1
330
113C
100
AcDbEntity
  8
2
  6
Continuous
 62
     7
100
AcDbLine
 10
15.14311789726958
 20
4.02335684212953
 30
12.121909
 11
14.89806689726959
 21
3.778304842129529
 31
12.121909
  0
LINE
  5
11B2
330
113C
100
AcDbEntity
  8
2
  6
Continuous
 62
     7
100
AcDbLine
 10
15.17670889726958
 20
3.986237842129526
 30
12.121909
 11
14.96877589726958
 21
3.778304842129529
 31
12.121909
  0
LINE
  5
11B3
330
113C
100
AcDbEntity
  8
2
  6
Continuous
 62
     7
100
AcDbLine
 10
15.17670889726958
 20
3.915525842129525
 30
12.121909
 11
15.03948789726958
 21
3.778304842129529
 31
12.121909
  0
LINE
  5
11B4
330
113C
100
AcDbEntity
  8
2
  6
Continuous
 62
     7
100
AcDbLine
 10
15.17670889726958
 20
3.844816842129532
 30
12.121909
 11
15.11019689726958
 21
3.778304842129529
 31
12.121909
  0
LINE
  5
11B5
330
113C
100
AcDbEntity
  8
3
  6
Continuous
 62
     7
100
AcDbLine
 10
17.11733089726958
 20
4.778304842129529
 30
12.121909
 11
17.11733089726958
 21
7.11109259279123
 31
12.121909
  0
LINE
  5
11B6
330
113C
100
AcDbEntity
  8
3
  6
Continuous
 62
     7
100
AcDbLine
 10
16.86733089726958
 20
7.11109259279123
 30
12.121909
 11
16.86733089726958
 21
4.778304842129529
 31
12.121909
  0
3DFACE
  5
11B7
330
113C
100
AcDbEntity
  8
1
  6
Continuous
 62
     7
100
AcDbFace
 10
15.35827589726958
 20
4.80830484212953
 30
12.121909
 11
15.35376389726958
 21
4.847789842129529
 31
12.121909
 12
16.75531889726958
 22
5.172383842129534
 32
12.121909
 13
16.53912289726958
 23
4.80830484212953
 33
12.121909
 70
     5
  0
3DFACE
  5
11B8
330
113C
100
AcDbEntity
  8
1
  6
Continuous
 62
     7
100
AcDbFace
 10
16.55154689726958
 20
4.778304842129529
 30
12.121909
 11
15.17983089726958
 21
4.838304842129531
 31
12.121909
 12
16.78531889726958
 22
5.210127842129537
 32
12.121909
 13
16.55154689726958
 23
4.778304842129529
 33
12.121909
 70
     5
  0
3DFACE
  5
11B9
330
113C
100
AcDbEntity
  8
1
  6
Continuous
 62
     7
100
AcDbFace
 10
15.09144189726958
 20
4.741693842129535
 30
12.121909
 11
15.17983089726958
 21
4.838304842129531
 31
12.121909
 12
16.55154689726958
 22
4.778304842129529
 32
12.121909
 13
15.17983089726958
 23
4.778304842129529
 33
12.121909
 70
     3
  0
POLYLINE
  5
11BA
330
113C
100
AcDbEntity
  8
1
  6
Continuous
 62
     7
100
AcDbPolyFaceMesh
 66
     1
 10
0.0
 20
0.0
 30
0.0
 70
    64
 71
    21
 72
    12
  0
VERTEX
  5
11BB
330
11BA
100
AcDbEntity
  8
1
  6
Continuous
 62
     7
100
AcDbVertex
100
AcDbPolyFaceMeshVertex
 10
17.17245289726959
 20
4.879308842129532
 30
12.121909
 70
   192
  0
VERTEX
  5
11BC
330
11BA
100
AcDbEntity
  8
1
  6
Continuous
 62
     7
100
AcDbVertex
100
AcDbPolyFaceMeshVertex
 10
17.24042089726959
 20
4.92937584212953
 30
12.121909
 70
   192
  0
VERTEX
  5
11BD
330
11BA
100
AcDbEntity
  8
1
  6
Continuous
 62
     7
100
AcDbVertex
100
AcDbPolyFaceMeshVertex
 10
17.81733089726958
 20
4.528304842129529
 30
12.121909
 70
   192
  0
VERTEX
  5
11BE
330
11BA
100
AcDbEntity
  8
1
  6
Continuous
 62
     7
100
AcDbVertex
100
AcDbPolyFaceMeshVertex
 10
16.40483089726958
 20
4.653304842129529
 30
12.121909
 70
   192
  0
VERTEX
  5
11BF
330
11BA
100
AcDbEntity
  8
1
  6
Continuous
 62
     7
100
AcDbVertex
100
AcDbPolyFaceMeshVertex
 10
16.60483089726958
 20
4.653304842129529
 30
12.121909
 70
   192
  0
VERTEX
  5
11C0
330
11BA
100
AcDbEntity
  8
1
  6
Continuous
 62
     7
100
AcDbVertex
100
AcDbPolyFaceMeshVertex
 10
16.80483089726958
 20
4.715804842129529
 30
12.121909
 70
   192
  0
VERTEX
  5
11C1
330
11BA
100
AcDbEntity
  8
1
  6
Continuous
 62
     7
100
AcDbVertex
100
AcDbPolyFaceMeshVertex
 10
17.61152989726958
 20
4.66837384212954
 30
12.121909
 70
   192
  0
VERTEX
  5
11C2
330
11BA
100
AcDbEntity
  8
1
  6
Continuous
 62
     7
100
AcDbVertex
100
AcDbPolyFaceMeshVertex
 10
17.24233089726958
 20
4.715804842129529
 30
12.121909
 70
   192
  0
VERTEX
  5
11C3
330
11BA
100
AcDbEntity
  8
1
  6
Continuous
 62
     7
100
AcDbVertex
100
AcDbPolyFaceMeshVertex
 10
16.70483089726958
 20
4.653304842129529
 30
12.121909
 70
   192
  0
VERTEX
  5
11C4
330
11BA
100
AcDbEntity
  8
1
  6
Continuous
 62
     7
100
AcDbVertex
100
AcDbPolyFaceMeshVertex
 10
16.50483089726958
 20
4.653304842129529
 30
12.121909
 70
   192
  0
VERTEX
  5
11C5
330
11BA
100
AcDbEntity
  8
1
  6
Continuous
 62
     7
100
AcDbVertex
100
AcDbPolyFaceMeshVertex
 10
16.30483089726958
 20
4.653304842129529
 30
12.121909
 70
   192
  0
VERTEX
  5
11C6
330
11BA
100
AcDbEntity
  8
1
  6
Continuous
 62
     7
100
AcDbVertex
100
AcDbPolyFaceMeshVertex
 10
17.24140189726958
 20
4.927454842129534
 30
12.121909
 70
   192
  0
VERTEX
  5
11C7
330
11BA
100
AcDbEntity
  8
1
  6
Continuous
 62
     7
100
AcDbVertex
100
AcDbPolyFaceMeshVertex
 10
17.25739889726959
 20
5.022504842129535
 30
12.121909
 70
   192
  0
VERTEX
  5
11C8
330
11BA
100
AcDbEntity
  8
1
  6
Continuous
 62
     7
100
AcDbVertex
100
AcDbPolyFaceMeshVertex
 10
16.30483089726958
 20
4.528304842129529
 30
12.121909
 70
   192
  0
VERTEX
  5
11C9
330
11BA
100
AcDbEntity
  8
1
  6
Continuous
 62
     7
100
AcDbVertex
100
AcDbPolyFaceMeshVertex
 10
16.45483089726958
 20
4.778304842129529
 30
12.121909
 70
   192
  0
VERTEX
  5
11CA
330
11BA
100
AcDbEntity
  8
1
  6
Continuous
 62
     7
100
AcDbVertex
100
AcDbPolyFaceMeshVertex
 10
16.55483089726958
 20
4.778304842129529
 30
12.121909
 70
   192
  0
VERTEX
  5
11CB
330
11BA
100
AcDbEntity
  8
1
  6
Continuous
 62
     7
100
AcDbVertex
100
AcDbPolyFaceMeshVertex
 10
16.65483089726958
 20
4.778304842129529
 30
12.121909
 70
   192
  0
VERTEX
  5
11CC
330
11BA
100
AcDbEntity
  8
1
  6
Continuous
 62
     7
100
AcDbVertex
100
AcDbPolyFaceMeshVertex
 10
16.75483089726958
 20
4.778304842129529
 30
12.121909
 70
   192
  0
VERTEX
  5
11CD
330
11BA
100
AcDbEntity
  8
1
  6
Continuous
 62
     7
100
AcDbVertex
100
AcDbPolyFaceMeshVertex
 10
17.11737389726958
 20
5.04837184212954
 30
12.121909
 70
   192
  0
VERTEX
  5
11CE
330
11BA
100
AcDbEntity
  8
1
  6
Continuous
 62
     7
100
AcDbVertex
100
AcDbPolyFaceMeshVertex
 10
17.11733089726958
 20
5.228304842129531
 30
12.121909
 70
   192
  0
VERTEX
  5
11CF
330
11BA
100
AcDbEntity
  8
1
  6
Continuous
 62
     7
100
AcDbVertex
100
AcDbPolyFaceMeshVertex
 10
17.42333589726959
 20
4.834310842129539
 30
12.121909
 70
   192
  0
VERTEX
  5
11D0
330
11BA
100
AcDbEntity
  8
1
  6
Continuous
 62
     7
100
AcDbFaceRecord
 10
0.0
 20
0.0
 30
0.0
 70
   128
 71
    -1
 72
     2
 73
   -12
 74
     8
  0
VERTEX
  5
11D1
330
11BA
100
AcDbEntity
  8
1
  6
Continuous
 62
     7
100
AcDbFaceRecord
 10
0.0
 20
0.0
 30
0.0
 70
   128
 71
    -2
 72
     1
 73
    19
  0
VERTEX
  5
11D2
330
11BA
100
AcDbEntity
  8
1
  6
Continuous
 62
     7
100
AcDbFaceRecord
 10
0.0
 20
0.0
 30
0.0
 70
   128
 71
    -3
 72
    -4
 73
   -10
 74
    -5
  0
VERTEX
  5
11D3
330
11BA
100
AcDbEntity
  8
1
  6
Continuous
 62
     7
100
AcDbFaceRecord
 10
0.0
 20
0.0
 30
0.0
 70
   128
 71
    -4
 72
     3
 73
    14
 74
   -11
  0
VERTEX
  5
11D4
330
11BA
100
AcDbEntity
  8
1
  6
Continuous
 62
     7
100
AcDbFaceRecord
 10
0.0
 20
0.0
 30
0.0
 70
   128
 71
    -3
 72
    -5
 73
     9
 74
    -6
  0
VERTEX
  5
11D5
330
11BA
100
AcDbEntity
  8
1
  6
Continuous
 62
     7
100
AcDbFaceRecord
 10
0.0
 20
0.0
 30
0.0
 70
   128
 71
    -3
 72
     6
 73
    -8
 74
     7
  0
VERTEX
  5
11D6
330
11BA
100
AcDbEntity
  8
1
  6
Continuous
 62
     7
100
AcDbFaceRecord
 10
0.0
 20
0.0
 30
0.0
 70
   128
 71
    -7
 72
    -8
 73
    13
 74
    21
  0
VERTEX
  5
11D7
330
11BA
100
AcDbEntity
  8
1
  6
Continuous
 62
     7
100
AcDbFaceRecord
 10
0.0
 20
0.0
 30
0.0
 70
   128
 71
    -9
 72
     5
 73
    18
  0
VERTEX
  5
11D8
330
11BA
100
AcDbEntity
  8
1
  6
Continuous
 62
     7
100
AcDbFaceRecord
 10
0.0
 20
0.0
 30
0.0
 70
   128
 71
    -5
 72
    10
 73
    17
  0
VERTEX
  5
11D9
330
11BA
100
AcDbEntity
  8
1
  6
Continuous
 62
     7
100
AcDbFaceRecord
 10
0.0
 20
0.0
 30
0.0
 70
   128
 71
   -10
 72
     4
 73
    16
  0
VERTEX
  5
11DA
330
11BA
100
AcDbEntity
  8
1
  6
Continuous
 62
     7
100
AcDbFaceRecord
 10
0.0
 20
0.0
 30
0.0
 70
   128
 71
    -4
 72
    11
 73
    15
  0
VERTEX
  5
11DB
330
11BA
100
AcDbEntity
  8
1
  6
Continuous
 62
     7
100
AcDbFaceRecord
 10
0.0
 20
0.0
 30
0.0
 70
   128
 71
    -8
 72
    12
 73
    20
 74
   -13
  0
SEQEND
  5
11DC
330
11BA
100
AcDbEntity
  8
1
  6
Continuous
 62
     7
  0
3DFACE
  5
11DD
330
113C
100
AcDbEntity
  8
1
  6
Continuous
 62
     7
100
AcDbFace
 10
15.35376389726958
 20
4.847789842129529
 30
12.121909
 11
15.35827589726958
 21
4.80830484212953
 31
12.121909
 12
15.33840589726958
 22
4.826034842129544
 32
12.121909
 13
15.33840589726958
 23
4.826034842129544
 33
12.121909
 70
     1
  0
3DFACE
  5
11DE
330
113C
100
AcDbEntity
  8
1
  6
Continuous
 62
     7
100
AcDbFace
 10
16.77397289726959
 20
5.034872842129544
 30
12.121909
 11
16.77983089726958
 21
5.152899842129528
 31
12.121909
 12
16.77983089726958
 22
5.049013842129525
 32
12.121909
 13
16.77983089726958
 23
5.049013842129525
 33
12.121909
 70
     1
  0
3DFACE
  5
11DF
330
113C
100
AcDbEntity
  8
1
  6
Continuous
 62
     7
100
AcDbFace
 10
16.77397289726959
 20
5.034872842129544
 30
12.121909
 11
16.75531889726958
 21
5.172383842129534
 31
12.121909
 12
16.77227589726959
 22
5.168555842129535
 32
12.121909
 13
16.77983089726958
 23
5.152899842129528
 33
12.121909
 70
     9
  0
3DFACE
  5
11E0
330
113C
100
AcDbEntity
  8
1
  6
Continuous
 62
     7
100
AcDbFace
 10
16.53912289726958
 20
4.80830484212953
 30
12.121909
 11
16.75531889726958
 21
5.172383842129534
 31
12.121909
 12
16.77397289726959
 22
5.034872842129544
 32
12.121909
 13
16.55326389726958
 23
4.814159842129541
 33
12.121909
 70
     3
  0
3DFACE
  5
11E1
330
113C
100
AcDbEntity
  8
1
  6
Continuous
 62
     7
100
AcDbFace
 10
16.80397289726959
 20
5.022447842129537
 30
12.121909
 11
16.78531889726958
 21
5.210127842129537
 31
12.121909
 12
16.80983089726958
 22
5.190643842129532
 32
12.121909
 13
16.80983089726958
 23
5.036588842129532
 33
12.121909
 70
     1
  0
3DFACE
  5
11E2
330
113C
100
AcDbEntity
  8
1
  6
Continuous
 62
     7
100
AcDbFace
 10
16.55154689726958
 20
4.778304842129529
 30
12.121909
 11
16.78531889726958
 21
5.210127842129537
 31
12.121909
 12
16.80397289726959
 22
5.022447842129537
 32
12.121909
 13
16.56568889726958
 23
4.78416384212953
 33
12.121909
 70
     3
  0
LWPOLYLINE
  5
11E3
330
113C
100
AcDbEntity
  8
2
  6
Continuous
 62
     7
100
AcDbPolyline
 90
        4
 70
     1
 43
0.0
 38
12.121909
 10
16.87233089726958
 20
5.207363842129524
 10
16.87233089726958
 20
5.019863842129524
 10
16.80983089726958
 20
5.019863842129524
 10
16.80983089726958
 20
5.207363842129524
  0
LINE
  5
11E4
330
113C
100
AcDbEntity
  8
3
  6
Continuous
 62
     7
100
AcDbLine
 10
16.86733089726958
 20
4.778304842129529
 30
12.121909
 11
17.11733089726958
 21
4.778304842129529
 31
12.121909
  0
ARC
  5
11E5
330
113C
100
AcDbEntity
  8
1
  6
Continuous
 62
     7
100
AcDbCircle
 10
-16.69731389726958
 20
3.792863842129534
 30
-12.121909
 40
1.0
210
0.0
220
0.0
230
-1.0
100
AcDbArc
 50
82.43646800000004
 51
99.78876600000006
  0
LINE
  5
11E6
330
113C
100
AcDbEntity
  8
1
  6
Continuous
 62
     7
100
AcDbLine
 10
16.81381089726959
 20
5.019863842129524
 30
12.121909
 11
16.57960989726958
 21
4.785659842129533
 31
12.121909
  0
LINE
  5
11E7
330
113C
100
AcDbEntity
  8
1
  6
Continuous
 62
     7
100
AcDbLine
 10
16.86733089726958
 20
5.002671842129544
 30
12.121909
 11
16.65622389726959
 21
4.791564842129531
 31
12.121909
  0
LINE
  5
11E8
330
113C
100
AcDbEntity
  8
1
  6
Continuous
 62
     7
100
AcDbLine
 10
16.86733089726958
 20
4.931958842129532
 30
12.121909
 11
16.72743289726958
 21
4.792060842129544
 31
12.121909
  0
LINE
  5
11E9
330
113C
100
AcDbEntity
  8
1
  6
Continuous
 62
     7
100
AcDbLine
 10
16.86733089726958
 20
4.861249842129524
 30
12.121909
 11
16.79397589726958
 21
4.787895842129543
 31
12.121909
  0
LINE
  5
11EA
330
113C
100
AcDbEntity
  8
1
  6
Continuous
 62
     7
100
AcDbLine
 10
16.86733089726958
 20
4.790537842129523
 30
12.121909
 11
16.85659789726958
 21
4.77980884212954
 31
12.121909
  0
LINE
  5
11EB
330
113C
100
AcDbEntity
  8
DIM
100
AcDbLine
 10
16.86733089726958
 20
7.11109259279123
 30
12.121909
 11
17.11733089726958
 21
7.11109259279123
 31
12.121909
  0
3DFACE
  5
11EC
330
113C
100
AcDbEntity
  8
1
  6
Continuous
 62
     7
100
AcDbFace
 10
15.00483089726958
 20
18.40279584109204
 30
12.121909
 11
15.01727589726958
 21
17.69899384109203
 31
12.121909
 12
15.02483089726958
 22
17.71464984109204
 32
12.121909
 13
15.01897289726958
 23
18.39693784109204
 33
12.121909
 70
     5
  0
3DFACE
  5
11ED
330
113C
100
AcDbEntity
  8
1
  6
Continuous
 62
     7
100
AcDbFace
 10
15.01897289726958
 20
18.39693784109204
 30
12.121909
 11
15.02483089726958
 21
17.71464984109204
 31
12.121909
 12
15.02483089726958
 22
17.71464984109204
 32
12.121909
 13
15.02483089726958
 23
18.38279584109203
 33
12.121909
 70
     1
  0
LINE
  5
11EE
330
113C
100
AcDbEntity
  8
3
  6
Continuous
 62
     7
100
AcDbLine
 10
16.86733089726958
 20
15.35000809043034
 30
12.121909
 11
16.86733089726958
 21
17.68279584109204
 31
12.121909
  0
LINE
  5
11EF
330
113C
100
AcDbEntity
  8
3
  6
Continuous
 62
     7
100
AcDbLine
 10
17.11733089726958
 20
17.68279584109204
 30
12.121909
 11
17.11733089726958
 21
15.35000809043034
 31
12.121909
  0
LINE
  5
11F0
330
113C
100
AcDbEntity
  8
DIM
100
AcDbLine
 10
16.86733089726958
 20
15.35000809043034
 30
12.121909
 11
17.11733089726958
 21
15.35000809043034
 31
12.121909
  0
POLYLINE
  5
11F1
330
113C
100
AcDbEntity
  8
1
  6
Continuous
 62
     7
100
AcDbPolyFaceMesh
 66
     1
 10
0.0
 20
0.0
 30
0.0
 70
    64
 71
    21
 72
    12
  0
VERTEX
  5
11F2
330
11F1
100
AcDbEntity
  8
1
  6
Continuous
 62
     7
100
AcDbVertex
100
AcDbPolyFaceMeshVertex
 10
17.17245289726959
 20
17.58179184109204
 30
12.121909
 70
   192
  0
VERTEX
  5
11F3
330
11F1
100
AcDbEntity
  8
1
  6
Continuous
 62
     7
100
AcDbVertex
100
AcDbPolyFaceMeshVertex
 10
17.24042089726959
 20
17.53172484109204
 30
12.121909
 70
   192
  0
VERTEX
  5
11F4
330
11F1
100
AcDbEntity
  8
1
  6
Continuous
 62
     7
100
AcDbVertex
100
AcDbPolyFaceMeshVertex
 10
17.81733089726958
 20
17.93279584109204
 30
12.121909
 70
   192
  0
VERTEX
  5
11F5
330
11F1
100
AcDbEntity
  8
1
  6
Continuous
 62
     7
100
AcDbVertex
100
AcDbPolyFaceMeshVertex
 10
16.40483089726958
 20
17.80779584109204
 30
12.121909
 70
   192
  0
VERTEX
  5
11F6
330
11F1
100
AcDbEntity
  8
1
  6
Continuous
 62
     7
100
AcDbVertex
100
AcDbPolyFaceMeshVertex
 10
16.60483089726958
 20
17.80779584109204
 30
12.121909
 70
   192
  0
VERTEX
  5
11F7
330
11F1
100
AcDbEntity
  8
1
  6
Continuous
 62
     7
100
AcDbVertex
100
AcDbPolyFaceMeshVertex
 10
16.80483089726958
 20
17.74529584109204
 30
12.121909
 70
   192
  0
VERTEX
  5
11F8
330
11F1
100
AcDbEntity
  8
1
  6
Continuous
 62
     7
100
AcDbVertex
100
AcDbPolyFaceMeshVertex
 10
17.61152989726958
 20
17.79272684109203
 30
12.121909
 70
   192
  0
VERTEX
  5
11F9
330
11F1
100
AcDbEntity
  8
1
  6
Continuous
 62
     7
100
AcDbVertex
100
AcDbPolyFaceMeshVertex
 10
17.24233089726958
 20
17.74529584109204
 30
12.121909
 70
   192
  0
VERTEX
  5
11FA
330
11F1
100
AcDbEntity
  8
1
  6
Continuous
 62
     7
100
AcDbVertex
100
AcDbPolyFaceMeshVertex
 10
16.70483089726958
 20
17.80779584109204
 30
12.121909
 70
   192
  0
VERTEX
  5
11FB
330
11F1
100
AcDbEntity
  8
1
  6
Continuous
 62
     7
100
AcDbVertex
100
AcDbPolyFaceMeshVertex
 10
16.50483089726958
 20
17.80779584109204
 30
12.121909
 70
   192
  0
VERTEX
  5
11FC
330
11F1
100
AcDbEntity
  8
1
  6
Continuous
 62
     7
100
AcDbVertex
100
AcDbPolyFaceMeshVertex
 10
16.30483089726958
 20
17.80779584109204
 30
12.121909
 70
   192
  0
VERTEX
  5
11FD
330
11F1
100
AcDbEntity
  8
1
  6
Continuous
 62
     7
100
AcDbVertex
100
AcDbPolyFaceMeshVertex
 10
17.24140189726958
 20
17.53364584109204
 30
12.121909
 70
   192
  0
VERTEX
  5
11FE
330
11F1
100
AcDbEntity
  8
1
  6
Continuous
 62
     7
100
AcDbVertex
100
AcDbPolyFaceMeshVertex
 10
17.25739889726959
 20
17.43859584109204
 30
12.121909
 70
   192
  0
VERTEX
  5
11FF
330
11F1
100
AcDbEntity
  8
1
  6
Continuous
 62
     7
100
AcDbVertex
100
AcDbPolyFaceMeshVertex
 10
16.30483089726958
 20
17.93279584109204
 30
12.121909
 70
   192
  0
VERTEX
  5
1200
330
11F1
100
AcDbEntity
  8
1
  6
Continuous
 62
     7
100
AcDbVertex
100
AcDbPolyFaceMeshVertex
 10
16.45483089726958
 20
17.68279584109204
 30
12.121909
 70
   192
  0
VERTEX
  5
1201
330
11F1
100
AcDbEntity
  8
1
  6
Continuous
 62
     7
100
AcDbVertex
100
AcDbPolyFaceMeshVertex
 10
16.55483089726958
 20
17.68279584109204
 30
12.121909
 70
   192
  0
VERTEX
  5
1202
330
11F1
100
AcDbEntity
  8
1
  6
Continuous
 62
     7
100
AcDbVertex
100
AcDbPolyFaceMeshVertex
 10
16.65483089726958
 20
17.68279584109204
 30
12.121909
 70
   192
  0
VERTEX
  5
1203
330
11F1
100
AcDbEntity
  8
1
  6
Continuous
 62
     7
100
AcDbVertex
100
AcDbPolyFaceMeshVertex
 10
16.75483089726958
 20
17.68279584109204
 30
12.121909
 70
   192
  0
VERTEX
  5
1204
330
11F1
100
AcDbEntity
  8
1
  6
Continuous
 62
     7
100
AcDbVertex
100
AcDbPolyFaceMeshVertex
 10
17.11737389726958
 20
17.41272884109203
 30
12.121909
 70
   192
  0
VERTEX
  5
1205
330
11F1
100
AcDbEntity
  8
1
  6
Continuous
 62
     7
100
AcDbVertex
100
AcDbPolyFaceMeshVertex
 10
17.11733089726958
 20
17.23279584109204
 30
12.121909
 70
   192
  0
VERTEX
  5
1206
330
11F1
100
AcDbEntity
  8
1
  6
Continuous
 62
     7
100
AcDbVertex
100
AcDbPolyFaceMeshVertex
 10
17.42333589726959
 20
17.62678984109203
 30
12.121909
 70
   192
  0
VERTEX
  5
1207
330
11F1
100
AcDbEntity
  8
1
  6
Continuous
 62
     7
100
AcDbFaceRecord
 10
0.0
 20
0.0
 30
0.0
 70
   128
 71
    -1
 72
     2
 73
   -12
 74
     8
  0
VERTEX
  5
1208
330
11F1
100
AcDbEntity
  8
1
  6
Continuous
 62
     7
100
AcDbFaceRecord
 10
0.0
 20
0.0
 30
0.0
 70
   128
 71
    -2
 72
     1
 73
    19
  0
VERTEX
  5
1209
330
11F1
100
AcDbEntity
  8
1
  6
Continuous
 62
     7
100
AcDbFaceRecord
 10
0.0
 20
0.0
 30
0.0
 70
   128
 71
    -3
 72
    -4
 73
   -10
 74
    -5
  0
VERTEX
  5
120A
330
11F1
100
AcDbEntity
  8
1
  6
Continuous
 62
     7
100
AcDbFaceRecord
 10
0.0
 20
0.0
 30
0.0
 70
   128
 71
    -4
 72
     3
 73
    14
 74
   -11
  0
VERTEX
  5
120B
330
11F1
100
AcDbEntity
  8
1
  6
Continuous
 62
     7
100
AcDbFaceRecord
 10
0.0
 20
0.0
 30
0.0
 70
   128
 71
    -3
 72
    -5
 73
     9
 74
    -6
  0
VERTEX
  5
120C
330
11F1
100
AcDbEntity
  8
1
  6
Continuous
 62
     7
100
AcDbFaceRecord
 10
0.0
 20
0.0
 30
0.0
 70
   128
 71
    -3
 72
     6
 73
    -8
 74
     7
  0
VERTEX
  5
120D
330
11F1
100
AcDbEntity
  8
1
  6
Continuous
 62
     7
100
AcDbFaceRecord
 10
0.0
 20
0.0
 30
0.0
 70
   128
 71
    -7
 72
    -8
 73
    13
 74
    21
  0
VERTEX
  5
120E
330
11F1
100
AcDbEntity
  8
1
  6
Continuous
 62
     7
100
AcDbFaceRecord
 10
0.0
 20
0.0
 30
0.0
 70
   128
 71
    -9
 72
     5
 73
    18
  0
VERTEX
  5
120F
330
11F1
100
AcDbEntity
  8
1
  6
Continuous
 62
     7
100
AcDbFaceRecord
 10
0.0
 20
0.0
 30
0.0
 70
   128
 71
    -5
 72
    10
 73
    17
  0
VERTEX
  5
1210
330
11F1
100
AcDbEntity
  8
1
  6
Continuous
 62
     7
100
AcDbFaceRecord
 10
0.0
 20
0.0
 30
0.0
 70
   128
 71
   -10
 72
     4
 73
    16
  0
VERTEX
  5
1211
330
11F1
100
AcDbEntity
  8
1
  6
Continuous
 62
     7
100
AcDbFaceRecord
 10
0.0
 20
0.0
 30
0.0
 70
   128
 71
    -4
 72
    11
 73
    15
  0
VERTEX
  5
1212
330
11F1
100
AcDbEntity
  8
1
  6
Continuous
 62
     7
100
AcDbFaceRecord
 10
0.0
 20
0.0
 30
0.0
 70
   128
 71
    -8
 72
    12
 73
    20
 74
   -13
  0
SEQEND
  5
1213
330
11F1
100
AcDbEntity
  8
1
  6
Continuous
 62
     7
  0
3DFACE
  5
1214
330
113C
100
AcDbEntity
  8
1
  6
Continuous
 62
     7
100
AcDbFace
 10
15.09144189726958
 20
17.71940684109203
 30
12.121909
 11
15.17983089726958
 21
17.62279584109204
 31
12.121909
 12
16.55154689726958
 22
17.68279584109204
 32
12.121909
 13
15.17983089726958
 23
17.68279584109204
 33
12.121909
 70
     3
  0
3DFACE
  5
1215
330
113C
100
AcDbEntity
  8
1
  6
Continuous
 62
     7
100
AcDbFace
 10
16.55154689726958
 20
17.68279584109204
 30
12.121909
 11
15.17983089726958
 21
17.62279584109204
 31
12.121909
 12
16.78531889726958
 22
17.25097284109203
 32
12.121909
 13
16.55154689726958
 23
17.68279584109204
 33
12.121909
 70
     5
  0
3DFACE
  5
1216
330
113C
100
AcDbEntity
  8
1
  6
Continuous
 62
     7
100
AcDbFace
 10
15.35827589726958
 20
17.65279584109204
 30
12.121909
 11
15.35376389726958
 21
17.61331084109204
 31
12.121909
 12
16.75531889726958
 22
17.28871684109204
 32
12.121909
 13
16.53912289726958
 23
17.65279584109204
 33
12.121909
 70
     5
  0
3DFACE
  5
1217
330
113C
100
AcDbEntity
  8
1
  6
Continuous
 62
     7
100
AcDbFace
 10
15.35376389726958
 20
17.61331084109204
 30
12.121909
 11
15.35827589726958
 21
17.65279584109204
 31
12.121909
 12
15.33840589726958
 22
17.63506584109203
 32
12.121909
 13
15.33840589726958
 23
17.63506584109203
 33
12.121909
 70
     1
  0
LWPOLYLINE
  5
1218
330
113C
100
AcDbEntity
  8
2
  6
Continuous
 62
     7
100
AcDbPolyline
 90
        4
 70
     1
 43
0.0
 38
12.121909
 10
16.87233089726958
 20
17.25373684109205
 10
16.87233089726958
 20
17.44123684109205
 10
16.80983089726958
 20
17.44123684109205
 10
16.80983089726958
 20
17.25373684109205
  0
3DFACE
  5
1219
330
113C
100
AcDbEntity
  8
1
  6
Continuous
 62
     7
100
AcDbFace
 10
16.55154689726958
 20
17.68279584109204
 30
12.121909
 11
16.78531889726958
 21
17.25097284109203
 31
12.121909
 12
16.80397289726959
 22
17.43865284109203
 32
12.121909
 13
16.56568889726958
 23
17.67693684109204
 33
12.121909
 70
     3
  0
3DFACE
  5
121A
330
113C
100
AcDbEntity
  8
1
  6
Continuous
 62
     7
100
AcDbFace
 10
16.80397289726959
 20
17.43865284109203
 30
12.121909
 11
16.78531889726958
 21
17.25097284109203
 31
12.121909
 12
16.80983089726958
 22
17.27045684109204
 32
12.121909
 13
16.80983089726958
 23
17.42451184109204
 33
12.121909
 70
     1
  0
3DFACE
  5
121B
330
113C
100
AcDbEntity
  8
1
  6
Continuous
 62
     7
100
AcDbFace
 10
16.53912289726958
 20
17.65279584109204
 30
12.121909
 11
16.75531889726958
 21
17.28871684109204
 31
12.121909
 12
16.77397289726959
 22
17.42622784109203
 32
12.121909
 13
16.55326389726958
 23
17.64694084109203
 33
12.121909
 70
     3
  0
3DFACE
  5
121C
330
113C
100
AcDbEntity
  8
1
  6
Continuous
 62
     7
100
AcDbFace
 10
16.77397289726959
 20
17.42622784109203
 30
12.121909
 11
16.75531889726958
 21
17.28871684109204
 31
12.121909
 12
16.77227589726959
 22
17.29254484109204
 32
12.121909
 13
16.77983089726958
 23
17.30820084109204
 33
12.121909
 70
     9
  0
3DFACE
  5
121D
330
113C
100
AcDbEntity
  8
1
  6
Continuous
 62
     7
100
AcDbFace
 10
16.77397289726959
 20
17.42622784109203
 30
12.121909
 11
16.77983089726958
 21
17.30820084109204
 31
12.121909
 12
16.77983089726958
 22
17.41208684109205
 32
12.121909
 13
16.77983089726958
 23
17.41208684109205
 33
12.121909
 70
     1
  0
LINE
  5
121E
330
113C
100
AcDbEntity
  8
3
  6
Continuous
 62
     7
100
AcDbLine
 10
16.86733089726958
 20
17.68279584109204
 30
12.121909
 11
17.11733089726958
 21
17.68279584109204
 31
12.121909
  0
LINE
  5
121F
330
113C
100
AcDbEntity
  8
1
  6
Continuous
 62
     7
100
AcDbLine
 10
16.86733089726958
 20
17.45842884109203
 30
12.121909
 11
16.65622389726959
 21
17.66953584109204
 31
12.121909
  0
LINE
  5
1220
330
113C
100
AcDbEntity
  8
1
  6
Continuous
 62
     7
100
AcDbLine
 10
16.81381089726959
 20
17.44123684109205
 30
12.121909
 11
16.57960989726958
 21
17.67544084109204
 31
12.121909
  0
ARC
  5
1221
330
113C
100
AcDbEntity
  8
1
  6
Continuous
 62
     7
100
AcDbCircle
 10
-16.69731389726958
 20
18.66823684109204
 30
-12.121909
 40
1.0
210
0.0
220
0.0
230
-1.0
100
AcDbArc
 50
260.211234
 51
277.563532
  0
LINE
  5
1222
330
113C
100
AcDbEntity
  8
1
  6
Continuous
 62
     7
100
AcDbLine
 10
16.86733089726958
 20
17.67056284109205
 30
12.121909
 11
16.85659789726958
 21
17.68129184109203
 31
12.121909
  0
LINE
  5
1223
330
113C
100
AcDbEntity
  8
1
  6
Continuous
 62
     7
100
AcDbLine
 10
16.86733089726958
 20
17.59985084109205
 30
12.121909
 11
16.79397589726958
 21
17.67320484109203
 31
12.121909
  0
LINE
  5
1224
330
113C
100
AcDbEntity
  8
1
  6
Continuous
 62
     7
100
AcDbLine
 10
16.86733089726958
 20
17.52914184109204
 30
12.121909
 11
16.72743289726958
 21
17.66903984109203
 31
12.121909
  0
LINE
  5
1225
330
113C
100
AcDbEntity
  8
2
  6
Continuous
 62
     7
100
AcDbLine
 10
15.17670889726958
 20
18.61628384109204
 30
12.121909
 11
15.11019689726958
 21
18.68279584109204
 31
12.121909
  0
LINE
  5
1226
330
113C
100
AcDbEntity
  8
2
  6
Continuous
 62
     7
100
AcDbLine
 10
15.17670889726958
 20
18.54557484109205
 30
12.121909
 11
15.03948789726958
 21
18.68279584109204
 31
12.121909
  0
LINE
  5
1227
330
113C
100
AcDbEntity
  8
2
  6
Continuous
 62
     7
100
AcDbLine
 10
15.17670889726958
 20
18.47486284109205
 30
12.121909
 11
14.96877589726958
 21
18.68279584109204
 31
12.121909
  0
LINE
  5
1228
330
113C
100
AcDbEntity
  8
2
  6
Continuous
 62
     7
100
AcDbLine
 10
15.14311789726958
 20
18.43774384109204
 30
12.121909
 11
14.89806689726959
 21
18.68279584109204
 31
12.121909
  0
ENDBLK
  5
122A
330
113C
100
AcDbEntity
  8
0
100
AcDbBlockEnd
  0
BLOCK
  5
13EC
330
13EA
100
AcDbEntity
  8
0
100
AcDbBlockBegin
  2
A$C612D7DA8
 70
     0
 10
0.0
 20
0.0
 30
0.0
  3
A$C612D7DA8
  1

  0
TEXT
  5
13EB
330
13EA
100
AcDbEntity
  8
DIM
100
AcDbText
 10
0.0000000000580762
 20
0.0000000052588476
 30
0.0
 40
0.125
  1
TIM CORE
 41
0.8
  7
ADESK1
100
AcDbText
  0
ENDBLK
  5
13ED
330
13EA
100
AcDbEntity
  8
0
100
AcDbBlockEnd
  0
BLOCK
  5
162E
330
1624
100
AcDbEntity
  8
0
100
AcDbBlockBegin
  2
*D7
 70
     1
 10
0.0
 20
0.0
 30
0.0
  3
*D7
  1

  0
LINE
  5
1B05
330
1624
100
AcDbEntity
  8
DIM
 62
     0
370
    -2
100
AcDbLine
 10
8.394967086336762
 20
11.48042312743919
 30
0.0
 11
8.394967086336762
 21
11.79189741123652
 31
0.0
  0
LINE
  5
1B06
330
1624
100
AcDbEntity
  8
DIM
 62
     0
370
    -2
100
AcDbLine
 10
8.894967086336768
 20
11.48042312743927
 30
0.0
 11
8.894967086336768
 21
11.79189741123652
 31
0.0
  0
LINE
  5
1B07
330
1624
100
AcDbEntity
  8
DIM
 62
     0
370
    -2
100
AcDbLine
 10
8.394967086336762
 20
11.66689741123652
 30
0.0
 11
8.894967086336768
 21
11.66689741123652
 31
0.0
  0
INSERT
  5
1B08
330
1624
100
AcDbEntity
  8
DIM
 62
     0
370
    -2
100
AcDbBlockReference
  2
_ARCHTICK
 10
8.394967086336762
 20
11.66689741123652
 30
0.0
 41
0.125
 42
0.125
 43
0.125
 50
180.0
  0
INSERT
  5
1B09
330
1624
100
AcDbEntity
  8
DIM
 62
     0
370
    -2
100
AcDbBlockReference
  2
_ARCHTICK
 10
8.894967086336768
 20
11.66689741123652
 30
0.0
 41
0.125
 42
0.125
 43
0.125
  0
MTEXT
  5
1B0A
330
1624
100
AcDbEntity
  8
DIM
 62
     0
100
AcDbMText
 10
8.644967086336766
 20
11.87523074456986
 30
0.0
 40
0.125
 41
0.0
 71
     5
 72
     1
  1
\A1;{\H1.000000x;\S1/2;}"
 73
     1
 44
1.0
1001
ACAD
1000
MTEXTBEGIN
1070
    73
1070
     1
1070
    44
1040
1.0
1070
    74
1070
     0
1000
MTEXTEND
  0
POINT
  5
1B0B
330
1624
100
AcDbEntity
  8
Defpoints
 62
     0
100
AcDbPoint
 10
8.394967086336762
 20
11.35542312743919
 30
12.12190899999997
  0
POINT
  5
1B0C
330
1624
100
AcDbEntity
  8
Defpoints
 62
     0
100
AcDbPoint
 10
8.894967086336768
 20
11.35542312743927
 30
12.12190899999997
  0
POINT
  5
1B0D
330
1624
100
AcDbEntity
  8
Defpoints
 62
     0
100
AcDbPoint
 10
8.894967086336768
 20
11.66689741123652
 30
0.0
  0
ENDBLK
  5
162F
330
1624
100
AcDbEntity
  8
0
100
AcDbBlockEnd
  0
BLOCK
  5
1664
330
1663
100
AcDbEntity
  8
0
100
AcDbBlockBegin
  2
fordelte
 70
     0
 10
0.0
 20
0.0
 30
0.0
  3
fordelte
  1

  0
LINE
  5
1666
330
1663
100
AcDbEntity
  8
3
  6
Continuous
 62
     7
100
AcDbLine
 10
10.13510882018756
 20
11.73724802466661
 30
12.121909
 11
10.13510882018756
 21
9.393009062819469
 31
12.121909
  0
LINE
  5
1667
330
1663
100
AcDbEntity
  8
3
  6
Continuous
 62
     7
100
AcDbLine
 10
10.38510882018756
 20
9.393009062819469
 30
12.121909
 11
10.38510882018756
 21
11.73724802466661
 31
12.121909
  0
3DFACE
  5
1668
330
1663
100
AcDbEntity
  8
3
  6
Continuous
 62
     7
100
AcDbFace
 10
7.630967086336758
 20
8.630742687786874
 30
12.121909
 11
7.380967086336758
 21
11.13074268778687
 31
12.121909
 12
7.380967086336758
 22
11.75574268778687
 32
12.121909
 13
7.630967086336758
 23
11.12358168778688
 33
12.121909
 70
     5
  0
3DFACE
  5
1669
330
1663
100
AcDbEntity
  8
3
  6
Continuous
 62
     7
100
AcDbFace
 10
7.380967086336758
 20
11.13074268778687
 30
12.121909
 11
7.630967086336758
 21
8.630742687786874
 31
12.121909
 12
7.380967086336758
 22
8.630742687786874
 32
12.121909
 13
7.380967086336758
 23
8.630742687786874
 33
12.121909
 70
     1
  0
LINE
  5
166A
330
1663
100
AcDbEntity
  8
5
  6
HIDDEN
 62
     7
100
AcDbLine
 10
7.630967086336758
 20
9.685194235681652
 30
12.121909
 11
9.498980130786625
 21
9.685194235681652
 31
12.121909
  0
LINE
  5
166B
330
1663
100
AcDbEntity
  8
5
  6
Continuous
 62
     7
100
AcDbLine
 10
7.630967086336758
 20
9.935194235681652
 30
12.121909
 11
10.13510882018756
 21
9.935194235681651
 31
12.121909
  0
LINE
  5
166C
330
1663
100
AcDbEntity
  8
0
  6
Continuous
 62
     7
100
AcDbLine
 10
8.44609208633676
 20
9.441406562819391
 30
12.121909
 11
10.05719882630435
 21
9.814530976535241
 31
12.121909
  0
LINE
  5
166D
330
1663
100
AcDbEntity
  8
0
  6
Continuous
 62
     7
100
AcDbLine
 10
9.822608820187559
 20
9.381196562819393
 30
12.121909
 11
8.526372086336754
 21
9.381196562819393
 31
12.121909
  0
LINE
  5
166E
330
1663
100
AcDbEntity
  8
0
  6
Continuous
 62
     7
100
AcDbLine
 10
9.810147815887409
 20
9.411301649220742
 30
12.121909
 11
8.625162101432755
 21
9.411301649220742
 31
12.121909
  0
LINE
  5
166F
330
1663
100
AcDbEntity
  8
0
  6
Continuous
 62
     7
100
AcDbLine
 10
8.620633790422557
 20
9.450924581897091
 30
12.121909
 11
10.027094105177
 21
9.776653887901044
 31
12.121909
  0
LINE
  5
1670
330
1663
100
AcDbEntity
  8
5
  6
HIDDEN
 62
     7
100
AcDbLine
 10
7.630967086336758
 20
10.18519423568165
 30
12.121909
 11
10.13510882018756
 21
10.18519423568165
 31
12.121909
  0
LINE
  5
1671
330
1663
100
AcDbEntity
  8
5
  6
HIDDEN
 62
     7
100
AcDbLine
 10
7.630967086336758
 20
10.43519423568165
 30
12.121909
 11
10.13510882018756
 21
10.43519423568165
 31
12.121909
  0
LINE
  5
1672
330
1663
100
AcDbEntity
  8
5
  6
Continuous
 62
     7
100
AcDbLine
 10
7.630967086336758
 20
10.71353043844857
 30
12.121909
 11
10.13510882018756
 21
10.71353043844857
 31
12.121909
  0
LINE
  5
1673
330
1663
100
AcDbEntity
  8
5
  6
HIDDEN
 62
     7
100
AcDbLine
 10
7.630967086336758
 20
10.96353043844857
 30
12.121909
 11
10.13510882018756
 21
10.96353043844858
 31
12.121909
  0
LINE
  5
1674
330
1663
100
AcDbEntity
  8
0
  6
Continuous
 62
     7
100
AcDbLine
 10
8.353268336336759
 20
9.362525684264994
 30
12.121909
 11
8.353268336336759
 21
8.678746562819391
 31
12.121909
  0
LINE
  5
1675
330
1663
100
AcDbEntity
  8
0
  6
Continuous
 62
     7
100
AcDbLine
 10
7.70900881315851
 20
9.270701172099439
 30
12.121909
 11
8.44609208633676
 21
9.441406562819391
 31
12.121909
  0
LINE
  5
1676
330
1663
100
AcDbEntity
  8
0
  6
Continuous
 62
     7
100
AcDbLine
 10
7.739114519321459
 20
9.246769519355094
 30
12.121909
 11
8.327471838900654
 21
9.383030603774091
 31
12.121909
  0
ARC
  5
1677
330
1663
100
AcDbEntity
  8
0
  6
Continuous
 62
     7
100
AcDbCircle
 10
8.508804744489657
 20
9.256995295041143
 30
12.121909
 40
0.1254375
100
AcDbArc
 50
81.94934348029986
 51
180.5646799282999
  0
LWPOLYLINE
  5
1678
330
1663
100
AcDbEntity
  8
2
  6
Continuous
 62
     7
100
AcDbPolyline
 90
        4
 70
     1
 43
0.0
 38
12.121909
 10
7.693467086336758
 20
9.257589687786872
 10
7.693467086336758
 20
8.882589687786872
 10
7.630967086336758
 20
8.882589687786872
 10
7.630967086336758
 20
9.257589687786872
  0
LINE
  5
1679
330
1663
100
AcDbEntity
  8
1
  6
Continuous
 62
     7
100
AcDbLine
 10
7.77641208633676
 20
8.79779868778689
 30
12.121909
 11
7.630967086336758
 21
8.652353687786881
 31
12.121909
  0
LINE
  5
167A
330
1663
100
AcDbEntity
  8
1
  6
Continuous
 62
     7
100
AcDbLine
 10
7.741057086336757
 20
8.833152687786874
 30
12.121909
 11
7.630967086336758
 21
8.723065687786881
 31
12.121909
  0
LINE
  5
167B
330
1663
100
AcDbEntity
  8
1
  6
Continuous
 62
     7
100
AcDbLine
 10
7.705699086336755
 20
8.868510687786891
 30
12.121909
 11
7.630967086336758
 21
8.793774687786889
 31
12.121909
  0
ARC
  5
167C
330
1663
100
AcDbEntity
  8
1
  6
Continuous
 62
     7
100
AcDbCircle
 10
7.803163086336757
 20
7.645680687786875
 30
12.121909
 40
1.0
100
AcDbArc
 50
82.27343300000006
 51
99.91552700000005
  0
LINE
  5
167D
330
1663
100
AcDbEntity
  8
0
  6
Continuous
 62
     7
100
AcDbLine
 10
8.383373336336758
 20
9.255759062819389
 30
12.121909
 11
8.383373336336758
 21
8.648641562819392
 31
12.121909
  0
LINE
  5
167E
330
1663
100
AcDbEntity
  8
0
  6
Continuous
 62
     7
100
AcDbLine
 10
7.950931999788954
 20
8.664555334456345
 30
12.121909
 11
7.729450858074057
 21
8.886036476171241
 31
12.121909
  0
LINE
  5
167F
330
1663
100
AcDbEntity
  8
0
  6
Continuous
 62
     7
100
AcDbLine
 10
7.938463719511707
 20
8.634449929744793
 30
12.121909
 11
7.699345453262159
 21
8.873568195893994
 31
12.121909
  0
LINE
  5
1680
330
1663
100
AcDbEntity
  8
0
  6
Continuous
 62
     7
100
AcDbLine
 10
8.333198336336755
 20
8.65867656281939
 30
12.121909
 11
7.965124610071859
 21
8.65867656281939
 31
12.121909
  0
LINE
  5
1681
330
1663
100
AcDbEntity
  8
0
  6
Continuous
 62
     7
100
AcDbLine
 10
8.363303336336761
 20
8.628571562819391
 30
12.121909
 11
7.95265535258631
 21
8.628571562819391
 31
12.121909
  0
ARC
  5
1682
330
1663
100
AcDbEntity
  8
0
  6
Continuous
 62
     7
100
AcDbCircle
 10
7.965124610071859
 20
8.678747944739242
 30
12.121909
 40
0.02007138191985
100
AcDbArc
 50
225.0
 51
270.0
  0
ARC
  5
1683
330
1663
100
AcDbEntity
  8
0
  6
Continuous
 62
     7
100
AcDbCircle
 10
7.95265535258631
 20
8.648641562819392
 30
12.121909
 40
0.02007
100
AcDbArc
 50
225.0
 51
270.0
  0
LINE
  5
1684
330
1663
100
AcDbEntity
  8
1
  6
Continuous
 62
     7
100
AcDbLine
 10
7.811766086336765
 20
8.76244368778688
 30
12.121909
 11
7.688294086336759
 21
8.638971687786888
 31
12.121909
  0
LINE
  5
1685
330
1663
100
AcDbEntity
  8
1
  6
Continuous
 62
     7
100
AcDbLine
 10
7.84712408633676
 20
8.727085687786878
 30
12.121909
 11
7.76458908633676
 21
8.644553687786878
 31
12.121909
  0
LINE
  5
1686
330
1663
100
AcDbEntity
  8
1
  6
Continuous
 62
     7
100
AcDbLine
 10
7.882479086336763
 20
8.69173168778688
 30
12.121909
 11
7.835435086336763
 21
8.644687687786881
 31
12.121909
  0
ARC
  5
1687
330
1663
100
AcDbEntity
  8
0
  6
Continuous
 62
     7
100
AcDbCircle
 10
8.363303336336761
 20
8.648641562819392
 30
12.121909
 40
0.02007
100
AcDbArc
 50
270.0
 51
0.0
  0
ARC
  5
1688
330
1663
100
AcDbEntity
  8
0
  6
Continuous
 62
     7
100
AcDbCircle
 10
8.333198336336755
 20
8.678746562819391
 30
12.121909
 40
0.02007
100
AcDbArc
 50
270.0
 51
0.0
  0
ARC
  5
1689
330
1663
100
AcDbEntity
  8
0
  6
Continuous
 62
     7
100
AcDbCircle
 10
7.713537086336755
 20
8.887759828968594
 30
12.121909
 40
0.02007
100
AcDbArc
 50
179.9999999999
 51
225.0
  0
ARC
  5
168A
330
1663
100
AcDbEntity
  8
0
  6
Continuous
 62
     7
100
AcDbCircle
 10
7.743643468457305
 20
8.900229086554492
 30
12.121909
 40
0.02007138212055
100
AcDbArc
 50
180.0
 51
225.0
  0
ARC
  5
168B
330
1663
100
AcDbEntity
  8
0
  6
Continuous
 62
     7
100
AcDbCircle
 10
7.743642086336761
 20
9.227216871472041
 30
12.121909
 40
0.02007
100
AcDbArc
 50
103.0375036321999
 51
180.0016536357001
  0
ARC
  5
168C
330
1663
100
AcDbEntity
  8
0
  6
Continuous
 62
     7
100
AcDbCircle
 10
7.713537086336755
 20
9.251148687786891
 30
12.121909
 40
0.02007
100
AcDbArc
 50
103.0395730453999
 51
180.0
  0
LINE
  5
168D
330
1663
100
AcDbEntity
  8
0
  6
Continuous
 62
     7
100
AcDbLine
 10
7.693467086336758
 20
8.887759828968594
 30
12.121909
 11
7.693467086336758
 21
9.251148687786891
 31
12.121909
  0
LINE
  5
168E
330
1663
100
AcDbEntity
  8
0
  6
Continuous
 62
     7
100
AcDbLine
 10
7.723572086336757
 20
8.900229086554492
 30
12.121909
 11
7.723572086336757
 21
9.227216292251842
 31
12.121909
  0
LINE
  5
168F
330
1663
100
AcDbEntity
  8
5
  6
HIDDEN
 62
     7
100
AcDbLine
 10
7.630967086336758
 20
9.435194235681652
 30
12.121909
 11
8.443467086336758
 21
9.435194235681652
 31
12.121909
  0
ARC
  5
1690
330
1663
100
AcDbEntity
  8
0
  6
Continuous
 62
     7
100
AcDbCircle
 10
8.332220692116356
 20
9.362525684264994
 30
12.121909
 40
0.0210476442204
100
AcDbArc
 50
0.0
 51
103.0395730453999
  0
ARC
  5
1691
330
1663
100
AcDbEntity
  8
0
  6
Continuous
 62
     7
100
AcDbCircle
 10
8.625162101432755
 20
9.431371874807545
 30
12.121909
 40
0.0200702255868
100
AcDbArc
 50
103.0395345179999
 51
270.0
  0
ARC
  5
1692
330
1663
100
AcDbEntity
  8
1
  6
Continuous
 62
     7
100
AcDbCircle
 10
-9.965091820187565
 20
8.407568062819475
 30
-12.121909
 40
1.0
210
0.0
220
0.0
230
-1.0
100
AcDbArc
 50
83.43336211487102
 51
99.78876600000011
  0
LINE
  5
1693
330
1663
100
AcDbEntity
  8
0
  6
Continuous
 62
     7
100
AcDbLine
 10
10.07591871951171
 20
9.626193195893993
 30
12.121909
 11
9.836800453262155
 21
9.387074929744791
 31
12.121909
  0
LINE
  5
1694
330
1663
100
AcDbEntity
  8
0
  6
Continuous
 62
     7
100
AcDbLine
 10
10.0458143832266
 20
9.638660141817293
 30
12.121909
 11
9.824330586752457
 21
9.41717634524279
 31
12.121909
  0
ARC
  5
1695
330
1663
100
AcDbEntity
  8
0
  6
Continuous
 62
     7
100
AcDbCircle
 10
9.810147815887409
 20
9.431359116208192
 30
12.121909
 40
0.0200574668871
100
AcDbArc
 50
270.0
 51
314.9999999999999
  0
ARC
  5
1696
330
1663
100
AcDbEntity
  8
0
  6
Continuous
 62
     7
100
AcDbCircle
 10
9.822608820187559
 20
9.401266562819394
 30
12.121909
 40
0.02007
100
AcDbArc
 50
270.0
 51
314.9999999999999
  0
LINE
  5
1697
330
1663
100
AcDbEntity
  8
0
  6
Continuous
 62
     7
100
AcDbLine
 10
10.08179708633676
 20
9.794978489212194
 30
12.121909
 11
10.08179708633676
 21
9.640384828968592
 31
12.121909
  0
LINE
  5
1698
330
1663
100
AcDbEntity
  8
0
  6
Continuous
 62
     7
100
AcDbLine
 10
10.05169217775561
 20
9.757101549597742
 30
12.121909
 11
10.05169217775561
 21
9.652850393072391
 31
12.121909
  0
LWPOLYLINE
  5
1699
330
1663
100
AcDbEntity
  8
0
100
AcDbPolyline
 90
        4
 70
     1
 43
0.0
 38
12.121909
 10
10.08072384520028
 20
9.822068062819464
 10
10.13712075507076
 20
9.822068062819464
 10
10.13712075507076
 20
9.634560446423929
 10
10.08072384520028
 20
9.634560446423929
  0
LINE
  5
169A
330
1663
100
AcDbEntity
  8
3
  6
Continuous
 62
     7
100
AcDbLine
 10
10.13510882018756
 20
9.393009062819469
 30
12.121909
 11
10.38510882018756
 21
9.393009062819469
 31
12.121909
  0
LINE
  5
169B
330
1663
100
AcDbEntity
  8
1
  6
Continuous
 62
     7
100
AcDbLine
 10
10.13510882018756
 20
9.546663062819472
 30
12.121909
 11
9.995210820187564
 21
9.406765062819484
 31
12.121909
  0
LINE
  5
169C
330
1663
100
AcDbEntity
  8
1
  6
Continuous
 62
     7
100
AcDbLine
 10
10.13510882018756
 20
9.475954062819464
 30
12.121909
 11
10.06175382018756
 21
9.402600062819484
 31
12.121909
  0
ARC
  5
169D
330
1663
100
AcDbEntity
  8
0
  6
Continuous
 62
     7
100
AcDbCircle
 10
10.03162413197151
 20
9.652850393072391
 30
12.121909
 40
0.02006804588445
100
AcDbArc
 50
314.9999999999999
 51
0.0
  0
ARC
  5
169E
330
1663
100
AcDbEntity
  8
0
  6
Continuous
 62
     7
100
AcDbCircle
 10
10.06172708633676
 20
9.640384828968592
 30
12.121909
 40
0.02007
100
AcDbArc
 50
315.0000000001
 51
0.0
  0
LINE
  5
169F
330
1663
100
AcDbEntity
  8
1
  6
Continuous
 62
     7
100
AcDbLine
 10
10.13510882018756
 20
9.617376062819484
 30
12.121909
 11
9.924001820187561
 21
9.406269062819472
 31
12.121909
  0
ARC
  5
16A0
330
1663
100
AcDbEntity
  8
0
  6
Continuous
 62
     7
100
AcDbCircle
 10
10.03162233078936
 20
9.757101549597742
 30
12.121909
 40
0.02006984696625
100
AcDbArc
 50
0.0
 51
103.0395345177998
  0
ARC
  5
16A1
330
1663
100
AcDbEntity
  8
0
  6
Continuous
 62
     7
100
AcDbCircle
 10
10.06172708633676
 20
9.794978489212194
 30
12.121909
 40
0.02007
100
AcDbArc
 50
0.0
 51
103.0395345177998
  0
LINE
  5
16A2
330
1663
100
AcDbEntity
  8
0
 62
     7
100
AcDbLine
 10
9.12025518910041
 20
11.73724802466661
 30
12.121909
 11
9.250413581700447
 21
11.62891437890668
 31
12.121909
  0
LINE
  5
16A3
330
1663
100
AcDbEntity
  8
0
 62
     7
100
AcDbLine
 10
9.250413581700447
 20
11.62891437890668
 30
12.121909
 11
8.686393722312166
 21
11.86724819527849
 31
12.121909
  0
LINE
  5
16A4
330
1663
100
AcDbEntity
  8
0
 62
     7
100
AcDbLine
 10
9.12025518910041
 20
11.73724802466661
 30
12.121909
 11
10.86383259408237
 21
11.73724802466661
 31
12.121909
  0
LINE
  5
16A5
330
1663
100
AcDbEntity
  8
5
  6
Continuous
 62
     7
100
AcDbLine
 10
7.630967086336758
 20
11.46353043844857
 30
12.121909
 11
10.13510882018756
 21
11.46353043844857
 31
12.121909
  0
LINE
  5
16A6
330
1663
100
AcDbEntity
  8
5
  6
HIDDEN
 62
     7
100
AcDbLine
 10
7.630967086336758
 20
11.71353043844857
 30
12.121909
 11
10.13510882018756
 21
11.71353043844858
 31
12.121909
  0
LINE
  5
16A7
330
1663
100
AcDbEntity
  8
5
  6
HIDDEN
 62
     7
100
AcDbLine
 10
7.630967086336758
 20
11.21353043844857
 30
12.121909
 11
10.13510882018756
 21
11.21353043844858
 31
12.121909
  0
LINE
  5
16A8
330
1663
100
AcDbEntity
  8
0
 62
     7
100
AcDbLine
 10
6.893456013572396
 20
11.75891480489359
 30
12.121909
 11
8.794858970418138
 21
11.75891480489359
 31
12.121909
  0
3DFACE
  5
16A9
330
1663
100
AcDbEntity
  8
3
  6
Continuous
 62
     7
100
AcDbFace
 10
7.630967086336758
 20
11.12358168778688
 30
12.121909
 11
7.380967086336758
 21
11.75574268778687
 31
12.121909
 12
7.630967086336758
 22
11.75574268778687
 32
12.121909
 13
7.630967086336758
 23
11.13074268778687
 33
12.121909
 70
     1
  0
3DFACE
  5
16AA
330
1663
100
AcDbEntity
  8
3
  6
Continuous
 62
     7
100
AcDbFace
 10
7.630967086336754
 20
11.12358168778688
 30
12.121909
 11
7.380967086336758
 21
11.75574268778687
 31
12.121909
 12
7.630967086336758
 22
11.75574268778687
 32
12.121909
 13
7.630967086336754
 23
11.13074268778687
 33
12.121909
 70
     1
  0
LINE
  5
16AB
330
1663
100
AcDbEntity
  8
0
100
AcDbLine
 10
8.686393722312166
 20
11.86724819527849
 30
12.121909
 11
8.794858970418138
 21
11.75891480489359
 31
12.121909
  0
ENDBLK
  5
1665
330
1663
100
AcDbEntity
  8
0
100
AcDbBlockEnd
  0
ENDSEC
  0
SECTION
  2
ENTITIES
  0
TEXT
  5
19D
330
2
100
AcDbEntity
  8
DIM
  6
Continuous
100
AcDbText
 10
-114.0759806286337
 20
120.8126026985917
 30
0.0
 40
0.1
  1
 
  7
ROMANS
 11
-114.0759806286337
 21
120.8626026985917
 31
0.0
100
AcDbText
 73
     2
  0
TEXT
  5
1A0
330
2
100
AcDbEntity
  8
DIM
  6
Continuous
100
AcDbText
 10
-110.1672806286337
 20
120.8375026985917
 30
0.0
 40
0.1
  1
 
  7
ROMANS
 11
-110.1672806286337
 21
120.8875026985917
 31
0.0
100
AcDbText
 73
     2
  0
TEXT
  5
1A1
330
2
100
AcDbEntity
  8
DIM
  6
Continuous
100
AcDbText
 10
-109.2372806286337
 20
118.0338026985917
 30
0.0
 40
0.125
  1
 
  7
ROMANS
 11
-109.2372806286337
 21
118.0963026985917
 31
0.0
100
AcDbText
 73
     2
  0
TEXT
  5
1A2
330
2
100
AcDbEntity
  8
DIM
  6
Continuous
100
AcDbText
 10
-109.2372806286337
 20
117.8463026985917
 30
0.0
 40
0.125
  1
 
  7
ROMANS
 11
-109.2372806286337
 21
117.9088026985917
 31
0.0
100
AcDbText
 73
     2
  0
TEXT
  5
1A3
330
2
100
AcDbEntity
  8
DIM
  6
Continuous
100
AcDbText
 10
-109.2372806286337
 20
117.6588026985917
 30
0.0
 40
0.125
  1
 
  7
ROMANS
 11
-109.2372806286337
 21
117.7213026985917
 31
0.0
100
AcDbText
 73
     2
  0
TEXT
  5
1A4
330
2
100
AcDbEntity
  8
DIM
  6
Continuous
100
AcDbText
 10
-109.2372806286337
 20
117.4713026985917
 30
0.0
 40
0.125
  1
 
  7
ROMANS
 11
-109.2372806286337
 21
117.5338026985917
 31
0.0
100
AcDbText
 73
     2
  0
TEXT
  5
1A5
330
2
100
AcDbEntity
  8
DIM
  6
Continuous
100
AcDbText
 10
-109.2372806286337
 20
117.2838026985917
 30
0.0
 40
0.125
  1
 
  7
ROMANS
 11
-109.2372806286337
 21
117.3463026985917
 31
0.0
100
AcDbText
 73
     2
  0
MTEXT
  5
13D8
330
2
100
AcDbEntity
  8
DIM
100
AcDbMText
 10
3.040951818970434
 20
3.684153266969023
 30
0.0
 40
0.25
 41
0.28125
 71
     1
 72
     5
  1

  7
style1
 73
     1
 44
1.0
1001
ACAD
1000
MTEXTBEGIN
1070
    73
1070
     1
1070
    44
1040
1.0
1070
    74
1070
     0
1000
MTEXTEND
  0
LWPOLYLINE
  5
1586
330
2
100
AcDbEntity
  8
0
100
AcDbPolyline
 90
        4
 70
     1
 43
0.03
 10
12.51463661332473
 20
3.224169506195529
 10
12.51463661332473
 20
13.24916950619553
 10
5.274636613324736
 20
13.24916950619553
 10
5.274636613324736
 20
3.224169506195529
  0
TEXT
  5
1589
330
2
100
AcDbEntity
  8
DIM
100
AcDbText
 10
12.2476238291764
 20
3.550581579611973
 30
0.0
 40
0.125
  1
02
 41
0.8
  7
ADESK1
100
AcDbText
  0
LWPOLYLINE
  5
158B
330
2
100
AcDbEntity
  8
0
100
AcDbPolyline
 90
        2
 70
     0
 43
0.03
 10
5.274636613324737
 20
4.974169506195529
 10
12.51463661332473
 20
4.974169506195529
  0
LINE
  5
158C
330
2
100
AcDbEntity
  8
0
100
AcDbLine
 10
8.641681894048346
 20
3.854169506195529
 30
0.0
 11
12.51463661332473
 21
3.854169506195529
 31
0.0
  0
TEXT
  5
158F
330
2
100
AcDbEntity
  8
DIM
100
AcDbText
 10
12.21513661332474
 20
3.740069506195529
 30
0.0
 40
0.065
  1
REV
  7
ADESK1
100
AcDbText
  0
LINE
  5
1590
330
2
100
AcDbEntity
  8
0
100
AcDbLine
 10
8.639636613324736
 20
4.474169506195529
 30
0.0
 11
12.51463661332473
 21
4.474169506195529
 31
0.0
  0
LINE
  5
1591
330
2
100
AcDbEntity
  8
0
100
AcDbLine
 10
8.639636613324736
 20
3.474169506195529
 30
0.0
 11
12.51463661332473
 21
3.474169506195529
 31
0.0
  0
LWPOLYLINE
  5
1592
330
2
100
AcDbEntity
  8
0
100
AcDbPolyline
 90
        2
 70
     0
 43
0.03
 10
8.639636613324736
 20
3.224169506195529
 10
8.639636613324736
 20
4.96007933482876
  0
TEXT
  5
1593
330
2
100
AcDbEntity
  8
DIM
 62
     7
100
AcDbText
 10
9.165655748593863
 20
4.072064783584462
 30
4.669299999999999
 40
0.15625
  1
SOLERA-S-R5+AEROGEL
 41
0.8
 11
9.165655748593863
 21
4.150189783584462
 31
4.669299999999999
100
AcDbText
 73
     2
  0
LINE
  5
1594
330
2
100
AcDbEntity
  8
0
100
AcDbLine
 10
5.274636613324737
 20
3.728499023922982
 30
0.0
 11
8.641681894048346
 21
3.728499023922982
 31
0.0
  0
TEXT
  5
1596
330
2
100
AcDbEntity
  8
DIM
100
AcDbText
 10
9.298782264812592
 20
3.740069506195529
 30
0.0
 40
0.065
  1
DATE:
 41
0.8
100
AcDbText
  0
LINE
  5
1597
330
2
100
AcDbEntity
  8
0
100
AcDbLine
 10
9.229882264812591
 20
3.474169506195529
 30
0.0
 11
9.229882264812591
 21
3.854169506195529
 31
0.0
  0
TEXT
  5
1598
330
2
100
AcDbEntity
  8
DIM
100
AcDbText
 10
8.761235803488888
 20
3.54366220696841
 30
0.0
 40
0.09375
  1
AMM
 41
0.8
100
AcDbText
  0
TEXT
  5
1599
330
2
100
AcDbEntity
  8
DIM
100
AcDbText
 10
8.691936613324736
 20
3.316669506195529
 30
0.0
 40
0.065
  1
Scale
 41
0.8
100
AcDbText
  0
TEXT
  5
159A
330
2
100
AcDbEntity
  8
DIM
100
AcDbText
 10
9.088536613324738
 20
3.311294928709635
 30
0.0
 40
0.09375
  1
1:1
 41
0.8
100
AcDbText
  0
TEXT
  5
159B
330
2
100
AcDbEntity
  8
DIM
100
AcDbText
 10
8.727536613324737
 20
3.740069506195529
 30
0.0
 40
0.065
  1
DRWN.
 41
0.8
100
AcDbText
  0
LINE
  5
159C
330
2
100
AcDbEntity
  8
0
100
AcDbLine
 10
9.639636613324736
 20
3.224169506195529
 30
0.0
 11
9.639636613324736
 21
3.474169506195529
 31
0.0
  0
LINE
  5
159D
330
2
100
AcDbEntity
  8
0
100
AcDbLine
 10
10.40244367768455
 20
3.474169506195529
 30
0.0
 11
10.40244367768455
 21
3.854169506195529
 31
0.0
  0
TEXT
  5
159E
330
2
100
AcDbEntity
  8
DIM
100
AcDbText
 10
10.47344367768455
 20
3.740069506195529
 30
0.0
 40
0.065
  1
DWG NO.
 41
0.8
100
AcDbText
  0
LINE
  5
159F
330
2
100
AcDbEntity
  8
0
100
AcDbLine
 10
11.13963661332473
 20
3.224169506195529
 30
0.0
 11
11.13963661332473
 21
3.474169506195529
 31
0.0
  0
TEXT
  5
15A1
330
2
100
AcDbEntity
  8
DIM
100
AcDbText
 10
11.19243661332474
 20
3.316669506195529
 30
0.0
 40
0.065
  1
Sheet
 41
0.8
100
AcDbText
  0
LINE
  5
15A2
330
2
100
AcDbEntity
  8
0
100
AcDbLine
 10
12.13463661332474
 20
3.474169506195529
 30
0.0
 11
12.13463661332474
 21
3.854169506195529
 31
0.0
  0
TEXT
  5
15A3
330
2
100
AcDbEntity
  8
DIM
100
AcDbText
 10
5.418052574216133
 20
3.957669849358412
 30
5.836649999999999
 40
0.0975
  1
SOLERA IS A REGISTERED TRADEMARK
  7
style1
 11
5.418052574216133
 21
4.055169849358412
 31
5.836649999999999
100
AcDbText
 73
     3
  0
TEXT
  5
15A4
330
2
100
AcDbEntity
  8
DIM
100
AcDbText
 10
5.418052574216133
 20
3.807063168119449
 30
5.836649999999999
 40
0.0975
  1
ADVANCED GLAZINGS LTD.
  7
style1
 11
5.418052574216133
 21
3.90456316811945
 31
5.836649999999999
100
AcDbText
 73
     3
  0
TEXT
  5
15A9
330
2
100
AcDbEntity
  8
DIM
100
AcDbText
 10
5.394742313893682
 20
4.21259193423082
 30
0.0
 40
0.125
  1
ADVANCED GLAZINGS Ltd.
  7
style1
100
AcDbText
  0
TEXT
  5
15AA
330
2
100
AcDbEntity
  8
DIM
100
AcDbText
 10
5.402168494996044
 20
4.593651421953557
 30
0.0
 40
0.25
  1
SOLERA
  7
style1
100
AcDbText
  0
TEXT
  5
15AB
330
2
100
AcDbEntity
  8
DIM
100
AcDbText
 10
5.93863046222971
 20
6.068146259144834
 30
0.0
 40
0.125
  1
* PLUS / MINUS .020"
 41
0.8
  7
ADESK1
100
AcDbText
  0
LINE
  5
15AC
330
2
100
AcDbEntity
  8
0
100
AcDbLine
 10
5.274636613324737
 20
4.15039280598452
 30
0.0
 11
8.641681894048346
 21
4.15039280598452
 31
0.0
  0
TEXT
  5
15AE
330
2
100
AcDbEntity
  8
DIM
100
AcDbText
 10
9.601297010024145
 20
6.325604294094247
 30
0.0
 40
0.1125
  1
1/2" INSTALLATION BITE
 41
0.8
  7
ADESK1
100
AcDbText
  0
TEXT
  5
15B2
330
2
100
AcDbEntity
  8
DIM
100
AcDbText
 10
8.727536613324737
 20
4.352604651484133
 30
0.0
 40
0.065
  1
TITLE:
 41
0.8
100
AcDbText
  0
TEXT
  5
15B3
330
2
100
AcDbEntity
  8
DIM
100
AcDbText
 10
8.727536613324737
 20
4.853175912216423
 30
0.0
 40
0.065
  1
PROJECT:
 41
0.8
100
AcDbText
  0
TEXT
  5
15B9
330
2
100
AcDbEntity
  8
DIM
100
AcDbText
 10
9.588485833371949
 20
5.420661009891691
 30
0.0
 40
0.1125
  1
1/2" PLUS INBOARD LITE THICKNESS
 41
0.8
  7
ADESK1
100
AcDbText
  0
TEXT
  5
15BA
330
2
100
AcDbEntity
  8
DIM
100
AcDbText
 10
9.588485833371949
 20
5.602803867034548
 30
0.0
 40
0.1125
  1
OUTBOARD LITE THICKNESS PLUS
 41
0.8
  7
ADESK1
100
AcDbText
  0
TEXT
  5
15BB
330
2
100
AcDbEntity
  8
DIM
100
AcDbText
 10
9.588485833371949
 20
5.784946724177405
 30
0.0
 40
0.1125
  1
OVERALL UNIT THICKNESS =
 41
0.8
  7
ADESK1
100
AcDbText
  0
TEXT
  5
15BD
330
2
100
AcDbEntity
  8
DIM
100
AcDbText
 10
9.588485833371949
 20
5.967089581320262
 30
0.0
 40
0.1125
  1
NOTE '2'
 41
0.8
  7
ADESK1
100
AcDbText
  0
TEXT
  5
15CA
330
2
100
AcDbEntity
  8
DIM
100
AcDbText
 10
9.615609257417597
 20
6.608027418448326
 30
0.0
 40
0.1125
  1
OF 10 LBS / LINEAR INCH
 41
0.8
  7
ADESK1
100
AcDbText
  0
TEXT
  5
15CB
330
2
100
AcDbEntity
  8
DIM
100
AcDbText
 10
9.615609257417597
 20
6.790170275591183
 30
0.0
 40
0.1125
  1
MAXIMUM CLAMPING FORCE
 41
0.8
  7
ADESK1
100
AcDbText
  0
TEXT
  5
15CC
330
2
100
AcDbEntity
  8
DIM
100
AcDbText
 10
9.73833871675167
 20
7.997618636020655
 30
0.0
 40
0.125
  1
STRUCTURAL SEAL
 41
0.8
  7
ADESK1
100
AcDbText
  0
TEXT
  5
15CD
330
2
100
AcDbEntity
  8
DIM
100
AcDbText
 10
9.615609257417597
 20
6.972313132734042
 30
0.0
 40
0.1125
  1
NOTE '1'
 41
0.8
  7
ADESK1
100
AcDbText
  0
TEXT
  5
15CE
330
2
100
AcDbEntity
  8
DIM
100
AcDbText
 10
9.270757881288375
 20
10.09904888298445
 30
0.0
 40
0.125
  1
INNER LITE
 41
0.8
  7
ADESK1
100
AcDbText
  0
LEADER
  5
15D0
330
2
100
AcDbEntity
  8
DIM
100
AcDbLeader
  3
STANDARD
 72
     1
 76
     2
 10
8.595976855393999
 20
9.226762448252364
 30
0.0
 10
9.207989849666851
 20
9.600333555080387
 30
0.0
1001
ACAD
1000
DSTYLE
1002
{
1070
     6
1000

1070
    73
1070
     0
1070
    74
1070
     0
1070
    77
1070
     0
1070
   147
1040
0.0625
1070
   341
1005
0
1070
   343
1005
0
1002
}
  0
TEXT
  5
15D1
330
2
100
AcDbEntity
  8
DIM
100
AcDbText
 10
5.40995753252983
 20
5.056540453076761
 30
3.501999999999999
 40
0.0935
  1
DIMENSIONS IN INCHES  
 41
0.8
  7
ADESK1
 11
5.40995753252983
 21
5.15004045307676
 31
3.501999999999999
100
AcDbText
 73
     3
  0
LEADER
  5
15FB
330
2
100
AcDbEntity
  8
DIM
100
AcDbLeader
  3
STANDARD
 72
     1
 76
     2
 10
8.832571124741848
 20
8.438607474870373
 30
12.121909
 10
9.695731882505732
 20
8.071894852916315
 30
12.121909
1001
ACAD
1000
DSTYLE
1002
{
1070
   147
1040
0.0625
1070
    73
1070
     0
1070
    74
1070
     0
1070
    77
1070
     0
1070
   271
1070
     3
1070
   272
1070
     3
1070
   341
1005
0
1002
}
  0
DIMENSION
  5
160C
330
2
100
AcDbEntity
  8
DIM
100
AcDbDimension
  2
*D7
 10
8.894967086336768
 20
11.66689741123652
 30
3.340969640740752
 11
8.644967086336766
 21
11.87523074456986
 31
3.340969640740752
 70
    32
 71
     5
 42
0.5000000000000054
  3
STANDARD
100
AcDbAlignedDimension
 13
8.394967086336762
 23
11.35542312743919
 33
15.46287864074073
 14
8.894967086336768
 24
11.35542312743927
 34
15.46287864074073
100
AcDbRotatedDimension
1001
ACAD
1000
DSTYLE
1002
{
1070
    73
1070
     0
1070
    74
1070
     0
1070
    77
1070
     1
1070
   341
1005
0
1002
}
  0
TEXT
  5
160D
330
2
100
AcDbEntity
  8
DIM
100
AcDbText
 10
7.091216857721669
 20
10.07256101284643
 30
0.0
 40
0.125
  1
OUTER LITE
 41
0.8
  7
ADESK1
100
AcDbText
  0
MTEXT
  5
160E
330
2
100
AcDbEntity
  8
DIM
100
AcDbMText
 10
8.651745278147147
 20
12.51094787246104
 30
-8.780939359259223
 40
0.125
 41
0.0
 71
     5
 72
     1
  1
\A1;SEE NOTE 2
 73
     1
 44
1.0
1001
ACAD
1000
MTEXTBEGIN
1070
    73
1070
     1
1070
    44
1040
1.0
1070
    74
1070
     0
1000
MTEXTEND
  0
LINE
  5
160F
330
2
100
AcDbEntity
  8
DIM
100
AcDbLine
 10
8.158967086336762
 20
12.28975381393165
 30
15.46287864074072
 11
9.130967086336738
 21
12.28975381393182
 31
3.340969640740738
  0
LINE
  5
1610
330
2
100
AcDbEntity
  8
DIM
100
AcDbLine
 10
8.158967086336762
 20
11.4804231274391
 30
15.46287864074072
 11
8.158967086336762
 21
12.41475381393165
 31
15.46287864074072
  0
INSERT
  5
1611
330
2
100
AcDbEntity
  8
DIM
100
AcDbBlockReference
  2
_ARCHTICK
 10
8.158967086336762
 20
12.28975381393165
 30
15.46287864074072
 41
0.125
 42
0.125
 43
0.125
 50
180.0
  0
TEXT
  5
1612
330
2
100
AcDbEntity
  8
DIM
100
AcDbText
 10
8.732316036536669
 20
11.92900711463422
 30
0.0
 40
0.125
  1
*
  7
style1
100
AcDbText
  0
LINE
  5
1613
330
2
100
AcDbEntity
  8
DIM
100
AcDbLine
 10
9.130967086336768
 20
11.48042312743927
 30
3.340969640740752
 11
9.130967086336735
 21
12.41475381393182
 31
3.340969640740734
  0
TEXT
  5
1614
330
2
100
AcDbEntity
  8
DIM
100
AcDbText
 10
9.410631439256587
 20
10.9763390971933
 30
0.0
 40
0.125
  1
GLASS AS SPECIFIED
 41
0.8
  7
ADESK1
100
AcDbText
  0
LEADER
  5
1615
330
2
100
AcDbEntity
  8
DIM
100
AcDbLeader
  3
STANDARD
 72
     1
 76
     2
 10
9.041733585724205
 20
10.27955862079039
 30
0.0
 10
9.364740421982791
 20
10.97575934301952
 30
0.0
1001
ACAD
1000
DSTYLE
1002
{
1070
     6
1000

1070
    73
1070
     0
1070
    74
1070
     0
1070
    77
1070
     0
1070
   147
1040
0.0625
1070
   341
1005
0
1070
   343
1005
0
1002
}
  0
LINE
  5
1616
330
2
100
AcDbEntity
  8
DIM
100
AcDbLine
 10
8.88546708633674
 20
12.28975381393182
 30
3.340969640740738
 11
9.130967086336738
 21
12.28975381393182
 31
3.340969640740738
  0
INSERT
  5
1617
330
2
100
AcDbEntity
  8
DIM
100
AcDbBlockReference
  2
_ARCHTICK
 10
9.130967086336738
 20
12.28975381393182
 30
3.340969640740738
 41
0.125
 42
0.125
 43
0.125
  0
TEXT
  5
1A02
330
2
100
AcDbEntity
  8
DIM
100
AcDbText
 10
9.251203584938242
 20
9.574301321656994
 30
0.0
 40
0.125
  1
HONEYCOMB CORE
 41
0.8
  7
ADESK1
100
AcDbText
  0
TEXT
  5
1A03
330
2
100
AcDbEntity
  8
DIM
100
AcDbText
 10
9.249435689676555
 20
9.386981382558177
 30
0.0
 40
0.125
  1
WITH AEROGEL FILL
 41
0.8
  7
ADESK1
100
AcDbText
  0
LINE
  5
1A7F
330
2
100
AcDbEntity
  8
1
100
AcDbLine
 10
8.394967086336762
 20
11.35542312743919
 30
15.46287864074073
 11
8.394967086336762
 21
8.254107801823865
 31
12.121909
  0
LINE
  5
1A81
330
2
100
AcDbEntity
  8
0
 62
     7
100
AcDbLine
 10
7.705164175521945
 20
11.35542242977413
 30
3.340969640740727
 11
8.809103800621981
 21
11.35542242977413
 31
3.340969640740727
  0
LINE
  5
1A82
330
2
100
AcDbEntity
  8
0
  6
Continuous
 62
     7
370
    15
100
AcDbLine
 10
8.42621708633675
 20
8.669938380837537
 30
0.0
 11
8.426217086336761
 21
8.525777222810145
 31
0.0
  0
ARC
  5
1A83
330
2
100
AcDbEntity
  8
DIM
100
AcDbCircle
 10
8.47295985568475
 20
8.507703404586067
 30
0.0
 40
0.0233871599342012
100
AcDbArc
 50
186.5206728834461
 51
270.6640187800019
  0
ARC
  5
1A84
330
2
100
AcDbEntity
  8
1
  6
Continuous
 62
     7
100
AcDbCircle
 10
8.644967086337002
 20
6.822154808758381
 30
12.121909
 40
1.453612525520236
100
AcDbArc
 50
80.09673075533781
 51
99.90326924468117
  0
LINE
  5
1A85
330
2
100
AcDbEntity
  8
5
  6
Continuous
 62
     7
100
AcDbLine
 10
8.426217086336761
 20
8.808559349718903
 30
0.0
 11
8.863717086336805
 21
8.808559349718899
 31
0.0
  0
LINE
  5
1A86
330
2
100
AcDbEntity
  8
5
  6
HIDDEN
 62
     7
100
AcDbLine
 10
8.394967086336736
 20
9.058559349718903
 30
12.121909
 11
8.894967086336768
 21
9.058559349718903
 31
12.121909
  0
LINE
  5
1A87
330
2
100
AcDbEntity
  8
5
  6
HIDDEN
 62
     7
100
AcDbLine
 10
8.394967086336727
 20
9.308559349718903
 30
12.121909
 11
8.894967086336768
 21
9.308559349718903
 31
12.121909
  0
LINE
  5
1A88
330
2
100
AcDbEntity
  8
5
  6
Continuous
 62
     7
100
AcDbLine
 10
8.394967086336718
 20
9.586895552485852
 30
12.121909
 11
8.894967086336768
 21
9.586895552485827
 31
12.121909
  0
LINE
  5
1A89
330
2
100
AcDbEntity
  8
5
  6
HIDDEN
 62
     7
100
AcDbLine
 10
8.394967086336762
 20
9.836895552485829
 30
12.121909
 11
8.894967086336768
 21
9.836895552485829
 31
12.121909
  0
LINE
  5
1A8A
330
2
100
AcDbEntity
  8
0
  6
Continuous
 62
     7
370
    15
100
AcDbLine
 10
8.8637170863368
 20
8.66993838083764
 30
0.0
 11
8.86371708633681
 21
8.525777222810154
 31
0.0
  0
LINE
  5
1A8B
330
2
100
AcDbEntity
  8
5
  6
Continuous
 62
     7
100
AcDbLine
 10
8.394967086336762
 20
10.36523175525275
 30
12.121909
 11
8.894967086336768
 21
10.36523175525275
 31
12.121909
  0
LINE
  5
1A8C
330
2
100
AcDbEntity
  8
5
  6
HIDDEN
 62
     7
100
AcDbLine
 10
8.394967086336722
 20
10.08689555248583
 30
12.121909
 11
8.894967086336768
 21
10.08689555248583
 31
12.121909
  0
ARC
  5
1A8D
330
2
100
AcDbEntity
  8
DIM
100
AcDbCircle
 10
8.449452953474319
 20
8.667282495269001
 30
0.0
 40
0.0233871599342012
100
AcDbArc
 50
89.33598121999811
 51
173.4793271165538
  0
ARC
  5
1A8E
330
2
100
AcDbEntity
  8
DIM
100
AcDbCircle
 10
8.426488121409635
 20
8.502391633448805
 30
0.0
 40
0.0233871599342012
100
AcDbArc
 50
6.520672883445026
 51
90.66401878000075
  0
LINE
  5
1A8F
330
2
100
AcDbEntity
  8
DIM
100
AcDbLine
 10
8.473230890757625
 20
8.484317815224727
 30
0.0
 11
8.613717086336716
 21
8.484317815224732
 31
0.0
  0
LINE
  5
1A90
330
2
100
AcDbEntity
  8
DIM
100
AcDbLine
 10
8.449723988547193
 20
8.69066808463034
 30
0.0
 11
8.613717086336709
 21
8.690668084630345
 31
0.0
  0
ARC
  5
1A91
330
2
100
AcDbEntity
  8
DIM
100
AcDbCircle
 10
8.47295985568475
 20
8.507703404586067
 30
0.0
 40
0.0163871599342012
100
AcDbArc
 50
186.5206728834461
 51
270.6640187800019
  0
ARC
  5
1A92
330
2
100
AcDbEntity
  8
DIM
100
AcDbCircle
 10
8.426488121409631
 20
8.502391633448802
 30
0.0
 40
0.0303871599342056
100
AcDbArc
 50
6.520672883451379
 51
77.97469715737851
  0
LINE
  5
1A93
330
2
100
AcDbEntity
  8
DIM
100
AcDbLine
 10
8.473230890757625
 20
8.491317815224727
 30
0.0
 11
8.613717086336716
 21
8.491317815224732
 31
0.0
  0
LINE
  5
1A94
330
2
100
AcDbEntity
  8
DIM
100
AcDbLine
 10
8.449723988547193
 20
8.68366808463034
 30
0.0
 11
8.613717086336709
 21
8.683668084630346
 31
0.0
  0
ARC
  5
1A95
330
2
100
AcDbEntity
  8
DIM
100
AcDbCircle
 10
8.449452953474319
 20
8.667282495269001
 30
0.0
 40
0.0163871599342012
100
AcDbArc
 50
89.33598121999811
 51
173.4793271165538
  0
LINE
  5
1A96
330
2
100
AcDbEntity
  8
DIM
100
AcDbLine
 10
8.4328190928598
 20
8.532111968059369
 30
0.0
 11
8.433171802959922
 21
8.669143448959083
 31
0.0
  0
ARC
  5
1A97
330
2
100
AcDbEntity
  8
DIM
100
AcDbCircle
 10
8.840481219199242
 20
8.667282495269008
 30
0.0
 40
0.0163871599342012
100
AcDbArc
 50
6.520672883450239
 51
90.66401878000608
  0
LINE
  5
1A98
330
2
100
AcDbEntity
  8
DIM
100
AcDbLine
 10
8.840210184126366
 20
8.683668084630348
 30
0.0
 11
8.613717086336709
 21
8.683668084630346
 31
0.0
  0
LINE
  5
1A99
330
2
100
AcDbEntity
  8
DIM
100
AcDbLine
 10
8.840210184126366
 20
8.690668084630347
 30
0.0
 11
8.613717086336709
 21
8.690668084630345
 31
0.0
  0
ARC
  5
1A9A
330
2
100
AcDbEntity
  8
DIM
100
AcDbCircle
 10
8.840481219199242
 20
8.667282495269008
 30
0.0
 40
0.0233871599342012
100
AcDbArc
 50
6.520672883450239
 51
90.66401878000608
  0
LINE
  5
1A9B
330
2
100
AcDbEntity
  8
DIM
100
AcDbLine
 10
8.857115079813771
 20
8.532111968059378
 30
0.0
 11
8.856762369713639
 21
8.669143448959092
 31
0.0
  0
ARC
  5
1A9C
330
2
100
AcDbEntity
  8
DIM
100
AcDbCircle
 10
8.863446051263942
 20
8.50239163344881
 30
0.0
 40
0.0303871599342056
100
AcDbArc
 50
102.0253028426255
 51
173.4793271165527
  0
ARC
  5
1A9D
330
2
100
AcDbEntity
  8
DIM
100
AcDbCircle
 10
8.863446051263938
 20
8.502391633448814
 30
0.0
 40
0.0233871599342012
100
AcDbArc
 50
89.33598122000338
 51
173.4793271165592
  0
LINE
  5
1A9E
330
2
100
AcDbEntity
  8
DIM
100
AcDbLine
 10
8.816703281915948
 20
8.491317815224732
 30
0.0
 11
8.613717086336716
 21
8.491317815224732
 31
0.0
  0
ARC
  5
1A9F
330
2
100
AcDbEntity
  8
DIM
100
AcDbCircle
 10
8.816974316988822
 20
8.507703404586072
 30
0.0
 40
0.0163871599342012
100
AcDbArc
 50
269.3359812200021
 51
353.4793271165581
  0
LINE
  5
1AA0
330
2
100
AcDbEntity
  8
DIM
100
AcDbLine
 10
8.81670328191595
 20
8.484317815224732
 30
0.0
 11
8.613717086336716
 21
8.484317815224732
 31
0.0
  0
ARC
  5
1AA1
330
2
100
AcDbEntity
  8
DIM
100
AcDbCircle
 10
8.816974316988822
 20
8.507703404586072
 30
0.0
 40
0.0233871599342012
100
AcDbArc
 50
269.3359812200021
 51
353.4793271165581
  0
LINE
  5
1AA2
330
2
100
AcDbEntity
  8
0
 62
     7
100
AcDbLine
 10
8.716071491957562
 20
11.35542242977413
 30
3.340969640740727
 11
8.824418731421108
 21
11.2644221315833
 31
3.340969640740727
  0
LINE
  5
1AA3
330
2
100
AcDbEntity
  8
0
 62
     7
100
AcDbLine
 10
8.824418731421108
 20
11.2644221315833
 30
3.340969640740727
 11
8.42960482984931
 21
11.43125580304356
 31
3.340969640740727
  0
LINE
  5
1AA4
330
2
100
AcDbEntity
  8
0
100
AcDbLine
 10
8.42960482984931
 20
11.43125580304356
 30
3.340969640740727
 11
8.505530503523491
 21
11.35542242977413
 31
3.340969640740727
  0
LINE
  5
1AA5
330
2
100
AcDbEntity
  8
5
  6
HIDDEN
 62
     7
100
AcDbLine
 10
8.394722256132906
 20
10.61523245291778
 30
24.243818
 11
8.894722256132912
 21
10.61523245291778
 31
24.243818
  0
LINE
  5
1AA6
330
2
100
AcDbEntity
  8
5
  6
Continuous
 62
     7
100
AcDbLine
 10
8.394722256132906
 20
11.1435686556847
 30
24.243818
 11
8.894722256132912
 21
11.1435686556847
 31
24.243818
  0
LINE
  5
1AA7
330
2
100
AcDbEntity
  8
5
  6
HIDDEN
 62
     7
100
AcDbLine
 10
8.394722256132865
 20
10.86523245291778
 30
24.243818
 11
8.894722256132912
 21
10.86523245291778
 31
24.243818
  0
LINE
  5
1AA8
330
2
100
AcDbEntity
  8
1
100
AcDbLine
 10
8.158967086336762
 20
11.35542312743919
 30
15.46287864074073
 11
8.158967086336762
 21
8.254107801823865
 31
12.121909
  0
LINE
  5
1AA9
330
2
100
AcDbEntity
  8
spacer
100
AcDbLine
 10
8.158967086336762
 20
8.254107801823865
 30
12.121909
 11
8.394967086336762
 21
8.254107801823865
 31
12.121909
  0
LINE
  5
1AAA
330
2
100
AcDbEntity
  8
1
100
AcDbLine
 10
9.130967086336768
 20
11.35542312743927
 30
15.46287864074073
 11
9.130967086336768
 21
8.254107801823948
 31
12.121909
  0
LINE
  5
1AAB
330
2
100
AcDbEntity
  8
1
100
AcDbLine
 10
8.894967086336768
 20
11.35542312743927
 30
15.46287864074073
 11
8.894967086336768
 21
8.254107801823948
 31
12.121909
  0
LINE
  5
1AAC
330
2
100
AcDbEntity
  8
spacer
100
AcDbLine
 10
8.894967086336768
 20
8.254107801823948
 30
12.121909
 11
9.130967086336768
 21
8.254107801823948
 31
12.121909
  0
LINE
  5
1AAE
330
2
100
AcDbEntity
  8
R9
100
AcDbLine
 10
8.426217086336798
 20
8.504107801823943
 30
0.0
 11
8.394967086336798
 21
8.504107801823943
 31
0.0
  0
LINE
  5
1AAF
330
2
100
AcDbEntity
  8
R9
100
AcDbLine
 10
8.394967086336798
 20
9.004107801823943
 30
0.0
 11
8.426217086336761
 21
9.004107801823943
 31
0.0
  0
LINE
  5
1AB0
330
2
100
AcDbEntity
  8
R9
100
AcDbLine
 10
8.426217086336761
 20
9.004107801823943
 30
0.0
 11
8.426217086336761
 21
8.504107801823996
 31
0.0
  0
LINE
  5
1AB1
330
2
100
AcDbEntity
  8
DIM
100
AcDbLine
 10
8.394967086336798
 20
9.004107801823943
 30
0.0
 11
8.394967086336798
 21
8.504107801823943
 31
0.0
  0
LINE
  5
1AB2
330
2
100
AcDbEntity
  8
R9
100
AcDbLine
 10
8.894967086336805
 20
8.504107801823941
 30
0.0
 11
8.863717086336805
 21
8.504107801823941
 31
0.0
  0
LINE
  5
1AB3
330
2
100
AcDbEntity
  8
R9
100
AcDbLine
 10
8.863717086336805
 20
9.004107801823941
 30
0.0
 11
8.894967086336768
 21
9.004107801823941
 31
0.0
  0
LINE
  5
1AB4
330
2
100
AcDbEntity
  8
R9
100
AcDbLine
 10
8.894967086336768
 20
9.004107801823941
 30
0.0
 11
8.894967086336768
 21
8.504107801823995
 31
0.0
  0
LINE
  5
1AB5
330
2
100
AcDbEntity
  8
DIM
100
AcDbLine
 10
8.863717086336805
 20
9.004107801823941
 30
0.0
 11
8.863717086336805
 21
8.504107801823941
 31
0.0
  0
LINE
  5
1AB6
330
2
100
AcDbEntity
  8
0
 62
     7
100
AcDbLine
 10
9.584280336743871
 20
11.35542242977413
 30
3.340969640740727
 11
8.480340711643835
 21
11.35542242977413
 31
3.340969640740727
  0
LINE
  5
1AB7
330
2
100
AcDbEntity
  8
spacer
100
AcDbLine
 10
8.394967086336798
 20
8.504107801823943
 30
0.0
 11
8.426217086336761
 21
8.504107801823996
 31
0.0
  0
LINE
  5
1AB8
330
2
100
AcDbEntity
  8
spacer
100
AcDbLine
 10
8.426217086336761
 20
8.504107801823996
 30
0.0
 11
8.426217086336762
 21
8.525777222810145
 31
0.0
  0
HATCH
  5
1AB9
330
2
100
AcDbEntity
  8
DIM
100
AcDbHatch
 10
0.0
 20
0.0
 30
12.11908661988102
210
0.0
220
0.0
230
1.0
  2
ANSI31
 70
     0
 71
     0
 91
        1
 92
        1
 93
        5
 72
     1
 10
8.394967086336762
 20
8.484371415706718
 11
8.394967086336762
 21
8.254161402305852
 72
     2
 10
8.644967086336967
 20
6.822208409240365
 40
1.453612525520236
 50
260.0967307553188
 51
279.9032692446622
 73
     0
 72
     1
 10
8.894967086336732
 20
8.254161402305937
 11
8.894967086336732
 21
8.484371415706718
 72
     1
 10
8.894967086336732
 20
8.484371415706718
 11
8.790115484665985
 21
8.484371415706718
 72
     1
 10
8.790115484665985
 20
8.484371415706718
 11
8.394967086336762
 21
8.484371415706718
 97
        0
 75
     0
 76
     1
 52
0.0
 41
0.25
 77
     0
 78
     1
 53
45.0
 43
-1.243827579012044
 44
-1.287634298356527
 45
-0.0220970869120796
 46
0.0220970869120796
 79
     0
 98
        1
 10
-1.243827579012044
 20
-1.287634298356527
1001
ACAD
1010
0.0
1020
0.0
1030
0.0
  0
VIEWPORT
  5
1B8F
102
{ACAD_XDICTIONARY
360
1BF4
102
}
330
1B81
100
AcDbEntity
 67
     1
  8
0
100
AcDbViewport
 10
17.75058138434252
 20
7.67766887780994
 30
0.0
 40
74.84155598546161
 41
33.08587258969061
 68
     1
 69
     1
 12
17.75058138434252
 22
7.67766887780994
 13
0.0
 23
0.0
 14
0.5
 24
0.5
 15
0.5
 25
0.5
 16
0.0
 26
0.0
 36
1.0
 17
0.0
 27
0.0
 37
0.0
 42
50.0
 43
0.0
 44
0.0
 45
33.08587258969061
 50
0.0
 51
0.0
 72
   100
 90
   819232
  1

281
     0
 71
     1
 74
     0
110
0.0
120
0.0
130
0.0
111
1.0
121
0.0
131
0.0
112
0.0
122
1.0
132
0.0
 79
     0
146
0.0
  0
VIEWPORT
  5
1B91
102
{ACAD_XDICTIONARY
360
1BF6
102
}
330
1B81
100
AcDbEntity
 67
     1
  8
DIM
100
AcDbViewport
 10
3.973663390741567
 20
5.213671980857546
 30
0.0
 40
7.915162977505453
 41
10.41260924228713
 68
     2
 69
     2
 12
8.895065377344216
 22
8.236404466950812
 13
0.0
 23
0.0
 14
1.0
 24
1.0
 15
0.0
 25
0.0
 16
0.0
 26
0.0
 36
1.0
 17
0.0
 27
0.0
 37
0.0
 42
50.0
 43
0.0
 44
0.0
 45
10.32747009498861
 50
0.0
 51
0.0
 72
 10000
 90
   819200
  1

281
     0
 71
     1
 74
     0
110
0.0
120
0.0
130
0.0
111
1.0
121
0.0
131
0.0
112
0.0
122
1.0
132
0.0
 79
     0
146
0.0
  0
ENDSEC
  0
SECTION
  2
OBJECTS
  0
DICTIONARY
  5
7
330
0
100
AcDbDictionary
281
     1
  3
ACAD_COLOR
350
1405
  3
ACAD_GROUP
350
4C9
  3
ACAD_LAYOUT
350
47F
  3
ACAD_MATERIAL
350
1404
  3
ACAD_MLINESTYLE
350
4CA
  3
ACAD_PLOTSETTINGS
350
4CB
  3
ACAD_PLOTSTYLENAME
350
6
  3
ACAD_TABLESTYLE
350
194F
  3
ACAD_VISUALSTYLE
350
193E
  3
AcadDim
350
13CE
  3
AcDbVariableDictionary
350
859
  3
DRAD_DICT
350
18DD
  3
DWGPROPS
350
1BDE
  0
DICTIONARY
  5
1B50
330
4C4
100
AcDbDictionary
280
     1
281
     1
  0
DICTIONARY
  5
1984
330
4BC
100
AcDbDictionary
280
     1
281
     1
  3
ACAD_LAYERSTATES
360
1985
  0
DICTIONARY
  5
47A
330
2
100
AcDbDictionary
280
     1
281
     1
  3
ACAD_LAYOUTSELFREF
360
10D9
  0
DICTIONARY
  5
1BF4
330
1B8F
100
AcDbDictionary
280
     1
281
     1
  3
ACAD_XREC_ROUNDTRIP
360
1BF5
  0
DICTIONARY
  5
1BF6
330
1B91
100
AcDbDictionary
280
     1
281
     1
  3
ACAD_XREC_ROUNDTRIP
360
1BF7
  0
DICTIONARY
  5
1405
102
{ACAD_REACTORS
330
7
102
}
330
7
100
AcDbDictionary
281
     1
  0
DICTIONARY
  5
4C9
102
{ACAD_REACTORS
330
7
102
}
330
7
100
AcDbDictionary
281
     1
  0
DICTIONARY
  5
47F
102
{ACAD_REACTORS
330
7
102
}
330
7
100
AcDbDictionary
281
     1
  3
Layout1
350
1B82
  3
Model
350
47E
  0
DICTIONARY
  5
1404
102
{ACAD_REACTORS
330
7
102
}
330
7
100
AcDbDictionary
281
     1
  3
ByBlock
350
193C
  3
ByLayer
350
193B
  3
Global
350
193D
  0
DICTIONARY
  5
4CA
102
{ACAD_REACTORS
330
7
102
}
330
7
100
AcDbDictionary
281
     1
  3
STANDARD
350
4CC
  0
DICTIONARY
  5
4CB
102
{ACAD_REACTORS
330
7
102
}
330
7
100
AcDbDictionary
281
     1
  3
8.5X11
350
670
  3
8X10
350
675
  0
ACDBDICTIONARYWDFLT
  5
6
102
{ACAD_REACTORS
330
7
102
}
330
7
100
AcDbDictionary
281
     1
  3
Normal
350
5
100
AcDbDictionaryWithDefault
340
5
  0
DICTIONARY
  5
194F
102
{ACAD_REACTORS
330
7
102
}
330
7
100
AcDbDictionary
281
     1
  3
Standard
350
1950
  0
DICTIONARY
  5
193E
102
{ACAD_REACTORS
330
7
102
}
330
7
100
AcDbDictionary
281
     1
  3
2dWireframe
350
1944
  3
3D Hidden
350
1946
  3
3dWireframe
350
1945
  3
Basic
350
1943
  3
Brighten
350
194A
  3
ColorChange
350
194E
  3
Conceptual
350
1947
  3
Dim
350
1949
  3
Facepattern
350
194D
  3
Flat
350
193F
  3
FlatWithEdges
350
1940
  3
Gouraud
350
1941
  3
GouraudWithEdges
350
1942
  3
Linepattern
350
194C
  3
Realistic
350
1948
  3
Thicken
350
194B
  0
XRECORD
  5
13CE
102
{ACAD_REACTORS
330
7
102
}
330
7
100
AcDbXrecord
280
     1
 90
   990106
  3

 60
     0
 61
     0
 62
     1
 63
     3
 64
     0
 65
     1
 66
     1
 67
     3
 68
     1
 69
     0
 70
     0
 71
     0
 72
     0
 40
0.25
170
     1
340
0
  0
DICTIONARY
  5
859
102
{ACAD_REACTORS
330
7
102
}
330
7
100
AcDbDictionary
281
     1
  3
CTABLESTYLE
350
195C
  3
DIMASSOC
350
1430
  3
INDEXCTL
350
1B6A
  3
PROJECTNAME
350
1431
  3
SORTENTS
350
85A
  0
DICTIONARY
  5
18DD
102
{ACAD_REACTORS
330
7
102
}
330
7
100
AcDbDictionary
281
     1
  3
SCALE
350
1938
  3
UNITS
350
1937
  0
XRECORD
  5
1BDE
102
{ACAD_REACTORS
330
7
102
}
330
7
100
AcDbXrecord
280
     1
  1
DWGPROPS COOKIE
  2

  3

  4

  6

  7

  8
x
  9

300
=
301
=
302
=
303
=
304
=
305
=
306
=
307
=
308
=
309
=
 40
10.8751064699074
 41
2449909.393659607
 42
2457892.644644688
  1

 90
        0
  0
DICTIONARY
  5
1985
102
{ACAD_REACTORS
330
1984
102
}
330
1984
100
AcDbDictionary
281
     1
  0
XRECORD
  5
10D9
102
{ACAD_REACTORS
330
47A
102
}
330
47A
100
AcDbXrecord
280
     1
340
2
  0
XRECORD
  5
1BF5
102
{ACAD_REACTORS
330
1BF4
102
}
330
1BF4
100
AcDbXrecord
280
     1
102
SHADEPLOT
 70
     0
  0
XRECORD
  5
1BF7
102
{ACAD_REACTORS
330
1BF6
102
}
330
1BF6
100
AcDbXrecord
280
     1
102
SHADEPLOT
 70
     0
  0
LAYOUT
  5
1B82
102
{ACAD_XDICTIONARY
360
1BA8
102
}
102
{ACAD_REACTORS
330
47F
102
}
330
47F
100
AcDbPlotSettings
  1

  2
pdfFactory
  4
Letter
  6

 40
7.143749713897705
 41
7.143756389617919
 42
7.14373779296875
 43
7.14373779296875
 44
215.8999938964844
 45
279.3999938964844
 46
0.0
 47
0.0
 48
0.0
 49
0.0
140
0.0
141
0.0
142
1.0
143
1.0
 70
   688
 72
     0
 73
     0
 74
     5
  7

 75
    16
147
1.0
148
0.0
149
0.0
100
AcDbLayout
  1
Layout1
 70
     1
 71
     1
 10
-0.2812499887361301
 20
-0.2812502515597606
 11
8.218749770967979
 21
10.71874950814435
 12
0.0
 22
0.0
 32
0.0
 14
0.0151977818636198
 24
0.0072784633460437
 34
-0.0015258207003583
 15
7.931762718516125
 25
10.42025759096753
 35
0.0000000349246037
146
0.0
 13
0.0
 23
0.0
 33
0.0
 16
1.0
 26
0.0
 36
0.0
 17
0.0
 27
1.0
 37
0.0
 76
     0
330
1B81
331
1B8F
1001
ACAD_PSEXT
1000
pdfFactory
1000
pdfFactory 2
1000
FPP2:
1000

1070
     0
  0
LAYOUT
  5
47E
102
{ACAD_XDICTIONARY
360
1BDF
102
}
102
{ACAD_REACTORS
330
47F
102
}
330
47F
100
AcDbPlotSettings
  1

  2
pdfFactory
  4
User272
  6

 40
7.143749713897705
 41
7.143756389617919
 42
7.14373779296875
 43
7.14373779296875
 44
215.8999938964844
 45
279.3999938964844
 46
8.889999999999998
 47
5.333999999999999
 48
5.274636613324736
 49
3.224169506195529
140
12.51463661332473
141
13.24916950619553
142
1.0
143
1.0
 70
 11956
 72
     0
 73
     0
 74
     4
  7
Default R14 pen assignments.ctb
 75
    16
147
1.0
148
-133.9757699784483
149
-81.89390545736644
100
AcDbLayout
  1
Model
 70
     1
 71
     0
 10
0.0
 20
0.0
 11
12.0
 21
9.0
 12
0.0
 22
0.0
 32
0.0
 14
0.0
 24
0.0
 34
0.0
 15
0.0
 25
0.0
 35
0.0
146
0.0
 13
0.0
 23
0.0
 33
0.0
 16
1.0
 26
0.0
 36
0.0
 17
0.0
 27
1.0
 37
0.0
 76
     0
330
2
331
1939
  0
MATERIAL
  5
193C
102
{ACAD_XDICTIONARY
360
1BE9
102
}
102
{ACAD_REACTORS
330
1404
102
}
330
1404
100
AcDbMaterial
  1
ByBlock
  0
MATERIAL
  5
193B
102
{ACAD_XDICTIONARY
360
1BE7
102
}
102
{ACAD_REACTORS
330
1404
102
}
330
1404
100
AcDbMaterial
  1
ByLayer
  0
MATERIAL
  5
193D
102
{ACAD_XDICTIONARY
360
1BEB
102
}
102
{ACAD_REACTORS
330
1404
102
}
330
1404
100
AcDbMaterial
  1
Global
  0
MLINESTYLE
  5
4CC
102
{ACAD_REACTORS
330
4CA
102
}
330
4CA
100
AcDbMlineStyle
  2
STANDARD
 70
     0
  3

 62
   256
 51
90.0
 52
90.0
 71
     2
 49
0.5
 62
   256
  6
BYLAYER
 49
-0.5
 62
   256
  6
BYLAYER
  0
PLOTSETTINGS
  5
670
102
{ACAD_XDICTIONARY
360
1BE3
102
}
102
{ACAD_REACTORS
330
4CB
102
}
330
4CB
100
AcDbPlotSettings
  1
8.5X11
  2
HP DeskJet 1120C BW (Copy 2)
  4
Letter
  6

 40
7.143749713897705
 41
13.49374103546142
 42
7.14373779296875
 43
3.757080078125
 44
215.8999938964844
 45
279.3999938964844
 46
-9.906
 47
-11.43
 48
-4.980964767400481
 49
2.145278892330803
140
12.46838773409616
141
24.58626705782814
142
1.0
143
2.0
 70
  1716
 72
     0
 73
     0
 74
     4
  7
Default R14 pen assignments.ctb
 75
    17
147
0.5
148
126.5165050919722
149
-54.4900838652024
  0
PLOTSETTINGS
  5
675
102
{ACAD_XDICTIONARY
360
1BE5
102
}
102
{ACAD_REACTORS
330
4CB
102
}
330
4CB
100
AcDbPlotSettings
  1
8X10
  2
HP DeskJet 1120C BW (Copy 2)
  4
User273
  6

 40
5.873749732971191
 41
13.49374103546142
 42
5.704421997070312
 43
3.757080078125
 44
215.8999938964844
 45
279.3999938964844
 46
-0.254
 47
-3.556
 48
-4.566310289060632
 49
2.452162654035966
140
11.9454594588133
141
24.20322671175697
142
1.0
143
2.049999999999999
 70
  1700
 72
     0
 73
     0
 74
     4
  7
Default R14 pen assignments.ctb
 75
     0
147
0.4878048780487806
148
115.98428134214
149
-62.28493141251355
  0
ACDBPLACEHOLDER
  5
5
102
{ACAD_REACTORS
330
6
102
}
330
6
  0
TABLESTYLE
  5
1950
102
{ACAD_XDICTIONARY
360
1BED
102
}
102
{ACAD_REACTORS
330
194F
102
}
330
194F
100
AcDbTableStyle
  3
Standard
 70
     0
 71
     0
 40
0.06
 41
0.06
280
     0
281
     0
  7
STANDARD
140
0.18
170
     2
 62
     0
 63
     7
283
     0
274
    -2
284
     1
 64
     0
275
    -2
285
     1
 65
     0
276
    -2
286
     1
 66
     0
277
    -2
287
     1
 67
     0
278
    -2
288
     1
 68
     0
279
    -2
289
     1
 69
     0
  7
STANDARD
140
0.25
170
     5
 62
     0
 63
     7
283
     0
274
    -2
284
     1
 64
     0
275
    -2
285
     1
 65
     0
276
    -2
286
     1
 66
     0
277
    -2
287
     1
 67
     0
278
    -2
288
     1
 68
     0
279
    -2
289
     1
 69
     0
  7
STANDARD
140
0.18
170
     5
 62
     0
 63
     7
283
     0
274
    -2
284
     1
 64
     0
275
    -2
285
     1
 65
     0
276
    -2
286
     1
 66
     0
277
    -2
287
     1
 67
     0
278
    -2
288
     1
 68
     0
279
    -2
289
     1
 69
     0
  0
VISUALSTYLE
  5
1944
102
{ACAD_REACTORS
330
193E
102
}
330
193E
100
AcDbVisualStyle
  2
2dWireframe
 70
     4
 71
     0
 72
     2
 73
     0
 90
        0
 40
-0.6
 41
-30.0
 62
     5
 63
     7
 74
     1
 91
        4
 64
     7
 65
   257
 75
     1
175
     1
 42
1.0
 92
        0
 66
   257
 43
1.0
 76
     1
 77
     6
 78
     2
 67
     7
 79
     5
170
     0
171
     0
290
     0
174
     0
 93
        1
 44
0.0
173
     0
291
     0
 45
0.0
1001
ACAD
1000
AcDbSavedByObjectVersion
1070
     0
  0
VISUALSTYLE
  5
1946
102
{ACAD_REACTORS
330
193E
102
}
330
193E
100
AcDbVisualStyle
  2
3D Hidden
 70
     6
 71
     1
 72
     2
 73
     2
 90
        0
 40
-0.6
 41
-30.0
 62
     5
 63
     7
 74
     2
 91
        2
 64
     7
 65
   257
 75
     2
175
     1
 42
40.0
 92
        0
 66
   257
 43
1.0
 76
     1
 77
     6
 78
     2
 67
     7
 79
     3
170
     0
171
     0
290
     0
174
     0
 93
        1
 44
0.0
173
     0
291
     0
 45
0.0
1001
ACAD
1000
AcDbSavedByObjectVersion
1070
     0
  0
VISUALSTYLE
  5
1945
102
{ACAD_REACTORS
330
193E
102
}
330
193E
100
AcDbVisualStyle
  2
3dWireframe
 70
     5
 71
     0
 72
     2
 73
     0
 90
        0
 40
-0.6
 41
-30.0
 62
     5
 63
     7
 74
     1
 91
        4
 64
     7
 65
   257
 75
     1
175
     1
 42
1.0
 92
        0
 66
   257
 43
1.0
 76
     1
 77
     6
 78
     2
 67
     7
 79
     5
170
     0
171
     0
290
     0
174
     0
 93
        1
 44
0.0
173
     0
291
     0
 45
0.0
1001
ACAD
1000
AcDbSavedByObjectVersion
1070
     0
  0
VISUALSTYLE
  5
1943
102
{ACAD_REACTORS
330
193E
102
}
330
193E
100
AcDbVisualStyle
  2
Basic
 70
     7
 71
     1
 72
     0
 73
     1
 90
        0
 40
-0.6
 41
-30.0
 62
     5
 63
     7
 74
     0
 91
        4
 64
     7
 65
   257
 75
     1
175
     1
 42
1.0
 92
        8
 66
     7
 43
1.0
 76
     1
 77
     6
 78
     2
 67
     7
 79
     5
170
     0
171
     0
290
     0
174
     0
 93
        1
 44
0.0
173
     0
291
     1
 45
0.0
1001
ACAD
1000
AcDbSavedByObjectVersion
1070
     0
  0
VISUALSTYLE
  5
194A
102
{ACAD_REACTORS
330
193E
102
}
330
193E
100
AcDbVisualStyle
  2
Brighten
 70
    12
 71
     2
 72
     2
 73
     0
 90
        0
 40
-0.6
 41
-30.0
 62
     5
 63
     7
 74
     1
 91
        4
 64
     7
 65
   257
 75
     1
175
     1
 42
1.0
 92
        8
 66
     7
 43
1.0
 76
     1
 77
     6
 78
     2
 67
     7
 79
     5
170
     0
171
     0
290
     0
174
     0
 93
        1
 44
50.0
173
     0
291
     1
 45
0.0
1001
ACAD
1000
AcDbSavedByObjectVersion
1070
     0
  0
VISUALSTYLE
  5
194E
102
{ACAD_REACTORS
330
193E
102
}
330
193E
100
AcDbVisualStyle
  2
ColorChange
 70
    16
 71
     2
 72
     2
 73
     3
 90
        0
 40
-0.6
 41
-30.0
 62
     5
 63
     8
 74
     1
 91
        4
 64
     7
 65
   257
 75
     1
175
     1
 42
1.0
 92
        8
 66
     8
 43
1.0
 76
     1
 77
     6
 78
     2
 67
     7
 79
     5
170
     0
171
     0
290
     0
174
     0
 93
        1
 44
0.0
173
     0
291
     1
 45
0.0
1001
ACAD
1000
AcDbSavedByObjectVersion
1070
     0
  0
VISUALSTYLE
  5
1947
102
{ACAD_REACTORS
330
193E
102
}
330
193E
100
AcDbVisualStyle
  2
Conceptual
 70
     9
 71
     3
 72
     2
 73
     0
 90
        0
 40
-0.6
 41
-30.0
 62
     5
 63
     7
 74
     2
 91
        2
 64
     7
 65
   257
 75
     1
175
     1
 42
40.0
 92
        8
 66
     7
 43
1.0
 76
     1
 77
     6
 78
     2
 67
     7
 79
     3
170
     0
171
     0
290
     0
174
     0
 93
        1
 44
0.0
173
     0
291
     0
 45
0.0
1001
ACAD
1000
AcDbSavedByObjectVersion
1070
     0
  0
VISUALSTYLE
  5
1949
102
{ACAD_REACTORS
330
193E
102
}
330
193E
100
AcDbVisualStyle
  2
Dim
 70
    11
 71
     2
 72
     2
 73
     0
 90
        0
 40
-0.6
 41
-30.0
 62
     5
 63
     7
 74
     1
 91
        4
 64
     7
 65
   257
 75
     1
175
     1
 42
1.0
 92
        8
 66
     7
 43
1.0
 76
     1
 77
     6
 78
     2
 67
     7
 79
     5
170
     0
171
     0
290
     0
174
     0
 93
        1
 44
-50.0
173
     0
291
     1
 45
0.0
1001
ACAD
1000
AcDbSavedByObjectVersion
1070
     0
  0
VISUALSTYLE
  5
194D
102
{ACAD_REACTORS
330
193E
102
}
330
193E
100
AcDbVisualStyle
  2
Facepattern
 70
    15
 71
     2
 72
     2
 73
     0
 90
        0
 40
-0.6
 41
-30.0
 62
     5
 63
     7
 74
     1
 91
        4
 64
     7
 65
   257
 75
     1
175
     1
 42
1.0
 92
        8
 66
     7
 43
1.0
 76
     1
 77
     6
 78
     2
 67
     7
 79
     5
170
     0
171
     0
290
     0
174
     0
 93
        1
 44
0.0
173
     0
291
     1
 45
0.0
1001
ACAD
1000
AcDbSavedByObjectVersion
1070
     0
  0
VISUALSTYLE
  5
193F
102
{ACAD_REACTORS
330
193E
102
}
330
193E
100
AcDbVisualStyle
  2
Flat
 70
     0
 71
     2
 72
     1
 73
     1
 90
        2
 40
-0.6
 41
30.0
 62
     5
 63
     7
 74
     0
 91
        4
 64
     7
 65
   257
 75
     1
175
     1
 42
1.0
 92
        8
 66
     7
 43
1.0
 76
     1
 77
     6
 78
     2
 67
     7
 79
     5
170
     0
171
     0
290
     0
174
     0
 93
       13
 44
0.0
173
     0
291
     1
 45
0.0
1001
ACAD
1000
AcDbSavedByObjectVersion
1070
     0
  0
VISUALSTYLE
  5
1940
102
{ACAD_REACTORS
330
193E
102
}
330
193E
100
AcDbVisualStyle
  2
FlatWithEdges
 70
     1
 71
     2
 72
     1
 73
     1
 90
        2
 40
-0.6
 41
30.0
 62
     5
 63
     7
 74
     1
 91
        4
 64
     7
 65
   257
 75
     1
175
     1
 42
1.0
 92
        0
 66
   257
 43
1.0
 76
     1
 77
     6
 78
     2
 67
     7
 79
     5
170
     0
171
     0
290
     0
174
     0
 93
       13
 44
0.0
173
     0
291
     1
 45
0.0
1001
ACAD
1000
AcDbSavedByObjectVersion
1070
     0
  0
VISUALSTYLE
  5
1941
102
{ACAD_REACTORS
330
193E
102
}
330
193E
100
AcDbVisualStyle
  2
Gouraud
 70
     2
 71
     2
 72
     2
 73
     1
 90
        2
 40
-0.6
 41
30.0
 62
     5
 63
     7
 74
     0
 91
        4
 64
     7
 65
   257
 75
     1
175
     1
 42
1.0
 92
        0
 66
     7
 43
1.0
 76
     1
 77
     6
 78
     2
 67
     7
 79
     5
170
     0
171
     0
290
     0
174
     0
 93
       13
 44
0.0
173
     0
291
     1
 45
0.0
1001
ACAD
1000
AcDbSavedByObjectVersion
1070
     0
  0
VISUALSTYLE
  5
1942
102
{ACAD_REACTORS
330
193E
102
}
330
193E
100
AcDbVisualStyle
  2
GouraudWithEdges
 70
     3
 71
     2
 72
     2
 73
     1
 90
        2
 40
-0.6
 41
30.0
 62
     5
 63
     7
 74
     1
 91
        4
 64
     7
 65
   257
 75
     1
175
     1
 42
1.0
 92
        0
 66
   257
 43
1.0
 76
     1
 77
     6
 78
     2
 67
     7
 79
     5
170
     0
171
     0
290
     0
174
     0
 93
       13
 44
0.0
173
     0
291
     1
 45
0.0
1001
ACAD
1000
AcDbSavedByObjectVersion
1070
     0
  0
VISUALSTYLE
  5
194C
102
{ACAD_REACTORS
330
193E
102
}
330
193E
100
AcDbVisualStyle
  2
Linepattern
 70
    14
 71
     2
 72
     2
 73
     0
 90
        0
 40
-0.6
 41
-30.0
 62
     5
 63
     7
 74
     1
 91
        4
 64
     7
 65
   257
 75
     7
175
     7
 42
1.0
 92
        8
 66
     7
 43
1.0
 76
     1
 77
     6
 78
     2
 67
     7
 79
     5
170
     0
171
     0
290
     0
174
     0
 93
        1
 44
0.0
173
     0
291
     1
 45
0.0
1001
ACAD
1000
AcDbSavedByObjectVersion
1070
     0
  0
VISUALSTYLE
  5
1948
102
{ACAD_REACTORS
330
193E
102
}
330
193E
100
AcDbVisualStyle
  2
Realistic
 70
     8
 71
     2
 72
     2
 73
     0
 90
        0
 40
-0.6
 41
-30.0
 62
     5
 63
     7
 74
     1
 91
        0
 64
     7
 65
   257
 75
     1
175
     1
 42
1.0
 92
        8
 66
     8
 43
1.0
 76
     1
 77
     6
 78
     2
 67
     7
 79
     5
170
     0
171
     0
290
     0
174
     0
 93
       13
 44
0.0
173
     0
291
     0
 45
0.0
1001
ACAD
1000
AcDbSavedByObjectVersion
1070
     0
  0
VISUALSTYLE
  5
194B
102
{ACAD_REACTORS
330
193E
102
}
330
193E
100
AcDbVisualStyle
  2
Thicken
 70
    13
 71
     2
 72
     2
 73
     0
 90
        0
 40
-0.6
 41
-30.0
 62
     5
 63
     7
 74
     1
 91
        4
 64
     7
 65
   257
 75
     1
175
     1
 42
1.0
 92
       12
 66
     7
 43
1.0
 76
     1
 77
     6
 78
     2
 67
     7
 79
     5
170
     0
171
     0
290
     0
174
     0
 93
        1
 44
0.0
173
     0
291
     1
 45
0.0
1001
ACAD
1000
AcDbSavedByObjectVersion
1070
     0
  0
DICTIONARYVAR
  5
195C
102
{ACAD_REACTORS
330
859
102
}
330
859
100
DictionaryVariables
280
     0
  1
STANDARD
  0
DICTIONARYVAR
  5
1430
102
{ACAD_REACTORS
330
859
102
}
330
859
100
DictionaryVariables
280
     0
  1
1
  0
DICTIONARYVAR
  5
1B6A
102
{ACAD_REACTORS
330
859
102
}
330
859
100
DictionaryVariables
280
     0
  1
0
  0
DICTIONARYVAR
  5
1431
102
{ACAD_REACTORS
330
859
102
}
330
859
100
DictionaryVariables
280
     0
  1

  0
DICTIONARYVAR
  5
85A
102
{ACAD_REACTORS
330
859
102
}
330
859
100
DictionaryVariables
280
     0
  1
96
  0
XRECORD
  5
1938
102
{ACAD_REACTORS
330
18DD
102
}
330
18DD
100
AcDbXrecord
280
     1
  1
1
  0
XRECORD
  5
1937
102
{ACAD_REACTORS
330
18DD
102
}
330
18DD
100
AcDbXrecord
280
     1
  1
1
  0
DICTIONARY
  5
1BA8
330
1B82
100
AcDbDictionary
280
     1
281
     1
  3
ACAD_XREC_ROUNDTRIP
360
1BF3
  3
ADSK_XREC_LAYOUTTHUMBNAIL
360
1BA9
  0
DICTIONARY
  5
1BDF
330
47E
100
AcDbDictionary
280
     1
281
     1
  3
ACAD_XREC_ROUNDTRIP
360
1BE0
  0
DICTIONARY
  5
1BE9
330
193C
100
AcDbDictionary
280
     1
281
     1
  3
ACAD_XREC_ROUNDTRIP
360
1BEA
  0
DICTIONARY
  5
1BE7
330
193B
100
AcDbDictionary
280
     1
281
     1
  3
ACAD_XREC_ROUNDTRIP
360
1BE8
  0
DICTIONARY
  5
1BEB
330
193D
100
AcDbDictionary
280
     1
281
     1
  3
ACAD_XREC_ROUNDTRIP
360
1BEC
  0
DICTIONARY
  5
1BE3
330
670
100
AcDbDictionary
280
     1
281
     1
  3
ACAD_XREC_ROUNDTRIP
360
1BE4
  0
DICTIONARY
  5
1BE5
330
675
100
AcDbDictionary
280
     1
281
     1
  3
ACAD_XREC_ROUNDTRIP
360
1BE6
  0
DICTIONARY
  5
1BED
330
1950
100
AcDbDictionary
280
     1
281
     1
  3
ACAD_XREC_ROUNDTRIP
360
1BEE
  0
XRECORD
  5
1BF3
102
{ACAD_REACTORS
330
1BA8
102
}
330
1BA8
100
AcDbXrecord
280
     1
102
SHADEPLOT
 70
     0
102
SHADEPLOTRESLEVEL
 70
     2
102
SHADEPLOTCUSTOMDPI
 70
   300
  0
XRECORD
  5
1BA9
102
{ACAD_REACTORS
330
1BA8
102
}
330
1BA8
100
AcDbXrecord
280
     1
310
280000006C0000008C0000000100080000000000103B000000000000000000000001000000000000FFFFFF0000000000FFFFFF000000000000000000000000000000000000000000000000000000000000000000330000006600000099000000CC000000FF00000000330000333300006633000099330000CC330000FF3300
310
0000660000336600006666000099660000CC660000FF66000000990000339900006699000099990000CC990000FF99000000CC000033CC000066CC000099CC0000CCCC0000FFCC000000FF000033FF000066FF000099FF0000CCFF0000FFFF000000003300330033006600330099003300CC003300FF003300003333003333
310
33006633330099333300CC333300FF33330000663300336633006666330099663300CC663300FF66330000993300339933006699330099993300CC993300FF99330000CC330033CC330066CC330099CC3300CCCC3300FFCC330000FF330033FF330066FF330099FF3300CCFF3300FFFF330000006600330066006600660099
310
006600CC006600FF00660000336600333366006633660099336600CC336600FF33660000666600336666006666660099666600CC666600FF66660000996600339966006699660099996600CC996600FF99660000CC660033CC660066CC660099CC6600CCCC6600FFCC660000FF660033FF660066FF660099FF6600CCFF6600
310
FFFF660000009900330099006600990099009900CC009900FF00990000339900333399006633990099339900CC339900FF33990000669900336699006666990099669900CC669900FF66990000999900339999006699990099999900CC999900FF99990000CC990033CC990066CC990099CC9900CCCC9900FFCC990000FF99
310
0033FF990066FF990099FF9900CCFF9900FFFF99000000CC003300CC006600CC009900CC00CC00CC00FF00CC000033CC003333CC006633CC009933CC00CC33CC00FF33CC000066CC003366CC006666CC009966CC00CC66CC00FF66CC000099CC003399CC006699CC009999CC00CC99CC00FF99CC0000CCCC0033CCCC0066CC
310
CC0099CCCC00CCCCCC00FFCCCC0000FFCC0033FFCC0066FFCC0099FFCC00CCFFCC00FFFFCC000000FF003300FF006600FF009900FF00CC00FF00FF00FF000033FF003333FF006633FF009933FF00CC33FF00FF33FF000066FF003366FF006666FF009966FF00CC66FF00FF66FF000099FF003399FF006699FF009999FF00CC
310
99FF00FF99FF0000CCFF0033CCFF0066CCFF0099CCFF00CCCCFF00FFCCFF0000FFFF0033FFFF0066FFFF0099FFFF00CCFFFF00FFFFFF00000000000D0D0D001A1A1A00282828003535350043434300505050005D5D5D006B6B6B00787878008686860093939300A1A1A100AEAEAE00BBBBBB00C9C9C900D6D6D600E4E4E400
310
F1F1F100FFFFFF0000000000000000000000000000000000000000000000000000000000000000000000000000000000E2E2E2E2E2E2E2E2E2E2E2E2E2E2E2E2E2E2E2E2E2E2E2E2E2E2E2E2E2E2E2E2E2E2E2E2E2E2E2E2E2E2E2E2E2E2E2E2E2E2E2E2E2E2E2E2E2E2E2E2E2E2E2E2E2E2E2E2E2E2E2E2E2E2E2E2E2E2E2
310
E2E2E2E2E2E2E2E2E2E2E2E2E2E2E2E2E2E2E2E2E2E2E2E2E2E2E2E2E2E2F5F5F5F5F5F5F5F5F5F5F5F5F5F5F5F5F5F5F5F5F5F5F5F5F5F5F5F5F5F5F5F5F5F5F5F5F5F5F5F5F5F5F5F5F5F5F5F5F5F5F5F5F5F5F5F5F5F5F5F5F5F5F5F5F5F5F5F5F5F5F5F5F5F5F5F5F5F5F5F5F5F5F5F5F5F5F5F5F5F5F5F5F5F5F5F5F5
310
F5F5F5F5F5F5F5F5F5F5E2F5F5F5F5F5F5F5F5F5F5F5F5F5F5F5F5F5F5F5F5F5F5F5F5F5F5F5F5F5F5F5F5F5F5F5F5F5F5F5F5F5F5F5F5F5F5F5F5F5F5F5F5F5F5F5F5F5F5F5F5F5F5F5F5F5F5F5F5F5F5F5F5F5F5F5F5F5F5F5F5F5F5F5F5F5F5F5F5F5F5F5F5F5F5F5F5F5F5F5F5F5F5F5F5F5F5F5E2F5F5F5F5F5F5F5F5
310
F5F5F5F5F5F5F5F5F5F5F5F5F5F5F5F5F5F5F5F5F5F5F5F5F5F5F5F5F5F5F5F5F5F5F5F5F5F5F5F5F5F5F5F5F5F5F5F5F5F5F5F5F5F5F5F5F5F5F5F5F5F5F5F5F5F5F5F5F5F5F5F5F5F5F5F5F5F5F5F5F5F5F5F5F5F5F5F5F5F5F5F5F5F5F5F5F5F5F5E2F5F5F5E2E2E2E2E2E2E2E2E2E2E2E2E2E2E2E2E2E2E2E2E2E2E2E2
310
E2E2E2E2E2E2E2E2E2E2E2E2E2E2E2E2E2E2E2E2E2E2E2E2E2E2E2E2E2E2E2E2E2E2E2E2E2E2E2E2E2E2E2E2E2E2E2E2E2E2E2E2E2E2E2E2E2E2E2E2E2E2E2E2E2E2E2E2E2E2E2E2E2E2E2E2E2F5F5F5E2F5F5F5E2F5F5F5F5F5F5F5F5F5F5F5F5F5F5F5F5F5F5F5F5F5F5F5F5F5F5F5F5F5F5F5F5F5F5F5F5F5F5F5F5F5F5
310
F5F5F5F5F5F5F5F5F5F5F5F5F5F5F5F5F5F5F5F5F5F5F5F5F5F5F5F5F5F5F5F5F5F5F5F5F5F5F5F5F5F5F5F5F5F5F5F5F5F5F5F5F5F5F5F5F5E2F5F5F5E2F5F5F5E2F5F5E2E2E2E2E2E2E2E2E2E2E2E2E2E2E2E2E2E2E2E2E2E2E2E2E2E2E2E2E2E2E2E2E2E2E2E2E2E2E2E2E2E2E2E2E2E2E2E2E2E2E2E2E2E2E2E2E2E2E2
310
E2E2E2E2E2E2E2E2E2E2E2E2E2E2E2E2E2E2E2E2E2E2E2E2E2E2E2E2E2E2E2E2E2E2E2F5F5F5E2F5F5F5E2F5F5F5E2F5F5E2E2F5F5F5F5F5F5F5F5F5F5F5F5F5F5F5F5F5F5F5F5F5F5F5F5F5F5F5F5F5F5F5F5F5F5F5F5F5F5F5F5F5F5E2E2E2E2F5F5E2E2F5F5F5F5F5E2F5F5F5F5F5F5F5F5F5F5F5F5F5F5F5F5F5F5E2E2
310
E2E2F5F5F5F5F5F5F5F5F5F5F5F5F5E2F5F5F5E2F5F5F5E2F5F5F5E2F5F5E2E2F5F5F5F5F5F5F5F5F5F5F5F5F5F5F5F5F5F5F5F5F5F5F5F5F5F5F5F5F5F5F5F5F5F5F5F5F5F5F5F5F5F5E2E2E2F5F5E2E2E2F5F5F5F5F5E2F5F5F5F5F5F5F5F5F5F5F5F5F5F5F5F5F5F5E2E2F5E2F5F5F5F5F5F5F5F5F5F5F5F5F5E2F5F5F5
310
E2F5F5F5E2F5F5F5E2F5F5E2E2F5F5F5F5F5F5F5F5F5F5F5F5F5F5F5F5F5F5F5F5F5F5F5F5F5F5F5F5F5F5F5F5F5F5F5F5F5F5F5F5F5F5E2E2E2E2E2E2E2E2E2E2E2E2E2E2E2E2E2E2E2E2E2E2E2E2E2E2E2E2E2E2E2E2E2E2E2E2E2E2E2E2E2E2E2E2E2E2E2E2E2E2F5F5F5E2F5F5F5E2F5F5F5E2F5F5E2E2F5F5F5F5F5F5
310
F5F5F5F5F5F5F5F5F5F5F5F5F5F5F5F5F5F5F5F5F5F5F5F5F5F5F5F5F5F5F5F5F5F5F5F5E2E2E2E2E2F5F5E2F5F5F5F5F5F5F5F5F5F5F5F5F5F5E2F5F5F5F5F5F5F5F5F5F5F5F5F5F5F5F5F5F5F5F5F5E2F5E2E2E2E2F5F5F5E2F5F5F5E2F5F5F5E2F5F5E2E2F5F5F5F5F5F5F5F5F5F5F5F5F5F5F5F5F5F5F5F5F5F5F5F5F5
310
F5F5F5F5F5F5F5F5F5F5F5F5F5F5F5F5F5E2F5E2E2E2F5F5E2F5F5F5F5F5F5F5F5F5F5F5F5F5F5E2F5F5F5F5F5F5F5F5F5F5F5F5F5F5F5F5F5F5F5F5F5E2F5E2E2E2E2F5F5F5E2F5F5F5E2F5F5F5E2F5F5E2E2E2E2E2E2E2E2E2E2E2E2E2E2E2E2E2E2E2E2E2E2E2E2E2E2E2E2E2E2E2E2E2E2E2E2E2E2E2E2E2E2E2E2E2E2
310
E2E2E2F5F5E2E2E2E2E2F5F5F5F5F5F5F5F5F5F5E2E2E2E2E2E2F5F5F5F5F5F5F5F5F5F5F5F5F5F5F5F5E2E2E2E2F5E2F5F5F5E2F5F5F5E2F5F5F5E2F5F5E2E2F5E2E2E2E2E2E2E2E2E2E2F5E2E2E2E2E2E2E2E2E2F5E2E2E2E2F5F5F5F5F5F5F5F5F5F5F5F5F5F5F5F5E2E2E2E2F5F5F5E2E2E2E2E2F5F5F5F5F5F5F5F5F5
310
F5E2E2E2E2E2E2F5F5F5F5F5F5F5F5F5F5F5F5F5F5F5F5E2E2E2E2E2E2F5F5F5E2F5F5F5E2F5F5F5E2F5F5E2E2F5E2E2E2E2E2E2E2E2E2E2F5E2E2E2E2E2E2E2E2E2F5E2E2E2E2F5F5F5F5F5F5F5F5F5F5F5F5F5F5F5F5E2E2E2E2E2E2E2E2E2E2E2E2E2E2E2E2E2E2E2E2E2E2E2E2E2E2E2E2E2E2E2E2E2E2E2E2E2E2E2E2
310
E2E2E2E2E2E2E2E2E2E2F5F5F5E2F5F5F5E2F5F5F5E2F5F5E2E2F5E2E2E2E2E2E2E2F5E2E2F5E2E2E2E2E2E2E2E2E2E2E2E2E2E2F5E2E2E2E2E2E2E2E2E2E2E2F5F5F5F5E2F5F5F5F5F5F5F5F5F5F5F5F5F5F5F5F5F5F5F5F5F5F5F5F5F5F5F5F5F5F5F5F5F5F5F5F5F5F5F5F5F5F5F5F5F5F5F5F5E2F5F5F5E2F5F5F5E2F5
310
F5F5E2F5F5E2E2F5E2E2E2E2E2E2E2F5E2E2F5E2F5E2E2E2E2E2E2E2E2E2E2E2E2F5E2E2E2E2E2E2E2E2E2E2E2F5F5F5F5E2F5F5F5F5F5F5F5F5F5F5F5F5F5F5F5F5F5F5F5F5F5F5F5F5F5F5F5F5F5F5F5F5F5F5F5F5F5F5F5F5F5F5F5F5F5F5F5F5E2F5F5F5E2F5F5F5E2F5F5F5E2F5F5E2E2F5F5F5F5F5F5F5F5F5F5F5F5
310
F5F5F5F5F5F5F5F5F5F5F5F5F5F5F5F5F5F5F5F5F5F5F5F5F5F5F5F5F5F5E2F5F5F5F5F5E2E2E2E2E2E2E2E2E2E2E2E2E2E2E2E2E2E2E2E2E2E2E2E2E2E2E2E2E2E2E2E2F5F5F5F5F5F5F5F5F5F5F5E2F5F5F5E2F5F5F5E2F5F5F5E2F5F5E2E2E2E2E2E2E2E2E2E2E2E2E2E2E2E2E2E2E2E2E2E2E2E2E2E2E2E2E2E2E2E2E2
310
E2E2E2E2E2E2E2E2E2E2E2E2F5F5F5F5F5E2E2E2E2E2E2E2E2F5E2F5F5E2E2F5E2E2E2E2E2F5E2E2E2E2E2E2E2E2E2E2F5F5F5F5F5F5F5F5F5F5F5F5E2F5F5F5E2F5F5F5E2F5F5F5E2F5F5E2E2F5E2E2E2E2E2E2E2E2E2E2E2E2F5F5E2E2F5E2E2E2E2E2E2E2E2E2F5E2E2E2E2F5F5F5F5F5F5F5F5F5F5E2F5F5F5F5F5F5F5
310
F5F5F5F5F5F5F5F5F5F5F5F5F5F5F5F5F5F5F5F5F5F5F5F5F5F5F5F5F5F5F5F5F5F5F5F5F5F5F5F5F5E2F5F5F5E2F5F5F5E2F5F5F5E2F5F5E2E2F5E2E2E2E2E2E2E2E2E2E2E2E2F5F5E2E2F5E2E2E2E2E2E2E2E2E2F5E2E2F5E2F5F5F5F5F5F5F5F5F5F5E2E2E2E2F5F5F5F5F5F5F5F5F5F5F5F5F5F5F5F5F5F5F5F5F5F5F5
310
F5F5F5F5F5F5F5F5F5F5F5F5F5F5F5F5F5F5F5F5F5F5E2F5F5F5E2F5F5F5E2F5F5F5E2F5F5E2E2F5F5F5F5F5F5F5F5F5F5F5F5F5F5F5F5F5F5F5F5F5F5F5F5F5F5F5F5F5F5F5F5F5F5F5F5F5F5F5F5F5F5E2E2E2E2F5F5F5F5F5F5F5F5F5F5F5F5F5F5F5F5F5F5F5F5F5F5F5F5F5F5F5F5F5F5F5F5F5F5F5F5F5F5F5F5F5F5
310
F5F5F5E2F5F5F5E2F5F5F5E2F5F5F5E2F5F5E2E2F5F5F5F5F5F5F5F5F5F5F5F5F5F5F5F5F5F5F5F5F5F5F5F5F5F5F5F5F5F5F5F5F5F5F5F5F5F5F5F5F5F5E2E2E2E2E2E2E2E2E2E2E2E2E2E2E2E2E2E2E2E2E2E2E2E2E2E2E2E2E2E2E2E2E2E2E2E2E2E2E2E2E2E2E2E2E2E2E2E2E2E2F5F5F5E2F5F5F5E2F5F5F5E2F5F5E2
310
E2F5E2E2E2E2E2E2E2E2E2E2E2E2E2F5E2E2F5E2F5F5F5F5F5F5F5F5F5F5F5F5F5F5F5F5F5F5F5F5F5F5F5E2F5F5F5F5F5F5F5F5F5F5F5F5F5F5F5F5F5F5F5F5F5F5F5F5F5F5F5F5F5F5F5F5F5F5F5F5F5F5F5F5F5F5F5F5F5F5F5F5E2F5F5F5E2F5F5F5E2F5F5F5E2F5F5E2E2F5E2F5E2E2F5E2E2F5F5E2F5F5E2F5E2E2E2
310
E2F5F5F5F5F5F5F5F5F5F5F5F5F5F5F5F5F5F5F5F5F5F5F5E2F5F5F5F5F5F5F5F5F5F5F5F5F5F5F5F5F5F5F5F5F5F5F5F5F5F5F5F5F5F5F5F5F5F5F5F5F5F5F5F5F5F5F5F5F5F5F5F5E2F5F5F5E2F5F5F5E2F5F5F5E2F5F5E2E2F5E2E2F5E2F5E2E2F5F5E2E2F5E2E2E2F5E2F5F5F5F5F5F5F5F5F5F5F5F5F5F5F5F5F5F5F5
310
F5F5F5F5F5E2F5F5F5F5F5F5F5F5F5F5F5F5F5F5F5F5F5F5F5F5F5F5F5F5F5F5F5F5F5F5F5F5F5F5F5F5F5F5F5F5F5F5F5F5F5F5F5F5E2F5F5F5E2F5F5F5E2F5F5F5E2F5F5E2E2F5E2E2E2E2E2E2E2F5F5E2E2E2E2E2E2F5E2F5F5F5F5F5F5F5F5F5F5F5F5F5F5F5F5F5F5F5F5F5F5F5F5E2E2E2E2E2E2F5F5F5F5F5F5F5F5
310
F5F5F5F5F5F5F5F5F5F5F5F5F5F5F5F5F5F5F5F5F5F5F5F5F5F5F5F5F5F5F5F5F5F5F5E2F5F5F5E2F5F5F5E2F5F5F5E2F5F5E2E2F5F5F5F5F5F5F5F5F5F5F5F5F5F5F5F5F5F5F5F5F5F5F5F5F5F5F5F5F5F5F5F5F5F5F5F5F5F5F5F5F5F5E2E2E2E2E2E2F5F5F5F5F5F5F5F5F5F5F5F5F5F5F5F5F5F5F5F5F5F5F5F5F5F5F5
310
F5F5F5F5F5F5F5F5F5F5F5F5F5F5F5F5E2F5F5F5E2F5F5F5E2F5F5F5E2F5F5E2E2E2E2E2E2E2E2E2E2E2E2E2E2E2E2E2E2E2E2E2E2E2E2E2E2E2E2E2E2E2E2E2E2E2E2E2E2E2E2E2E2E2E2E2E2E2E2E2E2E2E2E2E2E2E2E2E2E2E2E2E2E2E2E2E2E2E2E2E2E2E2E2E2E2E2E2E2E2E2E2E2E2E2E2E2E2E2E2E2E2E2E2E2F5F5
310
F5E2F5F5F5E2F5F5F5E2F5F5E2E2E2E2E2E2E2E2E2E2E2E2E2E2E2E2E2E2E2E2F5F5F5F5F5F5F5F5F5F5F5F5F5F5F5F5F5F5F5F5F5F5F5F5F5F5F5F5F5F5F5F5F5F5F5F5F5F5F5F5F5F5F5F5F5F5F5F5F5F5F5F5F5F5F5F5F5F5F5F5F5F5F5F5F5F5F5F5F5F5F5F5F5E2F5F5F5E2F5F5F5E2F5F5F5E2F5F5E2E2E2E2E2E2E2
310
E2E2E2E2E2E2E2E2E2E2E2E2E2F5F5F5F5F5F5F5F5F5F5F5F5F5F5F5F5F5F5F5F5F5F5F5F5F5F5F5F5F5F5F5F5F5F5F5F5F5F5F5F5F5F5F5F5F5F5F5F5F5F5F5F5F5F5F5F5F5F5F5F5F5F5F5F5F5F5F5F5F5F5F5F5F5E2F5F5F5E2F5F5F5E2F5F5F5E2F5F5E2E2F5F5F5F5F5F5F5F5F5F5F5F5F5F5F5F5F5F5F5F5F5F5F5F5
310
F5F5F5F5F5F5F5F5F5F5F5F5F5F5F5F5F5F5F5F5F5F5F5F5F5F5F5F5F5F5F5F5F5F5F5F5F5F5F5F5F5F5F5F5F5F5F5F5F5F5F5F5F5F5F5F5F5F5F5F5F5F5F5F5F5F5F5E2F5F5F5E2F5F5F5E2F5F5F5E2F5F5E2E2F5F5F5F5F5F5F5F5F5F5F5F5F5F5F5F5F5F5F5F5F5F5F5F5F5F5F5F5F5F5F5F5F5F5F5F5F5F5F5F5F5F5F5
310
F5F5F5F5F5F5F5F5F5F5F5F5F5F5F5F5F5F5F5F5F5F5F5F5F5F5F5F5F5F5F5F5F5F5F5F5F5F5F5F5F5F5F5F5F5F5F5F5E2F5F5F5E2F5F5F5E2F5F5F5E2F5F5E2E2F5F5F5F5F5F5F5F5F5F5F5F5F5F5F5F5F5F5F5F5F5F5F5F5F5F5F5F5F5F5F5F5F5F5F5F5F5F5F5F5F5F5F5F5F5F5F5F5F5F5F5F5F5F5F5E2F5F5F5F5F5F5
310
F5F5F5F5F5F5F5F5F5F5F5F5F5F5F5F5F5F5F5F5F5F5F5F5F5F5F5F5F5E2F5F5F5E2F5F5F5E2F5F5F5E2F5F5E2E2F5F5F5F5F5F5F5F5F5F5F5F5F5F5F5F5F5F5F5F5F5F5F5F5F5F5F5F5F5F5F5F5F5F5F5F5F5F5F5F5F5F5F5F5F5F5F5F5F5F5F5F5F5F5E2F5E2E2F5E2E2E2E2E2E2E2E2E2E2E2E2E2F5E2E2E2E2F5E2E2E2
310
E2E2E2E2E2E2F5F5F5F5E2F5F5F5E2F5F5F5E2F5F5F5E2F5F5E2E2F5F5F5F5F5F5F5F5F5F5F5F5F5F5F5F5F5F5F5F5F5F5F5F5F5F5F5F5F5F5F5F5F5F5F5F5F5F5F5F5F5F5F5F5F5F5F5F5F5F5F5F5F5F5E2F5E2E2F5E2E2E2E2E2E2E2E2E2E2E2E2E2F5E2E2E2E2E2E2E2E2E2E2E2E2E2E2F5F5F5F5E2F5F5F5E2F5F5F5E2
310
F5F5F5E2F5F5E2E2F5F5F5F5F5F5F5F5F5F5F5F5F5F5F5F5F5F5F5F5F5F5F5F5F5F5F5F5F5F5F5F5F5F5F5F5F5F5F5F5F5F5F5F5F5F5F5F5F5F5F5F5F5F5E2E2E2E2E2E2E2E2E2E2E2E2E2E2F5E2E2E2E2E2E2E2E2E2E2E2E2E2E2E2F5F5F5F5F5F5F5E2F5F5F5E2F5F5F5E2F5F5F5E2F5F5E2E2F5F5F5F5F5F5F5F5F5F5F5
310
F5F5F5F5F5F5F5F5F5F5F5F5F5F5F5F5F5F5F5F5F5F5F5F5F5F5F5F5F5F5F5F5F5F5F5F5F5F5F5F5F5F5F5E2E2E2E2E2E2E2E2E2E2E2E2E2E2F5E2E2E2E2E2E2E2E2E2E2E2E2E2E2E2F5F5F5F5F5F5F5E2F5F5F5E2F5F5F5E2F5F5F5E2F5F5E2E2F5F5F5F5F5F5F5F5F5F5F5F5F5F5F5F5F5F5F5F5F5F5F5F5F5F5F5F5F5F5
310
F5F5F5F5F5F5F5F5F5F5F5F5F5F5F5F5F5F5F5F5F5F5F5F5E2E2E2E2E2E2E2E2F5E2E2E2E2F5E2E2E2E2E2E2E2E2E2F5F5F5F5F5F5F5F5F5F5F5F5F5F5E2F5F5F5E2F5F5F5E2F5F5F5E2F5F5E2E2F5F5F5F5F5F5F5F5F5F5F5F5F5F5F5F5F5F5F5F5F5F5F5F5F5F5F5F5F5F5F5F5F5F5F5F5F5F5F5F5F5F5F5F5F5F5F5F5F5
310
F5F5F5F5F5E2E2E2E2E2E2E2E2E2E2E2E2E2F5E2E2E2E2E2E2E2E2E2F5E2E2F5F5F5F5F5F5F5F5F5F5F5E2F5F5F5E2F5F5F5E2F5F5F5E2F5F5E2E2F5F5F5F5F5F5F5F5F5F5F5F5F5F5F5F5F5F5F5F5F5F5F5F5F5F5F5F5F5F5F5F5F5F5F5F5F5F5F5F5F5F5F5F5F5F5F5F5F5F5F5F5F5F5E2E2E2E2E2E2E2E2E2E2E2E2E2E2
310
E2E2E2E2E2E2E2E2E2F5F5F5F5F5F5F5F5F5F5F5F5F5F5E2F5F5F5E2F5F5F5E2F5F5F5E2F5F5E2E2F5F5F5F5F5F5F5F5F5F5F5F5F5F5F5E2F5F5F5F5F5F5F5F5F5F5F5F5F5F5F5F5F5F5F5F5F5F5F5F5F5F5F5F5F5F5F5F5F5F5F5F5F5F5E2E2E2E2E2F5E2E2F5F5F5F5F5F5F5F5F5F5F5F5F5F5F5F5F5F5F5F5F5F5F5F5F5
310
F5F5F5F5E2F5F5F5E2F5F5F5E2F5F5F5E2F5F5E2E2F5F5F5F5F5F5F5F5F5E2F5E2E2E2E2E2F5F5E2E2E2E2E2E2F5E2E2E2E2E2F5F5F5F5F5F5F5F5F5F5F5F5F5F5F5F5F5F5F5F5F5F5F5F5E2E2E2E2E2E2E2E2F5F5F5F5F5F5F5F5F5F5F5F5F5F5F5F5F5F5F5F5F5F5F5F5F5F5F5F5F5E2F5F5F5E2F5F5F5E2F5F5F5E2F5F5
310
E2E2F5F5F5F5F5F5F5E2E2E2E2E2E2E2E2F5E2F5E2E2E2E2E2E2F5E2E2E2E2E2E2F5F5F5F5F5F5F5F5F5F5F5F5F5F5F5F5F5F5F5F5F5F5F5F5F5F5F5F5F5F5F5F5F5F5F5F5F5F5F5F5F5F5F5F5F5F5F5F5F5F5F5F5F5F5F5F5F5F5F5F5E2F5F5F5E2F5F5F5E2F5F5F5E2F5F5E2E2F5F5F5F5F5F5F5E2F5E2E2E2E2E2E2F5E2
310
F5E2E2E2E2E2E2F5F5E2E2E2E2E2F5F5F5F5F5F5F5F5F5F5F5F5F5F5F5F5F5F5F5F5F5F5F5F5F5F5F5F5F5F5F5F5F5F5F5F5F5F5F5F5F5F5F5F5F5F5F5F5F5F5F5F5F5F5F5F5F5F5F5F5E2F5F5F5E2F5F5F5E2F5F5F5E2F5F5E2E2F5F5F5F5F5F5F5F5F5F5F5F5F5F5F5F5F5F5F5F5F5F5F5F5F5F5F5F5F5F5F5F5F5F5F5F5
310
F5F5F5F5F5F5F5F5F5F5F5F5F5F5F5F5F5F5E2E2E2E2F5E2E2E2E2E2E2E2E2E2E2E2E2F5E2E2E2E2F5F5F5F5F5F5F5F5F5F5F5F5F5F5F5E2F5F5F5E2F5F5F5E2F5F5F5E2F5F5E2E2F5F5F5F5F5F5F5F5F5F5F5F5F5F5F5F5F5F5F5F5F5F5F5F5F5F5F5F5F5F5F5F5F5F5F5F5F5F5F5F5F5F5F5F5F5F5F5F5F5F5F5F5F5F5E2
310
F5E2E2E2E2E2E2E2E2E2E2E2E2E2E2E2F5E2E2E2E2F5F5F5F5F5F5F5F5F5F5F5F5F5F5F5E2F5F5F5E2F5F5F5E2F5F5F5E2F5F5E2E2F5F5F5F5F5F5F5F5F5F5F5F5F5F5F5F5F5F5F5F5F5F5F5F5F5F5F5F5F5F5F5F5F5F5F5F5F5F5F5F5F5F5F5F5F5F5F5F5F5F5F5F5F5F5E2F5E2E2E2E2E2E2E2E2E2E2E2E2E2E2E2F5E2E2
310
E2E2F5F5F5F5F5F5F5F5F5F5F5F5F5F5F5E2F5F5F5E2F5F5F5E2F5F5F5E2F5F5E2E2F5F5F5F5F5F5F5F5F5F5F5F5F5F5F5F5F5F5F5F5F5F5F5F5F5F5F5F5F5F5F5F5F5F5F5F5F5F5F5F5F5F5F5F5F5F5F5F5F5F5F5F5F5F5F5F5F5F5F5F5F5F5F5F5F5E2F5F5F5F5F5F5F5F5F5F5F5F5F5F5F5F5F5F5F5F5F5F5F5F5F5E2F5
310
F5F5E2F5F5F5E2F5F5F5E2F5F5E2E2F5F5F5F5F5F5F5F5F5F5F5F5F5F5F5F5F5F5F5F5F5F5F5F5F5F5F5F5F5F5F5F5F5F5F5F5F5F5F5F5F5F5F5F5F5F5F5F5F5F5F5F5F5F5E2E2F5F5E2E2E2E2E2E2F5F5E2E2E2E2E2E2E2E2E2E2E2E2E2F5F5F5F5F5F5F5F5F5F5F5F5E2F5F5F5E2F5F5F5E2F5F5F5E2F5F5E2E2F5F5F5F5
310
F5F5F5F5F5F5F5F5F5F5F5F5F5F5F5F5F5F5F5F5F5F5F5F5F5F5F5F5F5F5F5F5F5F5F5F5F5F5F5F5F5F5F5F5F5F5F5F5F5F5E2E2E2E2E2E2E2E2E2E2F5F5E2E2E2E2E2E2E2E2E2E2E2E2E2F5F5F5F5F5F5F5F5F5F5F5F5E2F5F5F5E2F5F5F5E2F5F5F5E2F5F5E2E2F5F5F5F5F5F5F5F5F5F5F5F5F5F5F5F5F5F5F5F5F5F5F5
310
F5F5F5F5F5F5F5F5F5F5F5F5F5F5F5F5F5F5F5F5F5F5F5F5F5F5F5F5F5F5F5E2E2E2E2E2E2E2E2E2E2E2E2E2E2E2E2E2E2F5E2E2E2E2E2E2F5F5F5F5F5F5F5F5F5F5F5F5E2F5F5F5E2F5F5F5E2F5F5F5E2F5F5E2E2F5F5F5F5F5F5F5F5F5F5F5F5F5F5F5F5F5F5F5F5F5F5F5F5F5F5F5F5F5F5F5F5F5F5F5F5F5F5F5F5F5F5
310
F5F5F5F5F5F5F5F5F5F5F5F5E2E2E2F5E2E2E2E2E2E2E2E2E2E2E2E2E2E2F5E2E2E2E2E2E2F5F5F5F5F5F5F5F5F5F5F5F5E2F5F5F5E2F5F5F5E2F5F5F5E2F5F5E2E2F5F5F5F5F5F5F5F5F5F5F5F5F5F5F5F5F5F5F5F5F5F5F5F5F5F5F5F5F5F5F5F5F5F5F5F5F5F5F5F5F5F5F5F5F5F5F5F5F5F5F5F5F5F5E2E2E2E2E2E2E2
310
E2E2E2E2F5E2E2E2E2E2E2F5E2E2E2E2E2E2F5F5F5F5F5F5F5F5F5F5F5F5E2F5F5F5E2F5F5F5E2F5F5F5E2F5F5E2E2F5F5F5F5F5F5F5F5F5F5F5F5F5F5F5F5F5F5F5F5F5F5F5F5F5F5F5F5F5F5F5F5F5F5F5F5F5F5F5F5F5F5F5F5F5F5F5F5F5F5F5F5F5F5E2E2E2E2E2F5E2F5F5F5F5F5F5F5F5F5F5F5F5F5F5F5F5F5F5F5
310
F5F5F5F5F5F5F5F5F5F5F5E2F5F5F5E2F5F5F5E2F5F5F5E2F5F5E2E2F5F5F5F5F5F5F5F5F5F5F5F5F5F5F5F5F5F5F5F5F5F5F5F5F5F5F5F5F5F5F5F5F5F5F5F5F5F5F5F5F5F5F5F5F5F5F5F5F5F5F5F5F5F5E2E2E2E2E2F5E2E2F5F5F5F5F5F5F5F5F5F5F5F5F5F5F5F5F5F5F5F5F5F5F5F5F5F5F5F5F5E2F5F5F5E2F5F5F5
310
E2F5F5F5E2F5F5E2E2F5F5F5F5F5F5F5F5F5F5F5F5F5F5F5F5F5F5F5F5F5F5F5F5F5F5F5F5F5F5F5F5F5F5F5F5F5F5F5F5F5F5F5F5F5F5F5F5F5F5F5F5F5F5F5F5F5F5F5F5F5F5F5F5F5F5F5F5F5F5F5F5F5F5F5F5F5F5F5F5F5F5F5F5F5F5F5F5F5F5F5E2F5F5F5E2F5F5F5E2F5F5F5E2F5F5E2E2F5F5F5F5F5F5F5F5F5F5
310
F5F5F5F5F5F5F5F5F5F5F5F5F5F5F5F5F5F5F5F5F5F5F5F5F5F5F5F5F5F5F5F5F5F5F5F5F5F5F5F5F5F5F5F5F5F5F5F5F5F5F5F5F5F5F5F5F5F5F5F5F5F5F5F5F5F5F5F5F5F5F5F5F5F5F5F5F5F5F5F5F5E2F5F5F5E2F5F5F5E2F5F5F5E2F5F5E2E2F5F5F5F5F5F5F5F5F5F5F5F5F5F5F5F5F5F5F5F5F5F5F5F5F5F5F5F5F5
310
F5F5F5F5F5F5F5F5F5F5F5F5F5F5F5F5F5F5F5F5F5F5F5F5F5F5F5F5F5F5F5F5F5F5F5F5F5F5F5F5F5F5F5F5F5F5F5F5F5F5F5F5F5F5F5F5F5F5F5F5F5F5E2F5F5F5E2F5F5F5E2F5F5F5E2F5F5E2E2F5F5F5F5F5F5F5F5F5F5F5F5F5F5F5F5F5F5F5F5F5F5F5F5F5F5F5F5F5F5F5F5F5F5F5F5F5F5F5F5F5F5F5F5F5F5F5F5
310
F5F5F5F5F5F5F5F5F5F5F5F5F5F5F5F5F5F5F5F5F5F5F5F5F5F5F5F5F5F5F5F5F5F5F5F5F5F5F5F5F5F5F5E2F5F5F5E2F5F5F5E2F5F5F5E2F5F5E2E2F5F5F5F5F5F5F5F5F5F5F5F5F5F5F5F5F5F5F5F5F5F5F5F5F5F5F5F5F5F5F5F5F5F5F5F5F5F5F5F5F5F5F5F5F5F5F5F5F5F5F5F5F5F5F5F5F5F5F5F5F5F5F5F5F5F5F5
310
F5F5F5F5F5F5F5F5F5F5F5F5F5F5F5F5F5F5F5F5F5F5F5F5E2F5F5F5E2F5F5F5E2F5F5F5E2F5F5E2E2F5F5F5F5F5F5F5F5F5F5F5F5F5F5F5F5F5F5F5F5F5F5F5F5F5F5F5F5F5F5F5F5F5F5F5F5F5F5F5F5F5F5F5F5F5F5F5F5F5F5F5F5F5F5F5F5F5F5F5F5F5F5F5F5F5F5F5F5F5F5F5F5F5F5F5F5F5F5F5F5F5F5F5F5F5F5
310
F5F5F5F5F5E2F5F5F5E2F5F5F5E2F5F5F5E2F5F5E2E2F5F5F5F5F5F5F5F5F5F5F5F5F5F5F5F5F5F5F5F5F5F5F5F5F5F5F5F5F5F5F5F5F5F5F5F5F5F5F5F5F5F5F5F5F5F5F5F5F5F5F5F5F5F5F5F5F5F5F5F5F5F5F5F5F5F5F5F5F5F5F5F5F5F5F5F5F5F5F5F5F5F5F5F5F5F5F5F5F5F5F5E2F5F5F5E2F5F5F5E2F5F5F5E2F5
310
F5E2E2F5F5F5F5F5F5F5F5F5F5F5F5F5F5F5F5F5F5F5F5F5F5F5F5F5F5F5F5F5F5F5F5F5F5F5F5F5F5F5F5F5F5F5F5F5F5F5F5F5F5F5F5F5F5F5F5F5F5F5F5F5F5F5F5F5F5F5F5F5F5F5F5F5F5F5F5F5F5F5F5F5F5F5F5F5F5F5F5F5F5F5E2F5F5F5E2F5F5F5E2F5F5F5E2F5F5E2E2F5F5F5F5F5F5F5F5F5F5F5F5F5F5F5F5
310
F5F5F5F5F5F5F5F5F5F5F5F5F5F5F5F5F5F5F5F5F5F5F5F5F5F5F5F5F5F5F5F5F5F5F5F5F5F5F5F5F5F5F5F5F5F5F5F5F5F5F5F5F5F5F5F5F5F5F5F5F5F5F5F5F5F5F5F5F5F5F5F5F5F5F5E2F5F5F5E2F5F5F5E2F5F5F5E2F5F5E2E2F5F5F5F5F5F5F5F5F5F5F5F5F5F5F5F5F5F5F5F5F5F5F5F5F5F5F5F5F5F5F5F5F5F5F5
310
F5F5F5F5F5F5F5F5F5F5F5F5F5F5F5F5F5F5F5F5F5F5F5F5F5F5F5F5F5F5F5F5F5F5F5F5F5F5F5F5F5F5F5F5F5F5F5F5F5F5F5F5F5F5F5F5E2F5F5F5E2F5F5F5E2F5F5F5E2F5F5E2E2F5F5F5F5F5F5F5F5F5F5F5F5F5F5F5F5F5F5F5F5F5F5F5F5F5F5F5F5F5F5F5F5F5F5F5F5F5F5F5F5F5F5F5F5F5F5F5F5F5F5F5F5F5F5
310
F5F5E2E2E2E2E2E2E2E2E2E2E2E2E2F5E2E2E2E2E2F5F5F5F5F5F5F5F5F5F5F5F5F5F5F5F5E2F5F5F5E2F5F5F5E2F5F5F5E2F5F5E2E2F5F5F5F5F5F5F5F5F5F5F5F5F5F5F5F5F5F5F5F5F5F5F5F5F5F5F5F5F5F5F5F5F5F5F5F5F5F5F5F5F5F5F5F5F5F5F5F5F5F5F5F5F5F5E2E2E2E2E2E2E2E2E2E2E2E2E2E2F5E2E2E2E2
310
E2F5F5F5F5F5F5F5F5F5F5F5F5F5F5F5F5F5E2F5F5F5E2F5F5F5E2F5F5F5E2F5F5E2E2F5F5F5F5F5F5F5F5F5F5F5F5F5F5F5F5F5F5F5F5F5F5F5F5F5F5F5F5F5F5F5F5F5F5F5F5F5F5F5F5F5F5F5F5F5F5F5F5F5F5F5F5E2E2F5F5E2E2E2E2E2E2E2E2E2E2E2E2F5E2E2E2E2E2F5F5F5F5F5F5F5F5F5F5F5F5F5F5F5F5F5E2
310
F5F5F5E2F5F5F5E2F5F5F5E2F5F5E2E2F5F5F5F5F5F5F5F5F5F5F5F5F5F5F5F5F5F5F5F5F5F5F5F5F5F5F5F5F5F5F5F5F5F5F5F5F5F5F5F5F5F5F5F5F5F5F5F5F5F5E2E2F5F5F5F5F5F5F5F5F5F5F5F5F5F5F5F5F5F5F5F5F5F5F5F5F5F5F5F5F5F5F5F5F5F5F5F5F5F5F5E2F5F5F5E2F5F5F5E2F5F5F5E2F5F5E2E2F5F5F5
310
F5F5F5F5F5F5F5F5F5F5F5F5F5F5F5F5F5F5F5F5F5F5F5F5F5F5F5F5F5F5F5F5F5E2E2E2E2E2E2E2E2E2E2E2E2E2E2F5F5F5F5F5F5F5F5F5F5F5F5F5F5F5F5F5F5F5F5F5F5F5F5F5F5F5F5F5F5F5F5F5F5F5F5F5F5F5F5F5E2F5F5F5E2F5F5F5E2F5F5F5E2F5F5E2E2F5F5F5F5F5F5F5F5F5F5F5F5F5F5F5F5F5F5F5F5F5F5
310
F5F5F5F5F5F5F5F5F5F5F5F5F5F5E2F5F5E2E2E2E2E2E2E2E2E2E2F5F5F5F5F5F5F5F5F5F5F5F5F5F5F5F5F5F5F5F5F5F5F5F5F5F5F5F5F5F5F5F5F5F5F5F5F5F5F5F5F5F5E2F5F5F5E2F5F5F5E2F5F5F5E2F5F5E2E2F5F5F5F5F5F5F5F5F5F5F5F5F5F5F5F5F5F5F5F5F5F5F5F5F5F5F5F5F5F5F5F5F5F5F5F5E2F5F5E2E2
310
E2E2E2E2E2E2F5E2F5F5F5F5F5F5F5F5F5F5F5F5F5F5F5F5F5F5F5F5F5F5F5F5F5F5F5F5F5F5F5F5F5F5F5F5F5F5F5F5F5F5E2F5F5F5E2F5F5F5E2F5F5F5E2F5F5E2E2F5F5F5F5F5F5F5F5F5F5F5F5F5F5F5F5F5F5F5F5F5F5F5F5F5F5F5F5F5F5F5F5F5F5F5F5E2F5F5E2E2E2E2E2E2E2F5F5E2F5F5F5F5F5F5F5F5F5F5F5
310
F5F5F5F5F5F5F5F5F5F5F5F5F5F5F5F5F5F5F5F5F5F5F5F5F5F5F5F5F5F5F5E2F5F5F5E2F5F5F5E2F5F5F5E2F5F5E2E2F5F5F5F5F5F5F5F5F5F5F5F5F5F5F5F5F5F5F5F5F5F5F5F5F5F5F5F5F5F5F5F5F5F5F5F5E2F5F5E2F5F5F5F5F5E2F5F5E2F5F5F5F5F5F5F5F5F5F5F5F5F5F5F5F5F5F5F5F5F5F5F5F5F5F5F5F5F5F5
310
F5F5F5F5F5F5F5F5F5F5F5F5E2F5F5F5E2F5F5F5E2F5F5F5E2F5F5E2E2F5F5F5F5F5F5F5F5F5F5F5F5F5F5F5F5F5F5F5F5F5F5F5F5F5F5F5F5F5F5F5F5F5F5F5F5E2F5F5E2E2E2E2E2E2E2F5F5E2F5F5F5F5F5F5F5F5F5F5F5F5F5F5F5F5F5F5F5F5F5F5F5F5F5F5F5F5F5F5F5F5F5F5F5F5F5F5F5F5F5F5E2F5F5F5E2F5F5
310
F5E2F5F5F5E2F5F5E2E2F5F5F5F5F5F5F5F5F5F5F5F5F5F5F5F5F5F5F5F5F5F5F5F5F5F5F5F5F5F5F5F5F5F5F5F5E2F5F5E2F5F5F5F5F5E2F5F5E2F5F5F5F5F5F5F5F5F5F5F5F5F5F5F5F5F5F5F5F5F5F5F5F5F5F5F5F5F5F5F5F5F5F5F5F5F5F5F5F5F5F5E2F5F5F5E2F5F5F5E2F5F5F5E2F5F5E2E2F5F5F5F5F5F5F5F5F5
310
F5F5F5F5F5F5F5F5F5F5F5F5F5F5F5F5F5F5F5F5F5F5F5F5F5F5F5E2F5F5E2E2E2E2E2E2E2F5F5E2F5F5F5F5F5F5F5F5F5F5F5F5F5F5F5F5F5F5F5F5F5F5F5F5F5F5F5F5F5F5F5F5F5F5F5F5F5F5F5F5F5F5E2F5F5F5E2F5F5F5E2F5F5F5E2F5F5E2E2F5F5F5F5F5F5F5F5F5F5F5F5F5F5F5F5F5F5F5F5F5F5F5F5F5F5F5F5
310
F5F5F5F5F5F5F5F5E2F5F5E2F5F5F5F5F5E2F5F5E2F5F5F5F5F5F5F5F5F5F5F5F5F5F5F5F5F5F5F5F5F5F5F5F5F5F5F5F5F5F5F5F5F5F5F5F5F5F5F5F5F5F5E2F5F5F5E2F5F5F5E2F5F5F5E2F5F5E2E2F5F5F5F5F5F5F5F5F5F5F5F5F5F5F5F5F5F5F5F5F5F5F5F5F5F5F5F5F5F5F5F5F5F5F5F5E2F5F5E2F5F5F5F5F5E2F5
310
F5E2F5F5F5F5F5F5F5F5F5F5F5F5F5F5F5F5F5F5F5F5F5F5F5F5F5F5F5F5F5F5F5F5F5F5F5F5F5F5F5F5F5F5E2F5F5F5E2F5F5F5E2F5F5F5E2F5F5E2E2F5F5F5F5F5F5F5F5F5F5F5F5F5F5F5F5F5F5F5F5F5F5F5F5F5F5F5F5F5F5F5F5F5F5F5F5E2F5F5E2E2E2E2E2E2E2F5F5E2F5F5F5F5F5F5F5F5F5F5F5F5F5F5F5F5F5
310
F5F5F5F5F5F5F5F5F5F5F5F5F5F5F5F5F5F5F5F5F5F5F5F5F5E2F5F5F5E2F5F5F5E2F5F5F5E2F5F5E2E2F5F5F5F5F5F5F5F5F5F5F5F5F5F5F5F5F5F5F5F5F5F5F5F5F5F5F5F5F5F5F5F5F5F5F5F5E2F5F5E2F5F5F5F5F5E2F5F5E2F5F5F5F5F5F5F5F5F5F5F5F5F5F5F5F5F5F5F5F5F5F5F5F5F5F5F5F5F5F5F5F5F5F5F5F5
310
F5F5F5F5F5F5E2F5F5F5E2F5F5F5E2F5F5F5E2F5F5E2E2F5F5F5F5F5F5F5F5F5F5F5F5F5F5F5F5F5F5F5F5F5F5F5F5F5F5F5F5F5F5F5F5F5F5F5F5E2F5F5E2F5E2F5F5F5E2F5F5E2F5F5F5F5F5F5F5F5F5F5F5F5F5F5F5F5F5F5F5F5F5F5F5F5F5F5F5F5F5F5F5F5F5F5F5F5F5F5F5F5F5F5E2F5F5F5E2F5F5F5E2F5F5F5E2
310
F5F5E2E2F5F5F5F5F5F5F5F5F5F5F5F5F5F5F5F5F5F5F5F5F5F5F5F5F5F5F5F5F5F5F5F5F5F5F5F5E2F5F5E2E2E2E2E2E2E2F5F5E2F5F5F5F5F5F5F5F5F5F5F5F5F5F5F5F5F5F5F5F5F5F5F5F5F5F5F5F5F5F5F5F5F5F5F5F5F5F5F5F5F5F5E2F5F5F5E2F5F5F5E2F5F5F5E2F5F5E2E2F5F5F5F5F5F5F5F5F5F5F5F5F5F5F5
310
F5F5F5F5F5F5F5F5F5F5F5F5F5F5F5F5F5F5F5F5F5E2F5F5E2F5F5F5F5E2E2F5F5E2F5E2E2E2E2F5E2E2E2E2E2E2E2E2E2F5E2E2E2E2F5F5F5F5F5F5F5F5F5F5F5F5F5F5F5F5F5F5F5F5F5F5E2F5F5F5E2F5F5F5E2F5F5F5E2F5F5E2E2F5F5F5F5F5F5F5F5F5F5F5F5F5F5F5F5F5F5F5F5F5F5F5F5F5F5F5F5F5F5F5F5F5F5
310
F5F5E2F5F5E2F5F5F5F5F5E2E2F5E2F5E2E2E2E2F5E2E2E2E2E2E2E2E2E2F5E2E2E2F5F5F5F5F5F5F5F5F5F5F5F5F5F5F5F5F5F5F5F5F5F5F5E2F5F5F5E2F5F5F5E2F5F5F5E2F5F5E2E2F5F5F5F5F5F5F5F5F5F5F5F5F5F5F5F5F5F5F5F5F5F5F5F5F5F5F5F5F5F5F5F5F5F5F5F5E2F5F5E2F5F5F5F5F5E2F5E2E2F5E2E2E2
310
E2F5F5E2E2E2E2E2E2E2E2F5E2E2E2F5F5F5F5F5F5F5F5F5F5F5F5F5F5F5F5F5F5F5F5F5F5F5E2F5F5F5E2F5F5F5E2F5F5F5E2F5F5E2E2F5F5F5F5F5F5F5F5F5F5F5F5F5F5F5F5F5F5F5F5F5F5F5F5F5F5F5F5F5F5F5F5F5F5F5F5E2F5F5E2E2E2E2E2E2E2F5F5E2E2E2E2E2E2E2E2E2E2E2E2E2E2E2E2E2E2E2E2F5F5F5F5
310
F5F5F5F5F5F5F5F5F5F5F5F5F5F5F5F5F5F5F5E2F5F5F5E2F5F5F5E2F5F5F5E2F5F5E2E2F5F5F5F5F5F5F5F5F5F5F5F5F5F5F5F5F5F5F5F5F5F5F5F5F5F5F5F5F5F5F5F5F5F5F5F5E2F5F5E2F5F5F5F5F5E2F5F5E2F5E2E2E2E2E2E2E2E2E2E2E2E2E2E2E2E2E2E2F5F5F5F5F5F5F5F5F5F5F5F5F5F5F5F5F5F5F5F5F5F5F5
310
E2F5F5F5E2F5F5F5E2F5F5F5E2F5F5E2E2F5F5F5F5F5F5F5F5F5F5F5F5F5F5F5F5F5F5F5F5F5F5F5F5F5F5F5F5F5F5F5F5F5F5F5F5E2F5F5E2F5F5F5F5F5E2F5F5E2F5F5F5F5F5F5F5F5F5F5F5F5F5F5F5F5F5F5F5F5F5F5F5F5F5F5F5F5F5F5F5F5F5F5F5F5F5F5F5F5F5F5E2F5F5F5E2F5F5F5E2F5F5F5E2F5F5E2E2F5F5
310
F5F5F5F5F5F5F5F5F5F5F5F5F5F5F5F5F5F5F5F5F5F5F5F5F5F5F5F5F5F5F5F5F5F5E2F5F5E2E2E2E2E2E2E2F5F5E2F5F5F5F5F5F5F5F5F5F5F5F5F5F5F5F5F5F5F5F5F5F5F5F5F5F5F5F5F5F5F5F5F5F5F5F5F5F5F5F5F5F5E2F5F5F5E2F5F5F5E2F5F5F5E2F5F5E2E2F5F5F5F5F5F5F5F5F5F5F5F5F5F5F5F5F5F5F5F5F5
310
F5F5F5F5F5F5F5F5F5F5F5F5F5F5F5E2F5F5E2F5F5F5F5F5E2F5F5E2F5F5F5F5F5F5F5F5F5F5F5F5F5F5F5F5F5F5F5F5F5F5F5F5F5F5F5F5F5F5F5F5F5F5F5F5F5F5F5F5F5F5E2F5F5F5E2F5F5F5E2F5F5F5E2F5F5E2E2F5F5F5F5F5F5F5F5F5F5F5F5F5F5F5F5F5F5F5F5F5F5F5F5F5F5F5F5F5F5F5F5F5F5F5F5E2F5F5E2
310
F5F5F5F5F5E2F5F5E2F5F5F5F5F5F5F5F5F5F5F5F5F5F5F5F5F5F5F5F5F5F5F5F5F5F5F5F5F5F5F5F5F5F5F5F5F5F5F5F5F5F5E2F5F5F5E2F5F5F5E2F5F5F5E2F5F5E2E2F5F5F5F5F5F5F5F5F5F5F5F5F5F5F5F5F5F5F5F5F5F5E2E2E2E2E2E2E2E2E2E2E2E2F5F5E2F5F5E2E2E2E2E2E2E2F5F5E2F5E2E2E2E2E2E2F5E2E2
310
E2E2F5F5F5F5F5F5F5F5F5F5F5F5F5F5F5F5F5F5F5F5F5F5F5F5F5F5F5F5F5F5E2F5F5F5E2F5F5F5E2F5F5F5E2F5F5E2E2F5F5F5F5F5F5F5F5F5F5F5F5F5F5F5F5F5F5F5F5F5F5E2E2E2E2E2E2E2E2E2E2E2E2F5F5E2F5F5E2F5F5F5F5F5E2F5F5E2F5E2E2E2E2E2E2F5E2E2E2E2F5F5F5F5F5F5F5F5F5F5F5F5F5F5F5F5F5
310
F5F5F5F5F5F5F5F5F5F5F5F5F5E2F5F5F5E2F5F5F5E2F5F5F5E2F5F5E2E2F5F5F5F5F5F5F5F5F5F5F5F5F5F5F5F5F5F5F5F5F5F5F5F5F5F5F5F5F5F5F5F5F5F5F5F5E2F5F5E2F5F5F5F5F5E2F5E2E2F5E2E2E2E2E2E2F5E2E2E2E2F5F5F5F5F5F5F5F5F5F5F5F5F5F5F5F5F5F5F5F5F5F5F5F5F5F5F5F5F5F5E2F5F5F5E2F5
310
F5F5E2F5F5F5E2F5F5E2E2F5F5F5F5F5F5F5F5F5F5F5F5F5F5F5F5F5F5F5F5F5F5F5F5F5F5F5F5F5F5F5F5F5F5F5F5E2F5F5E2F5F5F5F5F5E2F5E2E2F5F5F5F5F5F5F5F5F5F5F5F5F5F5F5F5F5F5F5F5F5F5F5F5F5F5F5F5F5F5F5F5F5F5F5F5F5F5F5F5F5F5E2F5F5F5E2F5F5F5E2F5F5F5E2F5F5E2E2F5F5F5F5F5F5F5F5
310
F5F5F5F5F5F5F5F5F5F5F5F5F5F5F5F5F5F5F5F5F5F5F5F5F5F5F5F5E2F5F5E2E2E2E2E2E2E2F5E2E2F5F5F5F5F5F5F5F5F5F5F5F5F5F5F5F5F5F5F5F5F5F5F5F5F5F5F5F5F5F5F5F5F5F5F5F5F5F5F5F5F5F5E2F5F5F5E2F5F5F5E2F5F5F5E2F5F5E2E2F5F5F5F5F5F5F5F5F5F5F5F5F5F5F5F5F5F5F5F5F5F5F5F5F5F5F5
310
F5F5F5F5F5F5F5F5F5E2F5F5E2F5F5F5F5F5E2F5F5E2F5F5F5F5F5F5F5F5F5F5F5F5F5F5F5F5F5F5F5F5F5F5F5F5F5F5F5F5F5F5F5F5F5F5F5F5F5F5F5F5F5F5E2F5F5F5E2F5F5F5E2F5F5F5E2F5F5E2E2F5F5F5F5F5F5F5F5F5F5F5F5F5F5F5F5F5F5F5F5F5F5F5F5F5F5F5F5F5F5F5F5F5F5F5F5E2F5F5E2F5F5F5F5F5E2
310
F5F5E2E2F5F5F5F5F5F5F5F5F5F5F5F5F5F5F5F5F5F5F5F5F5F5F5F5F5F5F5F5F5F5F5F5F5F5F5F5F5F5F5F5F5E2F5F5F5E2F5F5F5E2F5F5F5E2F5F5E2E2F5F5F5F5F5F5F5F5F5F5F5F5F5F5F5F5F5F5F5F5F5F5F5F5F5F5F5F5F5F5F5F5F5F5F5F5E2F5F5E2E2E2E2E2E2E2F5F5E2E2F5F5F5F5F5F5F5F5F5F5F5F5F5F5F5
310
F5F5F5F5F5F5F5F5F5F5F5F5F5F5F5F5F5F5F5F5F5F5F5F5F5F5E2F5F5F5E2F5F5F5E2F5F5F5E2F5F5E2E2F5F5F5F5F5F5F5F5F5F5F5F5F5F5F5F5F5F5F5F5F5F5F5F5F5F5F5F5F5F5F5F5F5F5F5F5E2F5F5E2F5F5F5F5F5E2F5F5E2F5E2F5F5F5F5F5F5F5F5F5F5F5F5F5F5F5F5F5F5F5F5F5F5F5F5F5F5F5F5F5F5F5F5F5
310
F5F5F5F5F5F5F5E2F5F5F5E2F5F5F5E2F5F5F5E2F5F5E2E2F5F5F5F5F5F5F5F5F5F5F5F5F5F5F5F5F5F5F5F5F5F5F5F5F5F5F5F5F5F5F5F5F5F5F5F5E2F5F5E2F5F5F5F5F5E2F5F5E2F5E2F5F5F5F5F5F5F5F5F5F5F5F5F5F5F5F5F5F5F5F5F5F5F5F5F5F5F5F5F5F5F5F5F5F5F5F5F5F5F5F5E2F5F5F5E2F5F5F5E2F5F5F5
310
E2F5F5E2E2F5F5F5F5F5F5F5F5F5F5F5F5F5F5F5F5F5F5F5F5F5F5F5F5F5F5F5F5F5F5F5F5F5F5F5F5E2F5F5E2E2E2E2E2E2E2F5F5E2F5F5E2F5F5F5F5F5F5F5F5F5F5F5F5F5F5F5F5F5F5F5F5F5F5F5F5F5F5F5F5F5F5F5F5F5F5F5F5F5F5F5E2F5F5F5E2F5F5F5E2F5F5F5E2F5F5E2E2F5F5F5F5F5F5F5F5F5F5F5F5F5F5
310
F5F5F5F5F5F5F5F5F5F5F5F5F5F5F5F5F5F5F5F5F5F5E2F5F5E2F5F5F5F5F5E2F5F5E2F5F5E2E2E2E2E2E2E2F5E2E2E2F5E2E2E2E2E2E2E2E2E2F5F5F5F5F5F5F5F5F5F5F5F5F5F5F5F5F5F5F5E2F5F5F5E2F5F5F5E2F5F5F5E2F5F5E2E2F5F5F5F5F5F5F5F5F5F5F5F5F5F5F5F5F5F5F5F5F5F5F5F5F5F5F5F5F5F5F5F5F5
310
F5F5F5E2F5F5E2F5F5F5F5F5E2F5F5E2F5F5F5E2E2E2E2E2E2F5E2E2E2F5E2E2E2E2E2E2E2E2E2E2F5F5F5F5F5F5F5F5F5F5F5F5F5F5F5F5F5F5E2F5F5F5E2F5F5F5E2F5F5F5E2F5F5E2E2F5F5F5F5F5F5F5F5F5F5F5F5F5F5F5F5F5F5F5F5F5F5F5F5F5F5F5F5F5F5F5F5F5F5F5F5E2F5F5E2E2E2E2E2E2E2F5F5E2F5F5F5
310
E2E2E2E2E2E2F5E2E2E2F5E2E2E2E2E2E2E2E2E2E2F5F5F5F5F5F5F5F5F5F5F5F5F5F5F5F5F5F5E2F5F5F5E2F5F5F5E2F5F5F5E2F5F5E2E2F5F5F5F5F5F5F5F5F5F5F5F5F5F5F5F5F5F5F5F5F5F5F5F5F5F5F5F5F5F5F5F5F5F5F5F5E2F5F5E2F5F5F5F5F5E2F5F5E2F5F5F5F5F5F5F5F5F5F5F5F5F5F5F5F5F5F5F5F5F5F5
310
F5F5F5F5F5F5F5F5F5F5F5F5F5F5F5F5F5F5F5F5E2F5F5F5E2F5F5F5E2F5F5F5E2F5F5E2E2F5F5F5F5F5F5F5F5F5F5F5F5F5F5F5F5F5F5F5F5F5F5F5F5F5F5F5F5F5F5F5F5F5F5F5F5E2F5F5E2F5F5F5E2E2E2F5F5E2F5F5F5F5F5F5F5F5F5F5F5F5F5F5F5F5F5F5F5F5F5F5F5F5F5F5F5F5F5F5F5F5F5F5F5F5F5F5F5F5F5
310
F5E2F5F5F5E2F5F5F5E2F5F5F5E2F5F5E2E2F5F5F5F5F5F5F5F5F5F5F5F5F5F5F5F5F5F5F5F5F5F5F5F5F5F5F5F5F5F5E2E2E2E2E2E2E2E2E2E2E2E2E2E2E2E2E2E2E2E2E2E2E2E2E2F5F5F5F5F5F5F5F5F5F5F5F5F5F5F5F5F5F5F5F5F5F5F5F5F5F5F5F5F5F5F5F5F5F5F5F5E2F5F5F5E2F5F5F5E2F5F5F5E2F5F5E2E2F5
310
F5F5F5F5F5F5F5F5F5F5F5F5F5F5F5F5F5F5F5F5F5F5F5F5F5F5F5F5F5F5F5F5F5F5F5F5F5F5E2E2F5F5F5F5F5F5F5F5F5F5F5F5F5F5F5F5F5F5F5F5F5F5F5F5F5F5F5F5F5F5F5F5F5F5F5F5F5F5F5F5F5F5F5F5F5F5F5F5F5F5E2F5F5F5E2F5F5F5E2F5F5F5E2F5F5E2E2F5F5F5F5F5F5F5F5F5F5F5F5F5F5F5F5F5F5F5F5
310
F5F5F5F5F5F5F5F5F5F5F5F5F5F5F5F5E2F5F5E2F5F5F5F5F5E2F5F5E2F5F5F5F5F5F5F5F5F5F5F5F5F5F5F5F5F5F5F5F5F5F5F5F5F5F5F5F5F5F5F5F5F5F5F5F5F5F5F5F5F5F5E2F5F5F5E2F5F5F5E2F5F5F5E2F5F5E2E2F5F5F5F5F5F5F5F5F5F5F5F5F5F5F5F5F5F5F5F5F5F5F5F5F5F5F5F5F5F5F5F5F5F5F5F5E2F5E2
310
E2F5F5F5F5E2E2F5F5E2F5F5F5F5F5F5F5F5F5F5F5F5F5F5F5F5F5F5F5F5F5F5F5F5F5F5F5F5F5F5F5F5F5F5F5F5F5F5F5F5F5F5E2F5F5F5E2F5F5F5E2F5F5F5E2F5F5E2E2F5F5F5F5F5F5F5F5F5F5F5F5F5F5F5F5F5F5F5F5F5F5F5F5F5F5F5F5F5F5F5F5F5F5F5F5E2F5F5E2E2E2E2E2E2E2F5F5E2F5F5F5F5F5F5F5F5F5
310
F5F5F5F5F5F5F5F5F5F5F5F5F5F5F5F5F5F5F5F5F5F5F5F5F5F5F5F5F5F5F5F5F5E2F5F5F5E2F5F5F5E2F5F5F5E2F5F5E2E2F5F5F5F5F5F5F5F5F5F5F5F5F5F5F5F5F5F5F5F5F5F5F5F5F5F5F5F5F5F5F5F5F5F5F5F5E2F5F5E2F5E2E2F5F5E2E2F5E2F5F5F5F5F5F5F5F5F5F5F5F5F5F5F5F5F5F5F5F5F5F5F5F5F5F5F5F5
310
F5F5F5F5F5F5F5F5F5F5F5F5F5F5E2F5F5F5E2F5F5F5E2F5F5F5E2F5F5E2E2F5F5F5F5F5F5F5F5F5F5F5F5F5F5F5F5F5F5F5F5F5F5F5F5F5F5F5F5F5F5F5F5F5F5F5F5E2F5F5E2F5E2E2F5F5E2F5F5E2F5F5F5F5F5F5F5F5F5F5F5F5F5F5F5F5F5F5F5F5F5F5F5F5F5F5F5F5F5F5F5F5F5F5F5F5F5F5F5F5F5F5E2F5F5F5E2
310
F5F5F5E2F5F5F5E2F5F5E2E2F5F5F5F5F5F5F5F5F5F5F5F5F5F5F5F5F5F5F5F5F5F5F5F5F5F5F5F5F5F5F5F5F5F5F5F5E2F5F5F5F5E2E2E2F5F5F5F5E2F5F5F5F5F5F5F5F5F5F5F5F5F5F5F5F5F5F5F5F5F5F5F5F5F5F5F5F5F5F5F5F5F5F5F5F5F5F5F5F5F5F5E2F5F5F5E2F5F5F5E2F5F5F5E2F5F5E2E2F5F5F5F5F5F5F5
310
F5F5F5F5F5F5F5F5F5F5F5F5F5F5F5F5F5F5F5F5F5F5F5F5F5F5F5F5F5E2F5F5F5F5E2E2E2E2F5F5F5E2F5F5F5F5F5F5F5F5F5F5F5F5F5F5F5F5F5F5F5F5F5F5F5F5F5F5F5F5F5F5F5F5F5F5F5F5F5F5F5F5F5F5E2F5F5F5E2F5F5F5E2F5F5F5E2F5F5E2E2F5F5F5F5F5F5F5F5F5F5F5F5F5F5F5F5F5F5F5F5F5F5F5F5F5F5
310
F5F5F5F5F5F5F5F5F5F5E2F5F5F5F5E2F5E2E2F5F5F5E2F5F5F5F5F5F5F5F5F5F5F5F5F5F5F5F5F5F5F5F5F5F5F5F5F5F5F5F5F5F5F5F5F5F5F5F5F5F5F5F5F5F5E2F5F5F5E2F5F5F5E2F5F5F5E2F5F5E2E2F5F5F5F5F5F5F5F5F5F5F5F5F5F5F5F5F5F5F5F5F5F5F5F5F5F5F5F5F5F5F5F5F5F5F5F5E2F5F5F5F5F5F5F5F5
310
F5F5F5E2F5F5F5F5F5F5F5F5F5F5F5F5F5F5F5F5F5F5F5F5F5F5F5F5F5F5F5F5F5F5F5F5F5F5F5F5F5F5F5F5F5F5E2F5F5F5E2F5F5F5E2F5F5F5E2F5F5E2E2F5F5F5F5F5F5F5F5F5F5F5F5F5F5F5F5F5F5F5F5F5F5F5F5F5F5F5F5F5F5F5F5F5F5F5E2E2F5F5F5F5F5F5F5F5F5F5E2E2F5F5F5F5F5F5F5F5F5F5F5F5F5F5F5
310
F5F5F5F5F5F5F5F5F5F5F5F5F5F5F5F5F5F5F5F5F5F5F5F5F5F5F5E2F5F5F5E2F5F5F5E2F5F5F5E2F5F5E2E2F5F5F5F5F5F5F5F5F5F5F5F5F5F5F5F5F5F5F5F5F5F5F5F5F5F5F5F5F5F5F5F5F5F5F5F5E2E2E2E2E2E2E2E2E2E2E2E2E2F5F5F5F5F5F5F5F5F5F5F5F5F5F5F5F5F5F5F5F5F5F5F5F5F5F5F5F5F5F5F5F5F5F5
310
F5F5F5F5F5F5F5F5E2F5F5F5E2F5F5F5E2F5F5F5E2F5F5E2E2F5F5F5F5F5F5F5F5F5F5F5F5F5F5F5F5F5F5F5F5F5F5F5F5F5F5F5F5F5F5F5F5F5F5F5F5E2F5F5F5F5F5F5F5F5F5F5F5E2E2F5F5F5F5F5F5F5F5F5F5F5F5F5F5F5F5F5F5F5F5F5F5F5F5F5F5F5F5F5F5F5F5F5F5F5F5F5F5F5F5F5E2F5F5F5E2F5F5F5E2F5F5
310
F5E2F5F5E2E2F5F5F5F5F5F5F5F5F5F5F5F5F5F5F5F5F5F5F5F5F5F5F5F5F5F5F5F5F5F5F5F5F5F5F5E2E2E2E2E2E2F5E2E2E2E2E2F5E2E2F5F5F5F5F5F5F5F5F5F5F5F5F5F5F5F5F5F5F5F5F5F5F5F5F5F5F5F5F5F5F5F5F5F5F5F5F5F5F5F5F5E2F5F5F5E2F5F5F5E2F5F5F5E2F5F5E2E2F5F5F5F5F5F5F5F5F5F5F5F5F5
310
F5F5F5F5F5F5F5F5F5F5F5F5F5F5F5F5F5F5F5F5F5F5E2E2E2E2F5E2E2E2E2E2E2E2F5E2E2F5F5F5F5F5F5F5F5F5F5F5F5F5F5F5F5F5F5F5F5F5F5F5F5F5F5F5F5F5F5F5F5F5F5F5F5F5F5F5F5F5E2F5F5F5E2F5F5F5E2F5F5F5E2F5F5E2E2F5F5F5F5F5F5F5F5F5F5F5F5F5F5F5F5F5F5F5F5F5F5F5F5F5F5F5F5F5F5F5F5
310
F5F5F5E2E2E2E2E2E2F5E2E2E2E2E2F5E2E2F5F5F5F5F5F5F5F5F5F5F5F5F5F5F5F5F5F5F5F5F5F5F5F5F5F5F5F5F5F5F5F5F5F5F5F5F5F5F5F5F5E2F5F5F5E2F5F5F5E2F5F5F5E2F5F5E2E2F5F5F5F5F5F5F5F5F5F5F5F5F5F5F5F5F5F5F5F5F5F5F5F5F5F5F5F5F5F5F5F5F5F5F5F5F5F5F5F5F5F5F5F5F5F5F5F5F5F5F5
310
F5F5F5F5F5F5F5F5F5F5F5F5F5F5F5F5F5F5F5F5F5F5F5F5F5F5F5F5F5F5F5F5F5F5F5F5F5F5F5F5E2F5F5F5E2F5F5F5E2F5F5F5E2F5F5E2E2F5F5F5F5F5F5F5F5F5F5F5F5F5F5F5F5F5F5F5F5F5F5F5F5F5F5F5F5F5F5F5F5F5F5F5F5F5F5F5F5F5F5F5F5F5F5F5F5F5F5F5F5F5F5F5F5F5F5F5F5F5F5F5F5F5F5F5F5F5F5
310
F5F5F5F5F5F5F5F5F5F5F5F5F5F5F5F5F5F5F5F5F5E2F5F5F5E2F5F5F5E2F5F5F5E2F5F5E2E2F5F5F5F5F5F5F5F5F5F5F5F5F5F5F5F5F5F5F5F5F5F5F5F5F5F5F5F5F5F5F5F5F5F5F5F5F5F5F5F5F5F5F5F5F5F5F5F5F5F5F5F5F5F5F5F5F5F5F5F5F5F5F5F5F5F5F5F5F5F5F5F5F5F5F5F5F5F5F5F5F5F5F5F5F5F5F5F5F5
310
F5F5E2F5F5F5E2F5F5F5E2F5F5F5E2F5F5E2E2F5F5F5F5F5F5F5F5F5F5F5F5F5F5F5F5F5F5F5F5F5F5F5F5F5F5F5F5F5F5F5F5F5F5F5F5F5F5F5F5F5F5F5F5F5F5F5F5F5F5F5F5F5F5F5F5F5F5F5F5F5F5F5F5F5F5F5F5F5F5F5F5F5F5F5F5F5F5F5F5F5F5F5F5F5F5F5F5F5F5F5E2F5F5F5E2F5F5F5E2F5F5F5E2F5F5E2E2
310
F5F5F5F5F5F5F5F5F5F5F5F5F5F5F5F5F5F5F5F5F5F5F5F5F5F5F5F5F5F5F5F5F5F5F5F5F5F5F5F5F5F5F5F5F5F5F5F5F5F5F5F5F5F5F5F5F5F5F5F5F5F5F5F5F5F5F5F5F5F5F5F5F5F5F5F5F5F5F5F5F5F5F5F5F5F5F5F5F5F5F5E2F5F5F5E2F5F5F5E2F5F5F5E2F5F5E2E2F5F5F5F5F5F5F5F5F5F5F5F5F5F5F5F5F5F5F5
310
F5F5F5F5F5F5F5F5F5F5F5F5F5F5F5F5F5F5F5F5F5F5F5F5F5F5F5F5F5F5F5F5F5F5F5F5F5F5F5F5F5F5F5F5F5F5F5F5F5F5F5F5F5F5F5F5F5F5F5F5F5F5F5F5F5F5F5F5F5F5F5F5E2F5F5F5E2F5F5F5E2F5F5F5E2F5F5E2E2F5F5F5F5F5F5F5F5F5F5F5F5F5F5F5F5F5F5F5F5F5F5F5F5F5F5F5F5F5F5F5F5F5F5F5F5F5F5
310
F5F5F5F5F5F5F5F5F5F5F5F5F5F5F5F5F5F5F5F5F5F5F5F5F5F5F5F5F5F5F5F5F5F5F5F5F5F5F5F5F5F5F5F5F5F5F5F5F5F5F5F5F5E2F5F5F5E2F5F5F5E2F5F5F5E2F5F5E2E2E2E2E2E2E2E2E2E2E2E2E2E2E2E2E2E2E2E2E2E2E2E2E2E2E2E2E2E2E2E2E2E2E2E2E2E2E2E2E2E2E2E2E2E2E2E2E2E2E2E2E2E2E2E2E2E2E2
310
E2E2E2E2E2E2E2E2E2E2E2E2E2E2E2E2E2E2E2E2E2E2E2E2E2E2E2E2E2E2E2E2E2E2E2F5F5F5E2F5F5F5E2F5F5F5E2F5F5F5F5F5F5F5F5F5F5F5F5F5F5F5F5F5F5F5F5F5F5F5F5F5F5F5F5F5F5F5F5F5F5F5F5F5F5F5F5F5F5F5F5F5F5F5F5F5F5F5F5F5F5F5F5F5F5F5F5F5F5F5F5F5F5F5F5F5F5F5F5F5F5F5F5F5F5F5F5
310
F5F5F5F5F5F5F5F5F5F5F5F5F5F5F5F5F5F5F5E2F5F5F5E2F5F5F5E2E2E2E2E2E2E2E2E2E2E2E2E2E2E2E2E2E2E2E2E2E2E2E2E2E2E2E2E2E2E2E2E2E2E2E2E2E2E2E2E2E2E2E2E2E2E2E2E2E2E2E2E2E2E2E2E2E2E2E2E2E2E2E2E2E2E2E2E2E2E2E2E2E2E2E2E2E2E2E2E2E2E2E2E2E2E2E2E2E2E2E2E2E2E2E2E2E2E2E2
310
E2F5F5F5E2F5F5F5F5F5F5F5F5F5F5F5F5F5F5F5F5F5F5F5F5F5F5F5F5F5F5F5F5F5F5F5F5F5F5F5F5F5F5F5F5F5F5F5F5F5F5F5F5F5F5F5F5F5F5F5F5F5F5F5F5F5F5F5F5F5F5F5F5F5F5F5F5F5F5F5F5F5F5F5F5F5F5F5F5F5F5F5F5F5F5F5F5F5F5F5F5F5F5F5F5F5F5F5F5F5F5F5E2F5F5F5F5F5F5F5F5F5F5F5F5F5F5
310
F5F5F5F5F5F5F5F5F5F5F5F5F5F5F5F5F5F5F5F5F5F5F5F5F5F5F5F5F5F5F5F5F5F5F5F5F5F5F5F5F5F5F5F5F5F5F5F5F5F5F5F5F5F5F5F5F5F5F5F5F5F5F5F5F5F5F5F5F5F5F5F5F5F5F5F5F5F5F5F5F5F5F5F5F5F5F5F5F5F5F5F5F5E2F5F5F5F5F5F5F5F5F5F5F5F5F5F5F5F5F5F5F5F5F5F5F5F5F5F5F5F5F5F5F5F5F5
310
F5F5F5F5F5F5F5F5F5F5F5F5F5F5F5F5F5F5F5F5F5F5F5F5F5F5F5F5F5F5F5F5F5F5F5F5F5F5F5F5F5F5F5F5F5F5F5F5F5F5F5F5F5F5F5F5F5F5F5F5F5F5F5F5F5F5F5F5F5F5F5F5F5F5E2E2E2E2E2E2E2E2E2E2E2E2E2E2E2E2E2E2E2E2E2E2E2E2E2E2E2E2E2E2E2E2E2E2E2E2E2E2E2E2E2E2E2E2E2E2E2E2E2E2E2E2E2
310
E2E2E2E2E2E2E2E2E2E2E2E2E2E2E2E2E2E2E2E2E2E2E2E2E2E2E2E2E2E2E2E2E2E2E2E2E2E2E2E2E2E2E2E2E2E2E2E2E2E2E2E2E2E2E2
  0
XRECORD
  5
1BE0
102
{ACAD_REACTORS
330
1BDF
102
}
330
1BDF
100
AcDbXrecord
280
     1
102
SHADEPLOT
 70
     0
102
SHADEPLOTRESLEVEL
 70
     2
102
SHADEPLOTCUSTOMDPI
 70
   300
  0
XRECORD
  5
1BEA
102
{ACAD_REACTORS
330
1BE9
102
}
330
1BE9
100
AcDbXrecord
280
     1
102
MATERIAL
148
0.0
149
0.0
149
0.0
 93
        0
 94
       63
282
     0
 72
     1
 77
     1
171
     1
175
     1
179
     1
273
     0
  0
XRECORD
  5
1BE8
102
{ACAD_REACTORS
330
1BE7
102
}
330
1BE7
100
AcDbXrecord
280
     1
102
MATERIAL
148
0.0
149
0.0
149
0.0
 93
        0
 94
       63
282
     0
 72
     1
 77
     1
171
     1
175
     1
179
     1
273
     0
  0
XRECORD
  5
1BEC
102
{ACAD_REACTORS
330
1BEB
102
}
330
1BEB
100
AcDbXrecord
280
     1
102
MATERIAL
148
0.0
149
0.0
149
0.0
 93
        0
 94
       63
282
     0
 72
     1
 77
     1
171
     1
175
     1
179
     1
273
     0
  0
XRECORD
  5
1BE4
102
{ACAD_REACTORS
330
1BE3
102
}
330
1BE3
100
AcDbXrecord
280
     1
102
SHADEPLOT
 70
     0
102
SHADEPLOTRESLEVEL
 70
     2
102
SHADEPLOTCUSTOMDPI
 70
   300
  0
XRECORD
  5
1BE6
102
{ACAD_REACTORS
330
1BE5
102
}
330
1BE5
100
AcDbXrecord
280
     1
102
SHADEPLOT
 70
     0
102
SHADEPLOTRESLEVEL
 70
     2
102
SHADEPLOTCUSTOMDPI
 70
   300
  0
XRECORD
  5
1BEE
102
{ACAD_REACTORS
330
1BED
102
}
330
1BED
100
AcDbXrecord
280
     1
102
ACAD_ROUNDTRIP_PRE2007_TABLESTYLE
 90
      512
 91
        0
  1

 92
      512
 93
        0
  2

 94
      512
 95
        0
  3

  0
ENDSEC
  0
EOF
